切换到宽版
  • 1220阅读
  • 1回复

无双/無雙 Project Gutenberg 2018 4K 2160p WEB-DL x264 AAC-SmY 6.50G [复制链接]

上一主题 下一主题
 

只看楼主 倒序阅读 使用道具 0 发表于: 2018-12-22
[attachment=32555] W Dg+J  
w9, iq@  
◎译  名 无双 / Mo seung / Project Gutenberg kAu+zX>S+  
◎片  名 無雙 SQqD:{#g"  
◎年  代 2018 1RK=,Wx  
◎产  地 中国大陆 / 香港 .h9l7 nZt  
◎类  别 剧情 / 动作 / 犯罪 M-[ $L XR  
◎语  言 汉语普通话 / 粤语 / 英语 / 泰语 / 波兰语 %,Ap7X3:QT  
◎上映日期 2018-09-30(中国大陆) / 2018-10-04(香港) (cN}Epi(D  
◎IMDb评分 7.3/10 from 773 users iVG-_RsKK  
◎IMDb链接 http://www.imdb.com/title/tt7183578 'UMXq~RMe  
◎豆瓣评分 8.2/10 from 273380 users ;_^fk&+  
◎豆瓣链接 https://movie.douban.com/subject/26425063/ d1U\ft:gV  
◎片  长 130分钟 !"<MsoY@  
◎导  演 庄文强 Felix Chong `67[O4$<  
◎编  剧 庄文强 Felix Chong #Sa27$&.>  
◎主  演 周润发 Yun-Fat Chow E;1Jh(58)b  
郭富城 Aaron Kwok L +'Fs  
张静初 Jingchu Zhang f|R"u W +  
冯文娟 Wenjuan Feng VY)9|JJCO  
廖启智 Kai Chi Liu cZT({uYGL  
周家怡 Catherine Chau F0:A]`|  
王耀庆 David Wang DSt]{fl`P  
方中信 Alex Fong RB+N IoQQ|  
高捷 Jack Kao <<i3r|}  
邢佳栋 Jiadong Xing }S3qBQTYL  
张松枝 Deno Cheung /r-aPJX  
张建声 Justin Cheung K^ B%/T]d  
吴嘉龙 Carl Wu ~i21%$  
孙佳君 Paulyn Sun F$^Su<w5l  
9:e YU =  
gS:A'@&  
◎简  介   2'5]~  
L~I hsiB  
ed:@C?  
《无双》讲述了以代号“画家”(周润发 饰)为首的犯罪团伙,掌握了制造伪钞技术,难辨真伪,并在全球进行交易获取利益,引起警方高度重视。然而“画家”和其他成员的身份一直成谜,警方的破案进度遭受到了前所未有的挑战。在关键时刻,擅长绘画的李问(郭富城 饰)打开了破案的突破口,而“画家”的真实身份却让众人意想不到…… 1.gG^$Jd  
?}m']4p  
General .N*Pl(<[  
Format                         : MPEG-4 r\blyWi  
Format profile                 : Base Media q+[Sb G&  
Codec ID                       : isom A0fFv+RN3  
File size                      : 6.50 GiB jiYmb8Q4D  
Duration                       : 2h 9mn \#rIQOPl?  
Overall bit rate               : 7 178 Kbps 8 O67  
Writing application            : Lavf57.41.100 ;q:jl~  
`\m*+Bk[5  
Video 1c;6xc,ub  
ID                             : 1 <}sq?Sfq!  
Format                         : AVC <D::9c j  
Format/Info                    : Advanced Video Codec # hlCs  
Format profile                 : High@L5.1 ;s~X  
Format settings, CABAC         : Yes .58qL-iC  
Format settings, ReFrames      : 3 frames v$=QA:!U  
Codec ID                       : avc1 ixV0|P8,c  
Codec ID/Info                  : Advanced Video Coding JR@.R ,rII  
Duration                       : 2h 9mn QjC22lW-  
Bit rate                       : 7 108 Kbps bO&7-Z~:=  
Width                          : 3 840 pixels V13BB44  
Height                         : 1 608 pixels uio@r^Xz  
Display aspect ratio           : 2.40:1 NHl|x4Zpw  
Frame rate mode                : Variable A.D{.a  
Frame rate                     : 24.000 fps lt_']QqU  
Minimum frame rate             : 23.810 fps ~u.T-0F  
Maximum frame rate             : 24.390 fps 1Jj Y!  
Color space                    : YUV jZ% TJ0(H  
Chroma subsampling             : 4:2:0 ) /v6l  
Bit depth                      : 8 bits }=v)Js  
Scan type                      : Progressive 9{$'S 4  
Bits/(Pixel*Frame)             : 0.048 M{$j  
Stream size                    : 6.44 GiB (99%) UK{irU|\  
Color range                    : Limited VL[kJi   
Color primaries                : BT.709  ru`U'  
Transfer characteristics       : BT.709 VOr1  
Matrix coefficients            : BT.709 j+^oz'q  
4]/7 )x?R  
Audio YhRWz=l  
ID                             : 2 P1zdK0TM  
Format                         : AAC 5BR2?hO4  
Format/Info                    : Advanced Audio Codec J -ePE7i  
Format profile                 : HE-AAC / LC u-1;'a  
Codec ID                       : 40 jM&r{^(  
Duration                       : 2h 9mn 2>\v*adG  
Bit rate mode                  : Constant dV Q-k  
Bit rate                       : 63.0 Kbps XK"-'  
Channel(s)                     : 2 channels 1lsLJ4P  
Channel positions              : Front: L R [lk'xzE  
Sampling rate                  : 44.1 KHz / 22.05 KHz .c#y%S  
Compression mode               : Lossy -!)xQvagD.  
Stream size                    : 58.4 MiB (1%) suH&jE$x  
l?iSxqdT  
[attachment=32556]

只看该作者 1 发表于: 2019-01-03
什么版本?粤语还是国语