切换到宽版
  • 538阅读
  • 1回复

无双/無雙 Project Gutenberg 2018 4K 2160p WEB-DL x264 AAC-SmY 6.50G [复制链接]

上一主题 下一主题
 

只看楼主 倒序阅读 使用道具 0 发表于: 2018-12-22
[attachment=32555] P|0dZHpT  
y ~16o   
◎译  名 无双 / Mo seung / Project Gutenberg U"SH fI:  
◎片  名 無雙 3c%dErch  
◎年  代 2018  M{!Y   
◎产  地 中国大陆 / 香港 )R~l@QBN  
◎类  别 剧情 / 动作 / 犯罪 |+-D@22 y  
◎语  言 汉语普通话 / 粤语 / 英语 / 泰语 / 波兰语 x-hr64WFK  
◎上映日期 2018-09-30(中国大陆) / 2018-10-04(香港) Ll2yJ .C4  
◎IMDb评分 7.3/10 from 773 users NA=I7I@  
◎IMDb链接 http://www.imdb.com/title/tt7183578 '3<AzR2  
◎豆瓣评分 8.2/10 from 273380 users s2IjZF{  
◎豆瓣链接 https://movie.douban.com/subject/26425063/ 9i^dQV.U=  
◎片  长 130分钟 lla?;^,  
◎导  演 庄文强 Felix Chong 2cnyq$4k  
◎编  剧 庄文强 Felix Chong ftaGu-d%  
◎主  演 周润发 Yun-Fat Chow KR49Y>s<  
郭富城 Aaron Kwok `jI$>{oa  
张静初 Jingchu Zhang ?.*^#>-  
冯文娟 Wenjuan Feng Xyz w.%4c  
廖启智 Kai Chi Liu t9C.|6X  
周家怡 Catherine Chau @.D1_A  
王耀庆 David Wang |(evDS5  
方中信 Alex Fong +VE ] .*T  
高捷 Jack Kao jPDk~|  
邢佳栋 Jiadong Xing #8{U0 7]"  
张松枝 Deno Cheung w$`[C+L  
张建声 Justin Cheung i(hL6DLD  
吴嘉龙 Carl Wu P5$L(x%~  
孙佳君 Paulyn Sun h?D>Dfeg%  
MS>QU@z7c  
8.Z9 i  
◎简  介   BQOit.  
MkNPC  
6Fe$'TP  
《无双》讲述了以代号“画家”(周润发 饰)为首的犯罪团伙,掌握了制造伪钞技术,难辨真伪,并在全球进行交易获取利益,引起警方高度重视。然而“画家”和其他成员的身份一直成谜,警方的破案进度遭受到了前所未有的挑战。在关键时刻,擅长绘画的李问(郭富城 饰)打开了破案的突破口,而“画家”的真实身份却让众人意想不到…… 9 SBVp 6'  
;A\SbLM  
General ^!F Li7X  
Format                         : MPEG-4 t[|a M-F&>  
Format profile                 : Base Media 4?u<i=i  
Codec ID                       : isom 0t^Tm0RzH  
File size                      : 6.50 GiB Zf,9 k".'C  
Duration                       : 2h 9mn gfPR3%EXs  
Overall bit rate               : 7 178 Kbps uE;bNs'  
Writing application            : Lavf57.41.100 N -z  
\LEU reTn  
Video GN=ugP 9  
ID                             : 1 W }"n*  
Format                         : AVC #X`qkW.T<  
Format/Info                    : Advanced Video Codec 141 G~@-  
Format profile                 : High@L5.1 1SwKd*aRR?  
Format settings, CABAC         : Yes ?TLzOYJp  
Format settings, ReFrames      : 3 frames S=^kR [O"  
Codec ID                       : avc1 ->u}b?aF  
Codec ID/Info                  : Advanced Video Coding zHg1K,t:  
Duration                       : 2h 9mn l |Y?]LNr  
Bit rate                       : 7 108 Kbps C25EIIdRb  
Width                          : 3 840 pixels UVUoXv)N  
Height                         : 1 608 pixels 7`pK=E}+  
Display aspect ratio           : 2.40:1 4?c4GT9(6S  
Frame rate mode                : Variable g.]S5(  
Frame rate                     : 24.000 fps VJoobu1h  
Minimum frame rate             : 23.810 fps Z'cL"n\9R]  
Maximum frame rate             : 24.390 fps aS3Fvk0R{h  
Color space                    : YUV AEw~LF2w  
Chroma subsampling             : 4:2:0 !zR1CM  
Bit depth                      : 8 bits +\yQZ{4'@  
Scan type                      : Progressive +>BD^[^^  
Bits/(Pixel*Frame)             : 0.048 = ;z42oS  
Stream size                    : 6.44 GiB (99%) <?E~Qc t  
Color range                    : Limited 7 O]$2  
Color primaries                : BT.709 Xf/qUao  
Transfer characteristics       : BT.709 _q1b3)`D  
Matrix coefficients            : BT.709 2t3DQ   
(DTXc2)c  
Audio VQ(l=k:}2  
ID                             : 2 y yqya[-11  
Format                         : AAC 6^#@y|.  
Format/Info                    : Advanced Audio Codec RK\$>KFE  
Format profile                 : HE-AAC / LC 8Rric[v  
Codec ID                       : 40 Q G8X{'  
Duration                       : 2h 9mn SMMvRF`7  
Bit rate mode                  : Constant 277Am*2  
Bit rate                       : 63.0 Kbps d>-k-X-[  
Channel(s)                     : 2 channels [ R%Pf/[Fr  
Channel positions              : Front: L R (d ?sFwOt\  
Sampling rate                  : 44.1 KHz / 22.05 KHz Pu`;B   
Compression mode               : Lossy 7dq*e4z)  
Stream size                    : 58.4 MiB (1%) T~G~M/  
5LVzT1j|  
[attachment=32556]

只看该作者 1 发表于: 01-03
什么版本?粤语还是国语