切换到宽版
  • 1130阅读
  • 1回复

无双/無雙 Project Gutenberg 2018 4K 2160p WEB-DL x264 AAC-SmY 6.50G [复制链接]

上一主题 下一主题
 

只看楼主 倒序阅读 使用道具 0 发表于: 2018-12-22
[attachment=32555] ,r^M?>  
u cwnA  
◎译  名 无双 / Mo seung / Project Gutenberg =p^He!  
◎片  名 無雙 iI@jZVk  
◎年  代 2018 -! ;l~#K=  
◎产  地 中国大陆 / 香港 /yz=Cjoz  
◎类  别 剧情 / 动作 / 犯罪 8[CB>-9  
◎语  言 汉语普通话 / 粤语 / 英语 / 泰语 / 波兰语 4h!f/aF'  
◎上映日期 2018-09-30(中国大陆) / 2018-10-04(香港) )D'^3) FF  
◎IMDb评分 7.3/10 from 773 users o@]So(9f  
◎IMDb链接 http://www.imdb.com/title/tt7183578 Q-Ux<#  
◎豆瓣评分 8.2/10 from 273380 users &C im!I  
◎豆瓣链接 https://movie.douban.com/subject/26425063/ 9 3+"D`  
◎片  长 130分钟 b `2|I {  
◎导  演 庄文强 Felix Chong fJ\sguZ  
◎编  剧 庄文强 Felix Chong R+q"_90_  
◎主  演 周润发 Yun-Fat Chow oRKEJ Nps  
郭富城 Aaron Kwok v%k9M{  
张静初 Jingchu Zhang JXG"M# {  
冯文娟 Wenjuan Feng zf4Ec-)  
廖启智 Kai Chi Liu &R|/t :DN  
周家怡 Catherine Chau scuHmY0  
王耀庆 David Wang -LDCBc"  
方中信 Alex Fong  nVu&/  
高捷 Jack Kao SvN9aD1  
邢佳栋 Jiadong Xing q#Zs\PD  
张松枝 Deno Cheung  x:vu'A  
张建声 Justin Cheung -[= drj9I  
吴嘉龙 Carl Wu ms($9Lv/  
孙佳君 Paulyn Sun }pk#!N  
}>^Q'BW;65  
9jN)I(^D6  
◎简  介   AM"Nn L"  
mS#zraJn5  
l no vykR  
《无双》讲述了以代号“画家”(周润发 饰)为首的犯罪团伙,掌握了制造伪钞技术,难辨真伪,并在全球进行交易获取利益,引起警方高度重视。然而“画家”和其他成员的身份一直成谜,警方的破案进度遭受到了前所未有的挑战。在关键时刻,擅长绘画的李问(郭富城 饰)打开了破案的突破口,而“画家”的真实身份却让众人意想不到…… n .!Ym X4  
_A<u#.yd  
General +,:du*C  
Format                         : MPEG-4 VL[R(a6c <  
Format profile                 : Base Media 6.5T/D*TT  
Codec ID                       : isom 5Zmw} M  
File size                      : 6.50 GiB ze_{=Cv&Y  
Duration                       : 2h 9mn ) xbO6V  
Overall bit rate               : 7 178 Kbps jENr>$$  
Writing application            : Lavf57.41.100 $M_x!f'{>  
nf 1#tlIJd  
Video $F.([?)k?  
ID                             : 1 =. y* _Ja  
Format                         : AVC | K?#$~  
Format/Info                    : Advanced Video Codec < B_Vc:Q  
Format profile                 : High@L5.1 "#v=IJy&r  
Format settings, CABAC         : Yes Cv$ SJc  
Format settings, ReFrames      : 3 frames S$f6a'  
Codec ID                       : avc1 =fm]Dl9h*  
Codec ID/Info                  : Advanced Video Coding ZcuA6#3B  
Duration                       : 2h 9mn L=2y57&Y  
Bit rate                       : 7 108 Kbps ut >4U'.H  
Width                          : 3 840 pixels n~g)I&  
Height                         : 1 608 pixels iX'rU@C  
Display aspect ratio           : 2.40:1 Ngb(F84H?  
Frame rate mode                : Variable mh<=[J,%p  
Frame rate                     : 24.000 fps Ladsw  
Minimum frame rate             : 23.810 fps )s1Ib4C  
Maximum frame rate             : 24.390 fps h' !imQ  
Color space                    : YUV i"|$(2  
Chroma subsampling             : 4:2:0 0y<wvLv2C  
Bit depth                      : 8 bits :K\mN/ x  
Scan type                      : Progressive ,!V] jP)  
Bits/(Pixel*Frame)             : 0.048 b 1&i#I?{  
Stream size                    : 6.44 GiB (99%) "<}&GcJbz  
Color range                    : Limited e]=!"nJ+  
Color primaries                : BT.709 h^ -. ]Y  
Transfer characteristics       : BT.709 7_2kDDW0  
Matrix coefficients            : BT.709 F}"]92  
0!z@2[Pe66  
Audio Bl9jkq ]  
ID                             : 2 /7!""{1\\  
Format                         : AAC R3k1RE2c&g  
Format/Info                    : Advanced Audio Codec P}.7Mehf  
Format profile                 : HE-AAC / LC *9)SmS s  
Codec ID                       : 40 D>Gt]s  
Duration                       : 2h 9mn T[= S$n -'  
Bit rate mode                  : Constant FWH}j0Gj|  
Bit rate                       : 63.0 Kbps \5Vde%!$Z  
Channel(s)                     : 2 channels %4 \OPw&  
Channel positions              : Front: L R b$k&dT\o  
Sampling rate                  : 44.1 KHz / 22.05 KHz .1 %T W)  
Compression mode               : Lossy ogFKUD*h&>  
Stream size                    : 58.4 MiB (1%) jGrN\D?h  
Le"oAA#[  
[attachment=32556]

只看该作者 1 发表于: 2019-01-03
什么版本?粤语还是国语