切换到宽版
  • 365阅读
  • 1回复

无双/無雙 Project Gutenberg 2018 4K 2160p WEB-DL x264 AAC-SmY 6.50G [复制链接]

上一主题 下一主题
 

只看楼主 倒序阅读 使用道具 0 发表于: 2018-12-22
[attachment=32555] j+88J  
vFV->/u  
◎译  名 无双 / Mo seung / Project Gutenberg &:nWZ!D  
◎片  名 無雙 Qf$0^$ "  
◎年  代 2018 j}X4#{jgC  
◎产  地 中国大陆 / 香港 hSQ P '6  
◎类  别 剧情 / 动作 / 犯罪 oy;N3  
◎语  言 汉语普通话 / 粤语 / 英语 / 泰语 / 波兰语 cJGA5m/{I  
◎上映日期 2018-09-30(中国大陆) / 2018-10-04(香港) l)Q,*i  
◎IMDb评分 7.3/10 from 773 users (IAl$IP63s  
◎IMDb链接 http://www.imdb.com/title/tt7183578 ~2S`y=*:  
◎豆瓣评分 8.2/10 from 273380 users cSnm\f  
◎豆瓣链接 https://movie.douban.com/subject/26425063/ e*jn7aya  
◎片  长 130分钟 ]j}zN2[A  
◎导  演 庄文强 Felix Chong ZL+{?1&-  
◎编  剧 庄文强 Felix Chong \@:pWe  
◎主  演 周润发 Yun-Fat Chow @R9  
郭富城 Aaron Kwok J3}^\k=p"  
张静初 Jingchu Zhang e-]k{_wm  
冯文娟 Wenjuan Feng [64K?l0&  
廖启智 Kai Chi Liu v}M, M&?  
周家怡 Catherine Chau VX[{X8PkS  
王耀庆 David Wang 6<(HT#=#  
方中信 Alex Fong VjMd&>G  
高捷 Jack Kao w-HgC  
邢佳栋 Jiadong Xing lmz{,O  
张松枝 Deno Cheung  IhJ _Yed  
张建声 Justin Cheung &bRmr/D  
吴嘉龙 Carl Wu q@8Rlc&  
孙佳君 Paulyn Sun ad&Mk^p  
Z5bmqhDo[  
svU107?  
◎简  介   \I/l6H>o3  
]zhFFq`  
A&Ut:Oi A  
《无双》讲述了以代号“画家”(周润发 饰)为首的犯罪团伙,掌握了制造伪钞技术,难辨真伪,并在全球进行交易获取利益,引起警方高度重视。然而“画家”和其他成员的身份一直成谜,警方的破案进度遭受到了前所未有的挑战。在关键时刻,擅长绘画的李问(郭富城 饰)打开了破案的突破口,而“画家”的真实身份却让众人意想不到…… |/]bpG'z  
YM1tP'4j@  
General oYup*@t  
Format                         : MPEG-4 Y=vA ;BE]R  
Format profile                 : Base Media ]W5s!T_  
Codec ID                       : isom 2j=3i@  
File size                      : 6.50 GiB ` Rm2G  
Duration                       : 2h 9mn ~5:]Oux  
Overall bit rate               : 7 178 Kbps < ;Qle  
Writing application            : Lavf57.41.100 sq@Eu>Ng(X  
q~;P^i<Y  
Video )fA9,yNJ3  
ID                             : 1 lh(A=hn"n  
Format                         : AVC ?Xlmt$ Jp  
Format/Info                    : Advanced Video Codec vJtQ&,zG  
Format profile                 : High@L5.1 GNZQj8  
Format settings, CABAC         : Yes ^NHQ[4I  
Format settings, ReFrames      : 3 frames mu=u!by.E  
Codec ID                       : avc1 CImB,AXS  
Codec ID/Info                  : Advanced Video Coding ! r.X.C  
Duration                       : 2h 9mn S]K^wj[  
Bit rate                       : 7 108 Kbps :1hp_XfJb  
Width                          : 3 840 pixels |uj1T=ZY  
Height                         : 1 608 pixels q. K >v'  
Display aspect ratio           : 2.40:1 oT\B-lx  
Frame rate mode                : Variable z]gxkol\  
Frame rate                     : 24.000 fps nD MNaMYb  
Minimum frame rate             : 23.810 fps fR_)e:  
Maximum frame rate             : 24.390 fps 1Q#hanh_`  
Color space                    : YUV \X Nb9-  
Chroma subsampling             : 4:2:0 AWh{dM  
Bit depth                      : 8 bits M GN*i9CE  
Scan type                      : Progressive `axNeqM  
Bits/(Pixel*Frame)             : 0.048 CW *6 -q  
Stream size                    : 6.44 GiB (99%) 4{}u PbS  
Color range                    : Limited >|.jG_s  
Color primaries                : BT.709 3|/ ;`KfQ  
Transfer characteristics       : BT.709 lY?TF  
Matrix coefficients            : BT.709 87YT;Z;U&  
L7X._XBO[  
Audio O JvEq@  
ID                             : 2 dbB2/RI  
Format                         : AAC HR['y9 U  
Format/Info                    : Advanced Audio Codec h&h]z[r R  
Format profile                 : HE-AAC / LC yoGE#+|7^  
Codec ID                       : 40 S8.nM }x  
Duration                       : 2h 9mn \@MGO aR]  
Bit rate mode                  : Constant "y_$!KY%  
Bit rate                       : 63.0 Kbps dWI/X  
Channel(s)                     : 2 channels D 67H56[  
Channel positions              : Front: L R _q3SR[k+`  
Sampling rate                  : 44.1 KHz / 22.05 KHz @ U}fvdft  
Compression mode               : Lossy 0EPF; Xx  
Stream size                    : 58.4 MiB (1%) ;#~rd8Z52  
|n01T_Z)P  
[attachment=32556]

只看该作者 1 发表于: 01-03
什么版本?粤语还是国语