切换到宽版
  • 133阅读
  • 1回复

无双/無雙 Project Gutenberg 2018 4K 2160p WEB-DL x264 AAC-SmY 6.50G [复制链接]

上一主题 下一主题
 

只看楼主 倒序阅读 使用道具 0 发表于: 2018-12-22
[attachment=32555] H0tF  
l4 `^!  
◎译  名 无双 / Mo seung / Project Gutenberg Hd*Fc=>"Y  
◎片  名 無雙 ,Qo}J@e (  
◎年  代 2018 o>K &D$J;O  
◎产  地 中国大陆 / 香港 ,9UCb$mh  
◎类  别 剧情 / 动作 / 犯罪 8}K"IW  
◎语  言 汉语普通话 / 粤语 / 英语 / 泰语 / 波兰语 5\?3$<1 I  
◎上映日期 2018-09-30(中国大陆) / 2018-10-04(香港) V(I7*_ZFl  
◎IMDb评分 7.3/10 from 773 users 1*#bfeoM  
◎IMDb链接 http://www.imdb.com/title/tt7183578 r:#Q9EA  
◎豆瓣评分 8.2/10 from 273380 users 3*2I$e!Jt  
◎豆瓣链接 https://movie.douban.com/subject/26425063/ |<2 *v-a  
◎片  长 130分钟 ULTNhq R*n  
◎导  演 庄文强 Felix Chong zze z~bv7:  
◎编  剧 庄文强 Felix Chong -Qg,99M  
◎主  演 周润发 Yun-Fat Chow 8qmknJC  
郭富城 Aaron Kwok Lv3XYZgW~  
张静初 Jingchu Zhang \L %q[  
冯文娟 Wenjuan Feng Z{#"-UG   
廖启智 Kai Chi Liu 6ZTaQPtm  
周家怡 Catherine Chau Rj&qh `  
王耀庆 David Wang a G@nErdW  
方中信 Alex Fong  Dx0O'uwR  
高捷 Jack Kao 9IOGc}  
邢佳栋 Jiadong Xing D8EeZUqU  
张松枝 Deno Cheung 4D GY6PS  
张建声 Justin Cheung E{I) ]h  
吴嘉龙 Carl Wu RCQAtBd  
孙佳君 Paulyn Sun 'Y ,1OK  
(`F|nG=X  
+>u>`|  
◎简  介   $59nu7yr  
|a>}9:g,=*  
8T<@ @6`T  
《无双》讲述了以代号“画家”(周润发 饰)为首的犯罪团伙,掌握了制造伪钞技术,难辨真伪,并在全球进行交易获取利益,引起警方高度重视。然而“画家”和其他成员的身份一直成谜,警方的破案进度遭受到了前所未有的挑战。在关键时刻,擅长绘画的李问(郭富城 饰)打开了破案的突破口,而“画家”的真实身份却让众人意想不到……  Y[h#hZ  
/'mrDb_ip  
General ;raz6DRO  
Format                         : MPEG-4 x!`b'U\  
Format profile                 : Base Media sK`< kbj  
Codec ID                       : isom qj`,qm P  
File size                      : 6.50 GiB `,Xb8^M2  
Duration                       : 2h 9mn OWZS3Y+  
Overall bit rate               : 7 178 Kbps T G_bje  
Writing application            : Lavf57.41.100 8H7O/n  
.hc|t-7f  
Video _/ct=  
ID                             : 1 " bPCOJ[v9  
Format                         : AVC )) p$vU3  
Format/Info                    : Advanced Video Codec =?HzNA$yh  
Format profile                 : High@L5.1 @W#fui<<}Y  
Format settings, CABAC         : Yes Z@}sCZ=#A  
Format settings, ReFrames      : 3 frames n}0za#G  
Codec ID                       : avc1 GKiq0*/M  
Codec ID/Info                  : Advanced Video Coding 8W;xi:CC  
Duration                       : 2h 9mn "/Om}*VhD  
Bit rate                       : 7 108 Kbps OI*ZVD)J  
Width                          : 3 840 pixels \QliHm!  
Height                         : 1 608 pixels Q,D0kS P  
Display aspect ratio           : 2.40:1 Q! Kn|mnN  
Frame rate mode                : Variable ;CA ?eI  
Frame rate                     : 24.000 fps Ze#Jhn@  
Minimum frame rate             : 23.810 fps \{[D|_   
Maximum frame rate             : 24.390 fps `'kc|!%MUq  
Color space                    : YUV I$+%~4  
Chroma subsampling             : 4:2:0 LE8K)i  
Bit depth                      : 8 bits o>0O@NE  
Scan type                      : Progressive "EN98^ Sl  
Bits/(Pixel*Frame)             : 0.048 tp#Z@5=  
Stream size                    : 6.44 GiB (99%) ZyHIMo|  
Color range                    : Limited ~l(G6/R  
Color primaries                : BT.709 ?E%U|(S)=L  
Transfer characteristics       : BT.709 j\! ~9  
Matrix coefficients            : BT.709 D}mo\  
7X(rLd 6#  
Audio /z/hUa  
ID                             : 2 iP2U]d~M  
Format                         : AAC V/`#B$6  
Format/Info                    : Advanced Audio Codec N{ : [/  
Format profile                 : HE-AAC / LC 5tN%a>D%  
Codec ID                       : 40 $eK8GMxZ#  
Duration                       : 2h 9mn #x, ]D  
Bit rate mode                  : Constant ?+bTPl;%'  
Bit rate                       : 63.0 Kbps WH{cJ7wCL  
Channel(s)                     : 2 channels YnKFcEJrT  
Channel positions              : Front: L R )EhTM-1  
Sampling rate                  : 44.1 KHz / 22.05 KHz 6>@(/mh*  
Compression mode               : Lossy TjKzBAX  
Stream size                    : 58.4 MiB (1%) r$b:1C~  
xnl<<}4pJ  
[attachment=32556]

只看该作者 1 发表于: 01-03
什么版本?粤语还是国语