切换到宽版
  • 672阅读
  • 1回复

无双/無雙 Project Gutenberg 2018 4K 2160p WEB-DL x264 AAC-SmY 6.50G [复制链接]

上一主题 下一主题
 

只看楼主 倒序阅读 使用道具 0 发表于: 2018-12-22
[attachment=32555] ; 5.S"  
caC-JcDXy  
◎译  名 无双 / Mo seung / Project Gutenberg [(d))(M$|  
◎片  名 無雙 R>CIE L  
◎年  代 2018 !o{>[  
◎产  地 中国大陆 / 香港 MzP q(`W  
◎类  别 剧情 / 动作 / 犯罪 R>#BJ^>=  
◎语  言 汉语普通话 / 粤语 / 英语 / 泰语 / 波兰语 dPx{9Y<FzU  
◎上映日期 2018-09-30(中国大陆) / 2018-10-04(香港) =,HxtPJ  
◎IMDb评分 7.3/10 from 773 users nS$_VJ]~  
◎IMDb链接 http://www.imdb.com/title/tt7183578 Oh]RIWL  
◎豆瓣评分 8.2/10 from 273380 users 9cMQ51k)E  
◎豆瓣链接 https://movie.douban.com/subject/26425063/ \(g /::|  
◎片  长 130分钟 m&&Y=2  
◎导  演 庄文强 Felix Chong [.[|rnil  
◎编  剧 庄文强 Felix Chong xJemc3]2  
◎主  演 周润发 Yun-Fat Chow !YZ$WiPl  
郭富城 Aaron Kwok ^h^\kW'#  
张静初 Jingchu Zhang gfU@`A_N"  
冯文娟 Wenjuan Feng 1v2pPUH\  
廖启智 Kai Chi Liu F&[MyXU4  
周家怡 Catherine Chau ]\ DIJ>JZ  
王耀庆 David Wang K H&o`U(}  
方中信 Alex Fong x4 .Y&Wq#  
高捷 Jack Kao 7~H .\4HB  
邢佳栋 Jiadong Xing PS\n0  
张松枝 Deno Cheung [e.@Yx_}  
张建声 Justin Cheung Aav|N3  
吴嘉龙 Carl Wu z!> H^v  
孙佳君 Paulyn Sun Duh[(r_  
'|~L9t  
K2gg"#ft?  
◎简  介   <>I4wqqb  
H7&bUt/  
lAZn0EU  
《无双》讲述了以代号“画家”(周润发 饰)为首的犯罪团伙,掌握了制造伪钞技术,难辨真伪,并在全球进行交易获取利益,引起警方高度重视。然而“画家”和其他成员的身份一直成谜,警方的破案进度遭受到了前所未有的挑战。在关键时刻,擅长绘画的李问(郭富城 饰)打开了破案的突破口,而“画家”的真实身份却让众人意想不到…… _G1C5nkDl4  
[:xpz,  
General >?yxig:_  
Format                         : MPEG-4 E6njm du  
Format profile                 : Base Media F?EAIL  
Codec ID                       : isom eABLBsx  
File size                      : 6.50 GiB Uc> $w?oA  
Duration                       : 2h 9mn \ &#pJB BG  
Overall bit rate               : 7 178 Kbps SRfnT?u6  
Writing application            : Lavf57.41.100 ^Ox|q_E w}  
L-V+`![{  
Video 6Q}WX[| tQ  
ID                             : 1 .*acw  
Format                         : AVC ' (o*l  
Format/Info                    : Advanced Video Codec ;E0aTV)Zp  
Format profile                 : High@L5.1 O77bm,E  
Format settings, CABAC         : Yes nPh| rW=  
Format settings, ReFrames      : 3 frames NKJ+DD:'  
Codec ID                       : avc1 I%qZMoS1h  
Codec ID/Info                  : Advanced Video Coding //W7$DYEG  
Duration                       : 2h 9mn }k7t#O  
Bit rate                       : 7 108 Kbps 1NI%J B  
Width                          : 3 840 pixels AFN"#M  
Height                         : 1 608 pixels FvTc{"w /  
Display aspect ratio           : 2.40:1 CQGq}.Jt!  
Frame rate mode                : Variable I&lb5'6D  
Frame rate                     : 24.000 fps R3,O;9i  
Minimum frame rate             : 23.810 fps ugT;NB  
Maximum frame rate             : 24.390 fps h:qt?$]J  
Color space                    : YUV 0%f}w0]:  
Chroma subsampling             : 4:2:0 G+dQ" cI9  
Bit depth                      : 8 bits P g{/tM Y  
Scan type                      : Progressive ~0 5p+F)  
Bits/(Pixel*Frame)             : 0.048 X4z6#S58  
Stream size                    : 6.44 GiB (99%) ecg>_%.>  
Color range                    : Limited S( nZ]QEG  
Color primaries                : BT.709 oI2YJ2?Je8  
Transfer characteristics       : BT.709 p A|Z%aL  
Matrix coefficients            : BT.709 m5w ZS>@  
=iZj&B X  
Audio rQ+2 -|#  
ID                             : 2 KOqp@K$  
Format                         : AAC f5p:o}U*  
Format/Info                    : Advanced Audio Codec |1z?#@BH  
Format profile                 : HE-AAC / LC p(J,fus  
Codec ID                       : 40 Q;EQ8pL?"  
Duration                       : 2h 9mn @2HNYW)  
Bit rate mode                  : Constant s'Op|`&X  
Bit rate                       : 63.0 Kbps %8N=4vTJ  
Channel(s)                     : 2 channels h%0hryGB  
Channel positions              : Front: L R n@"h^-  
Sampling rate                  : 44.1 KHz / 22.05 KHz COC6H'F  
Compression mode               : Lossy d 6$,N|  
Stream size                    : 58.4 MiB (1%) Ln2dD>{2  
#^Io9dA h  
[attachment=32556]

只看该作者 1 发表于: 01-03
什么版本?粤语还是国语