切换到宽版
  • 676阅读
  • 1回复

无双/無雙 Project Gutenberg 2018 4K 2160p WEB-DL x264 AAC-SmY 6.50G [复制链接]

上一主题 下一主题
 

只看楼主 倒序阅读 使用道具 0 发表于: 2018-12-22
[attachment=32555] yZcnky  
$ -ICTp  
◎译  名 无双 / Mo seung / Project Gutenberg #[$zbZ(I>:  
◎片  名 無雙 TQ&1!~L*  
◎年  代 2018 HBp$   
◎产  地 中国大陆 / 香港 zPn 2  
◎类  别 剧情 / 动作 / 犯罪 QuWW a|g^.  
◎语  言 汉语普通话 / 粤语 / 英语 / 泰语 / 波兰语 7+;$_,Xo<  
◎上映日期 2018-09-30(中国大陆) / 2018-10-04(香港) :HW\awv  
◎IMDb评分 7.3/10 from 773 users >^N{  
◎IMDb链接 http://www.imdb.com/title/tt7183578  3<R8_p  
◎豆瓣评分 8.2/10 from 273380 users XS oHh-  
◎豆瓣链接 https://movie.douban.com/subject/26425063/ Iy8fN"I9D  
◎片  长 130分钟 QpI\\Zt6  
◎导  演 庄文强 Felix Chong (N[R`LN  
◎编  剧 庄文强 Felix Chong 2PTAIm Rq  
◎主  演 周润发 Yun-Fat Chow aPR XK1  
郭富城 Aaron Kwok Y6:b  
张静初 Jingchu Zhang $rV4JROb  
冯文娟 Wenjuan Feng >_'0 s  
廖启智 Kai Chi Liu E - +t[W  
周家怡 Catherine Chau =;A >1g$  
王耀庆 David Wang ?ytY8`PC  
方中信 Alex Fong  U!O"f  
高捷 Jack Kao aGbHDo  
邢佳栋 Jiadong Xing Hn sPXF'8g  
张松枝 Deno Cheung %Kzu&*9Hb  
张建声 Justin Cheung !=bGU=^  
吴嘉龙 Carl Wu XmAu n  
孙佳君 Paulyn Sun ?d' vIpzO!  
>QSlH]M  
7xh91EU:4  
◎简  介   AkAQ%)6qV  
Z_Y' 3'^Tw  
h$l`)AH^  
《无双》讲述了以代号“画家”(周润发 饰)为首的犯罪团伙,掌握了制造伪钞技术,难辨真伪,并在全球进行交易获取利益,引起警方高度重视。然而“画家”和其他成员的身份一直成谜,警方的破案进度遭受到了前所未有的挑战。在关键时刻,擅长绘画的李问(郭富城 饰)打开了破案的突破口,而“画家”的真实身份却让众人意想不到…… L}=t"y  
'_B;e=v`  
General AwtiV-w  
Format                         : MPEG-4 u9u'!hAGH  
Format profile                 : Base Media nq qqP  
Codec ID                       : isom L};P*{q2Z  
File size                      : 6.50 GiB L Z}m;  
Duration                       : 2h 9mn 5$&',v(  
Overall bit rate               : 7 178 Kbps &fe67#0r)  
Writing application            : Lavf57.41.100 ?h)T\z  
!:c_i,N  
Video F/u i(4  
ID                             : 1  N<~LgH  
Format                         : AVC kgP6'`}E[  
Format/Info                    : Advanced Video Codec Zx Ak  
Format profile                 : High@L5.1 sB0m^Y'  
Format settings, CABAC         : Yes O`Y@U?^N  
Format settings, ReFrames      : 3 frames KGrYF  
Codec ID                       : avc1 nQ@<[KNd  
Codec ID/Info                  : Advanced Video Coding {]]#q0|  
Duration                       : 2h 9mn sspGB>h8l  
Bit rate                       : 7 108 Kbps L, 2;-b|  
Width                          : 3 840 pixels nT9Hw~f<j  
Height                         : 1 608 pixels D<'G\#n3I=  
Display aspect ratio           : 2.40:1 Ze? n Q-  
Frame rate mode                : Variable PkcvUJV  
Frame rate                     : 24.000 fps \Nj#1G  
Minimum frame rate             : 23.810 fps %wco)2  
Maximum frame rate             : 24.390 fps S5\KI+;PW  
Color space                    : YUV #xw3a<z?u  
Chroma subsampling             : 4:2:0 pP%9MSCi  
Bit depth                      : 8 bits d%:J-UtG"  
Scan type                      : Progressive tA^CuJR  
Bits/(Pixel*Frame)             : 0.048  0:$pJtx"  
Stream size                    : 6.44 GiB (99%) O-!Q~;3][  
Color range                    : Limited S@Aw1i p  
Color primaries                : BT.709 @M6F?;  
Transfer characteristics       : BT.709 h0")NBRV&  
Matrix coefficients            : BT.709 ,I H~  
\46*4?pP  
Audio XB]>Z)  
ID                             : 2 dEkAU H  
Format                         : AAC :r7!HG _  
Format/Info                    : Advanced Audio Codec vj|#M/3>  
Format profile                 : HE-AAC / LC +&G]\WX<  
Codec ID                       : 40 x,HD,VQR/  
Duration                       : 2h 9mn O*%5P5'p"{  
Bit rate mode                  : Constant Jv kTfTE7  
Bit rate                       : 63.0 Kbps DGg1TUE  
Channel(s)                     : 2 channels #e1iYFgS  
Channel positions              : Front: L R lYmxd8  
Sampling rate                  : 44.1 KHz / 22.05 KHz j / @<=  
Compression mode               : Lossy 3R)|DGql=1  
Stream size                    : 58.4 MiB (1%) ,y@WFRsx  
+ Y!:@d  
[attachment=32556]

只看该作者 1 发表于: 01-03
什么版本?粤语还是国语