切换到宽版
  • 366阅读
  • 1回复

无双/無雙 Project Gutenberg 2018 4K 2160p WEB-DL x264 AAC-SmY 6.50G [复制链接]

上一主题 下一主题
 

只看楼主 倒序阅读 使用道具 0 发表于: 2018-12-22
[attachment=32555] G5"UhnOD'  
'<>pz<c  
◎译  名 无双 / Mo seung / Project Gutenberg WkXa%OZ  
◎片  名 無雙 SL pd~ZC?  
◎年  代 2018  #XQEfa  
◎产  地 中国大陆 / 香港 EtcAU}9  
◎类  别 剧情 / 动作 / 犯罪 8!b#ez   
◎语  言 汉语普通话 / 粤语 / 英语 / 泰语 / 波兰语 mAk)9`f/  
◎上映日期 2018-09-30(中国大陆) / 2018-10-04(香港) V. =!^0'A  
◎IMDb评分 7.3/10 from 773 users   6n  
◎IMDb链接 http://www.imdb.com/title/tt7183578 :f 1*-y  
◎豆瓣评分 8.2/10 from 273380 users ::9U5E;!  
◎豆瓣链接 https://movie.douban.com/subject/26425063/ <[8at6;  
◎片  长 130分钟 \uQ(-ji  
◎导  演 庄文强 Felix Chong Pqo"~&Y|~  
◎编  剧 庄文强 Felix Chong ^7Z)/c`"  
◎主  演 周润发 Yun-Fat Chow J6n@|L!yO  
郭富城 Aaron Kwok vbmi_[,U  
张静初 Jingchu Zhang jC@$D*"J  
冯文娟 Wenjuan Feng n0>#?ek12  
廖启智 Kai Chi Liu !-U 5d9!  
周家怡 Catherine Chau xl5mI~n_~  
王耀庆 David Wang oa}-=hG  
方中信 Alex Fong L'H'E,  
高捷 Jack Kao P`@d8 %*;  
邢佳栋 Jiadong Xing FU;Tv).  
张松枝 Deno Cheung g.SFl  
张建声 Justin Cheung (6^v`SZ  
吴嘉龙 Carl Wu (Z,v)TOXjV  
孙佳君 Paulyn Sun O:{I9V-=>s  
}NMA($@A  
!L2R0Y:a  
◎简  介   _o'ii VDuD  
%qV=PC  
2h IM!wQ  
《无双》讲述了以代号“画家”(周润发 饰)为首的犯罪团伙,掌握了制造伪钞技术,难辨真伪,并在全球进行交易获取利益,引起警方高度重视。然而“画家”和其他成员的身份一直成谜,警方的破案进度遭受到了前所未有的挑战。在关键时刻,擅长绘画的李问(郭富城 饰)打开了破案的突破口,而“画家”的真实身份却让众人意想不到…… jdK~]eld=  
=;l .<{<VH  
General )U`6` &F  
Format                         : MPEG-4 3PIZay  
Format profile                 : Base Media Ew*_@hVC  
Codec ID                       : isom VY<$~9a&1  
File size                      : 6.50 GiB x{*g^f  
Duration                       : 2h 9mn Q]S~ H+eRy  
Overall bit rate               : 7 178 Kbps g"EvMv&  
Writing application            : Lavf57.41.100 IGV@tI  
hxP%m4xF +  
Video qg7.E+  
ID                             : 1 B: \\aOEj  
Format                         : AVC g j8rrd |  
Format/Info                    : Advanced Video Codec )D{L<.i_  
Format profile                 : High@L5.1 }%c2u/PQ  
Format settings, CABAC         : Yes E/v.+m  
Format settings, ReFrames      : 3 frames JF!JY( U,  
Codec ID                       : avc1 :1^ R$0d  
Codec ID/Info                  : Advanced Video Coding oM G8?p  
Duration                       : 2h 9mn DJVH}w}9_P  
Bit rate                       : 7 108 Kbps H!?Av$h`  
Width                          : 3 840 pixels d&BocJ  
Height                         : 1 608 pixels 12`q9Io"  
Display aspect ratio           : 2.40:1 |_"JyGR2  
Frame rate mode                : Variable DzydS=`w  
Frame rate                     : 24.000 fps ]v(8i3P84  
Minimum frame rate             : 23.810 fps =iW!Mq  
Maximum frame rate             : 24.390 fps $N'AZY]4]  
Color space                    : YUV 8n+&tBq1  
Chroma subsampling             : 4:2:0 Uy2NZ%rnt  
Bit depth                      : 8 bits 3=5K7 F  
Scan type                      : Progressive 5\gL+ qM0  
Bits/(Pixel*Frame)             : 0.048 x' >Nz{B,P  
Stream size                    : 6.44 GiB (99%) @}eEV[Lli  
Color range                    : Limited f!%G{G^`  
Color primaries                : BT.709 Veo*-sl  
Transfer characteristics       : BT.709 i8 iv{e2  
Matrix coefficients            : BT.709 %sxLxx_x!  
'n4Ro|kA  
Audio eG&\b-%  
ID                             : 2 d` %8qLIW  
Format                         : AAC 3*)<Y}Tc  
Format/Info                    : Advanced Audio Codec *j5>2-C &  
Format profile                 : HE-AAC / LC h DpIwzJ  
Codec ID                       : 40 +`tl<r g;  
Duration                       : 2h 9mn wNo2$>*  
Bit rate mode                  : Constant l r80RL'_  
Bit rate                       : 63.0 Kbps x93h{K f  
Channel(s)                     : 2 channels 'NJGez'b ,  
Channel positions              : Front: L R \d"JYym  
Sampling rate                  : 44.1 KHz / 22.05 KHz rQmDpoy=  
Compression mode               : Lossy b3R1L|@  
Stream size                    : 58.4 MiB (1%) ~tK4C|  
_gU:!:}  
[attachment=32556]

只看该作者 1 发表于: 01-03
什么版本?粤语还是国语