切换到宽版
  • 537阅读
  • 1回复

无双/無雙 Project Gutenberg 2018 4K 2160p WEB-DL x264 AAC-SmY 6.50G [复制链接]

上一主题 下一主题
 

只看楼主 倒序阅读 使用道具 0 发表于: 2018-12-22
[attachment=32555] _u0dt) $  
^&}Y>O,  
◎译  名 无双 / Mo seung / Project Gutenberg >Vvc55z  
◎片  名 無雙 ~>n<b1}W  
◎年  代 2018 X {$gdz8S9  
◎产  地 中国大陆 / 香港 >7 |37a  
◎类  别 剧情 / 动作 / 犯罪 I zT%Kq  
◎语  言 汉语普通话 / 粤语 / 英语 / 泰语 / 波兰语 =ZQIpc  
◎上映日期 2018-09-30(中国大陆) / 2018-10-04(香港) rZEu@63  
◎IMDb评分 7.3/10 from 773 users ]%."  
◎IMDb链接 http://www.imdb.com/title/tt7183578 <bH>\@p7}  
◎豆瓣评分 8.2/10 from 273380 users -l",!sV  
◎豆瓣链接 https://movie.douban.com/subject/26425063/ = 4If7  
◎片  长 130分钟 w%ForDB>P  
◎导  演 庄文强 Felix Chong Dz?F,g_  
◎编  剧 庄文强 Felix Chong ]WG\+1x9  
◎主  演 周润发 Yun-Fat Chow aF:I]]TfK~  
郭富城 Aaron Kwok <  5ow81  
张静初 Jingchu Zhang }Y[.h=X  
冯文娟 Wenjuan Feng ;8@A7`^  
廖启智 Kai Chi Liu zri<'W  
周家怡 Catherine Chau __QT lj  
王耀庆 David Wang jHd~yCq  
方中信 Alex Fong .f}I$ "2  
高捷 Jack Kao `{ /tx!  
邢佳栋 Jiadong Xing X7G6y|4;w  
张松枝 Deno Cheung /mb| %U]~  
张建声 Justin Cheung r~sGot+sQA  
吴嘉龙 Carl Wu ,FTF@h-Cs  
孙佳君 Paulyn Sun l$FHL2?Cp  
A1|:$tED+2  
%63<Iz"  
◎简  介   NM4 n  
M1^pW 63  
Uz0mSfBp  
《无双》讲述了以代号“画家”(周润发 饰)为首的犯罪团伙,掌握了制造伪钞技术,难辨真伪,并在全球进行交易获取利益,引起警方高度重视。然而“画家”和其他成员的身份一直成谜,警方的破案进度遭受到了前所未有的挑战。在关键时刻,擅长绘画的李问(郭富城 饰)打开了破案的突破口,而“画家”的真实身份却让众人意想不到…… NY CkYI  
eaI&DP  
General 1G\ugLm  
Format                         : MPEG-4 b;yhgdFx  
Format profile                 : Base Media u@o3p*bQ  
Codec ID                       : isom `);`E_'U k  
File size                      : 6.50 GiB htjJ0>&  
Duration                       : 2h 9mn $oNkE  
Overall bit rate               : 7 178 Kbps S\C   
Writing application            : Lavf57.41.100 { "/@,!9rJ  
C}Khh`8@5.  
Video (Yx rZ_F'b  
ID                             : 1 rO-Tr  
Format                         : AVC Y4i-Pp?  
Format/Info                    : Advanced Video Codec AVi|JY)>  
Format profile                 : High@L5.1 ZXco5,1  
Format settings, CABAC         : Yes f[.]JC+,  
Format settings, ReFrames      : 3 frames U $+rlw}  
Codec ID                       : avc1 4Ld0AApncy  
Codec ID/Info                  : Advanced Video Coding mFvw s  
Duration                       : 2h 9mn Abj`0\  
Bit rate                       : 7 108 Kbps 5!?><{k=%  
Width                          : 3 840 pixels t?/#: J*_7  
Height                         : 1 608 pixels uy B ?-Y+  
Display aspect ratio           : 2.40:1 I3SLR  
Frame rate mode                : Variable VQX#P<  
Frame rate                     : 24.000 fps d=xweU<  
Minimum frame rate             : 23.810 fps tnp]wZ  
Maximum frame rate             : 24.390 fps }ulFW]A^7  
Color space                    : YUV -8-Aqh8|  
Chroma subsampling             : 4:2:0 vHao y  
Bit depth                      : 8 bits vXyaOZ  
Scan type                      : Progressive LaLA }1!  
Bits/(Pixel*Frame)             : 0.048 ;VvqKyUh7`  
Stream size                    : 6.44 GiB (99%) MJK L4 G  
Color range                    : Limited u%&zY97/  
Color primaries                : BT.709 -PxA~((g5  
Transfer characteristics       : BT.709 ?p/i}28=y  
Matrix coefficients            : BT.709 |vzGFfRI  
z7J#1q~:yY  
Audio L!5%;!>.P  
ID                             : 2 lGs fs(  
Format                         : AAC }4+S_b  
Format/Info                    : Advanced Audio Codec y*P[* /g  
Format profile                 : HE-AAC / LC NK d8XQ=%  
Codec ID                       : 40 Jln dypE  
Duration                       : 2h 9mn D7 .R N Xo  
Bit rate mode                  : Constant N>VA`+aFR  
Bit rate                       : 63.0 Kbps 0e3 aWn  
Channel(s)                     : 2 channels G:f]z;Xdp  
Channel positions              : Front: L R TC ^EyjD  
Sampling rate                  : 44.1 KHz / 22.05 KHz KO:o GUR  
Compression mode               : Lossy 3q<\ \8Y*  
Stream size                    : 58.4 MiB (1%) i5|!M IY  
!30BZM^  
[attachment=32556]

只看该作者 1 发表于: 01-03
什么版本?粤语还是国语