切换到宽版
  • 132阅读
  • 1回复

无双/無雙 Project Gutenberg 2018 4K 2160p WEB-DL x264 AAC-SmY 6.50G [复制链接]

上一主题 下一主题
 

只看楼主 倒序阅读 使用道具 0 发表于: 2018-12-22
[attachment=32555] *vq75k$7  
1qBE|PwBp  
◎译  名 无双 / Mo seung / Project Gutenberg >qm NT/  
◎片  名 無雙 14*6+~38m&  
◎年  代 2018 Bx6,U4o*  
◎产  地 中国大陆 / 香港 L!,@_   
◎类  别 剧情 / 动作 / 犯罪 u! dx+vd  
◎语  言 汉语普通话 / 粤语 / 英语 / 泰语 / 波兰语 *zW]IQ'A  
◎上映日期 2018-09-30(中国大陆) / 2018-10-04(香港) XL'\$f  
◎IMDb评分 7.3/10 from 773 users $xcZ{C  
◎IMDb链接 http://www.imdb.com/title/tt7183578 f.uy;v  
◎豆瓣评分 8.2/10 from 273380 users COmu.'%*  
◎豆瓣链接 https://movie.douban.com/subject/26425063/ $1Zr.ERL|(  
◎片  长 130分钟 NytodVZ' 3  
◎导  演 庄文强 Felix Chong ]Tg@wMgI  
◎编  剧 庄文强 Felix Chong MU\Pggs  
◎主  演 周润发 Yun-Fat Chow 7>0u N|  
郭富城 Aaron Kwok ,+I]\ZeO  
张静初 Jingchu Zhang AlkHf]oB  
冯文娟 Wenjuan Feng lcgG5/82  
廖启智 Kai Chi Liu VL'wrgk  
周家怡 Catherine Chau @u: `  
王耀庆 David Wang w.#z>4#3-  
方中信 Alex Fong '2|P-/jU  
高捷 Jack Kao {FS)f  
邢佳栋 Jiadong Xing  yK$aVK"  
张松枝 Deno Cheung 4=;j.=>0X  
张建声 Justin Cheung UBk:B  
吴嘉龙 Carl Wu jzBW'8  
孙佳君 Paulyn Sun ?/-WH?1I  
aAG']y  
&\b(  
◎简  介   nwC*w`4  
o= K9\l  
q/d?c Lgl  
《无双》讲述了以代号“画家”(周润发 饰)为首的犯罪团伙,掌握了制造伪钞技术,难辨真伪,并在全球进行交易获取利益,引起警方高度重视。然而“画家”和其他成员的身份一直成谜,警方的破案进度遭受到了前所未有的挑战。在关键时刻,擅长绘画的李问(郭富城 饰)打开了破案的突破口,而“画家”的真实身份却让众人意想不到…… zmL VFGnS  
)jg*u}u 0  
General NL;sn"  
Format                         : MPEG-4 {9.UeVz  
Format profile                 : Base Media FK94CI  
Codec ID                       : isom u3E =r  
File size                      : 6.50 GiB } #L_R  
Duration                       : 2h 9mn }xi?vAaTl  
Overall bit rate               : 7 178 Kbps Gf:dN_e6.  
Writing application            : Lavf57.41.100 }V`_ (%Q-e  
8#- Nx]VM  
Video xXa4t4 gR  
ID                             : 1 I,HtW),  
Format                         : AVC C=v+e%)x@  
Format/Info                    : Advanced Video Codec P1B=fgT  
Format profile                 : High@L5.1 @!O(%0 =  
Format settings, CABAC         : Yes @)vQ>R\k<  
Format settings, ReFrames      : 3 frames 9=}[~V n  
Codec ID                       : avc1 uOy/c 8`  
Codec ID/Info                  : Advanced Video Coding Vsw:&$  
Duration                       : 2h 9mn n;$u%2t2  
Bit rate                       : 7 108 Kbps z@pa;_  
Width                          : 3 840 pixels VmN7a6a  
Height                         : 1 608 pixels j(]O$""  
Display aspect ratio           : 2.40:1 CR%h$+dzy  
Frame rate mode                : Variable \~(kGE--+  
Frame rate                     : 24.000 fps "#-iD  
Minimum frame rate             : 23.810 fps *" C9F/R  
Maximum frame rate             : 24.390 fps /h.{g0Xc  
Color space                    : YUV p@uHzu7  
Chroma subsampling             : 4:2:0 T!>hPg  
Bit depth                      : 8 bits vCSC:  
Scan type                      : Progressive gsM^Pu09ud  
Bits/(Pixel*Frame)             : 0.048 R8eBIJ/@_  
Stream size                    : 6.44 GiB (99%) )T^w c:  
Color range                    : Limited ->.9[|lIg  
Color primaries                : BT.709 QV:> x#=V  
Transfer characteristics       : BT.709 @xa$two  
Matrix coefficients            : BT.709 b=pk;'-  
rKI<!  
Audio &FT`z"^  
ID                             : 2 ^_DwuY  
Format                         : AAC ~>lqEa  
Format/Info                    : Advanced Audio Codec U`HY eJ  
Format profile                 : HE-AAC / LC *AGf'+j*z  
Codec ID                       : 40 !K}W.yv,  
Duration                       : 2h 9mn #OM)71kB8  
Bit rate mode                  : Constant LP|YW*i=IQ  
Bit rate                       : 63.0 Kbps t8h*SHD9  
Channel(s)                     : 2 channels HiU)q  
Channel positions              : Front: L R xS5 -m6/  
Sampling rate                  : 44.1 KHz / 22.05 KHz nqUnDnP2c  
Compression mode               : Lossy ha=2isq  
Stream size                    : 58.4 MiB (1%) z},\1^[  
9X;*GC;d  
[attachment=32556]

只看该作者 1 发表于: 01-03
什么版本?粤语还是国语