切换到宽版
  • 1129阅读
  • 1回复

无双/無雙 Project Gutenberg 2018 4K 2160p WEB-DL x264 AAC-SmY 6.50G [复制链接]

上一主题 下一主题
 

只看楼主 倒序阅读 使用道具 0 发表于: 2018-12-22
[attachment=32555] Zvc{o8^z  
!aLL|}S  
◎译  名 无双 / Mo seung / Project Gutenberg w!61k \  
◎片  名 無雙 +ft?aB@  
◎年  代 2018 &",pPu q  
◎产  地 中国大陆 / 香港 |',Gy\Sj  
◎类  别 剧情 / 动作 / 犯罪 ^*Sb)tu\ W  
◎语  言 汉语普通话 / 粤语 / 英语 / 泰语 / 波兰语 ^X^4R1V)  
◎上映日期 2018-09-30(中国大陆) / 2018-10-04(香港) DEs/?JZG  
◎IMDb评分 7.3/10 from 773 users k5((@[  
◎IMDb链接 http://www.imdb.com/title/tt7183578 U\+o$mU^  
◎豆瓣评分 8.2/10 from 273380 users Iu=iC.50}  
◎豆瓣链接 https://movie.douban.com/subject/26425063/ tip\vS)  
◎片  长 130分钟 -FwOX~s/'  
◎导  演 庄文强 Felix Chong >=wlS\:"  
◎编  剧 庄文强 Felix Chong {@k5e) Q  
◎主  演 周润发 Yun-Fat Chow 66v6do7  
郭富城 Aaron Kwok kA fkQy(~  
张静初 Jingchu Zhang q45Hmz  
冯文娟 Wenjuan Feng t 7+ifSrz  
廖启智 Kai Chi Liu < yBZsSj  
周家怡 Catherine Chau _8S!w>$)  
王耀庆 David Wang 0:Xvch0  
方中信 Alex Fong Yz4Q !tL  
高捷 Jack Kao |.X?IJ`  
邢佳栋 Jiadong Xing Eb[*nWF=  
张松枝 Deno Cheung kU0e;r1N  
张建声 Justin Cheung l@%MS\{  
吴嘉龙 Carl Wu uD_iyK0,  
孙佳君 Paulyn Sun 7?xTJN)G  
uPhFBD7  
-r7*C :E  
◎简  介   P-.>vi^+  
8i;EpAwB  
7E 6gXf.  
《无双》讲述了以代号“画家”(周润发 饰)为首的犯罪团伙,掌握了制造伪钞技术,难辨真伪,并在全球进行交易获取利益,引起警方高度重视。然而“画家”和其他成员的身份一直成谜,警方的破案进度遭受到了前所未有的挑战。在关键时刻,擅长绘画的李问(郭富城 饰)打开了破案的突破口,而“画家”的真实身份却让众人意想不到…… /^SIJS@^`>  
CNwIM6t  
General _SY4Q s`d  
Format                         : MPEG-4 R.-2shOE'  
Format profile                 : Base Media fYBmW')  
Codec ID                       : isom x\T 9V~8a  
File size                      : 6.50 GiB iv*`.9TK-  
Duration                       : 2h 9mn Yi1lvB?m  
Overall bit rate               : 7 178 Kbps jvv3;lWDL.  
Writing application            : Lavf57.41.100 V.?N29CA|  
YMb\v4  
Video -PPH]?],  
ID                             : 1 yhxen  
Format                         : AVC p=sL KnLmZ  
Format/Info                    : Advanced Video Codec Sc#B -4m  
Format profile                 : High@L5.1 O eLM*Zi  
Format settings, CABAC         : Yes o."k7fLB  
Format settings, ReFrames      : 3 frames w/ &)mm{  
Codec ID                       : avc1 Y>W$n9d&G2  
Codec ID/Info                  : Advanced Video Coding Jas=D  
Duration                       : 2h 9mn u_ou,RF  
Bit rate                       : 7 108 Kbps bS7rG$n [  
Width                          : 3 840 pixels b|jdYJbol&  
Height                         : 1 608 pixels J8IdQ:4^l  
Display aspect ratio           : 2.40:1 ])Rs.Y{Q5  
Frame rate mode                : Variable 5yBaxw`  
Frame rate                     : 24.000 fps 7m='-_w)?w  
Minimum frame rate             : 23.810 fps xgeDfpF'  
Maximum frame rate             : 24.390 fps  KT'Ebb]  
Color space                    : YUV 0oR'"Vo  
Chroma subsampling             : 4:2:0  IDCuS  
Bit depth                      : 8 bits T .#cd1b  
Scan type                      : Progressive [ =/Yo1:v  
Bits/(Pixel*Frame)             : 0.048 _%M+!Ltz  
Stream size                    : 6.44 GiB (99%) ^<u9I5?  
Color range                    : Limited (h&XtFul}  
Color primaries                : BT.709 8d4:8}  
Transfer characteristics       : BT.709 *49({TD6`  
Matrix coefficients            : BT.709 1=o|[ 7  
''. P=  
Audio V%|CCrR  
ID                             : 2 H|UGR ~&  
Format                         : AAC Jeb"t1.$  
Format/Info                    : Advanced Audio Codec &>%R)?SZh  
Format profile                 : HE-AAC / LC r [NI#wW  
Codec ID                       : 40 Wb)>APL  
Duration                       : 2h 9mn S<Rl?El<=  
Bit rate mode                  : Constant 6 (M^`&fl  
Bit rate                       : 63.0 Kbps ;pH&YBY  
Channel(s)                     : 2 channels ` @PHV  
Channel positions              : Front: L R O\~/J/u <  
Sampling rate                  : 44.1 KHz / 22.05 KHz D6Q6yNE  
Compression mode               : Lossy heizO",8.&  
Stream size                    : 58.4 MiB (1%) A,H|c="  
aB $xQ|~  
[attachment=32556]

只看该作者 1 发表于: 2019-01-03
什么版本?粤语还是国语