切换到宽版
  • 1207阅读
  • 1回复

无双/無雙 Project Gutenberg 2018 4K 2160p WEB-DL x264 AAC-SmY 6.50G [复制链接]

上一主题 下一主题
 

只看楼主 倒序阅读 使用道具 0 发表于: 2018-12-22
[attachment=32555] ~=gpn|@b  
 wkKSL  
◎译  名 无双 / Mo seung / Project Gutenberg <~n%=^knE  
◎片  名 無雙 DvY)n<U1qA  
◎年  代 2018 1)J' pDa  
◎产  地 中国大陆 / 香港 R/jHH{T3  
◎类  别 剧情 / 动作 / 犯罪 u+qj_Ej  
◎语  言 汉语普通话 / 粤语 / 英语 / 泰语 / 波兰语 U[ |o!2$  
◎上映日期 2018-09-30(中国大陆) / 2018-10-04(香港) Tzr'3m_  
◎IMDb评分 7.3/10 from 773 users Esdw^MGL2  
◎IMDb链接 http://www.imdb.com/title/tt7183578 cS RmC  
◎豆瓣评分 8.2/10 from 273380 users Jp-6]uW  
◎豆瓣链接 https://movie.douban.com/subject/26425063/ 0`Y"xN`'i  
◎片  长 130分钟 ] D+'Ao^'  
◎导  演 庄文强 Felix Chong _bSn YhS  
◎编  剧 庄文强 Felix Chong RSBk^  
◎主  演 周润发 Yun-Fat Chow 5Y r$tl\k  
郭富城 Aaron Kwok *}=z^;_oq  
张静初 Jingchu Zhang MR/gLm (8(  
冯文娟 Wenjuan Feng |vgYi  
廖启智 Kai Chi Liu 7',WLuD  
周家怡 Catherine Chau 7uq^TO>9f  
王耀庆 David Wang 5U6b\jxX  
方中信 Alex Fong k;Ask#rs  
高捷 Jack Kao M?QX'fia  
邢佳栋 Jiadong Xing [U_  
张松枝 Deno Cheung +Sak_*fq  
张建声 Justin Cheung hE;BT>_dn  
吴嘉龙 Carl Wu |nmt /[  
孙佳君 Paulyn Sun l09DH+  
W~Q;R:y  
S@cKo&^  
◎简  介   );d"gv(]D  
0,j!*  
s^HI%mdf  
《无双》讲述了以代号“画家”(周润发 饰)为首的犯罪团伙,掌握了制造伪钞技术,难辨真伪,并在全球进行交易获取利益,引起警方高度重视。然而“画家”和其他成员的身份一直成谜,警方的破案进度遭受到了前所未有的挑战。在关键时刻,擅长绘画的李问(郭富城 饰)打开了破案的突破口,而“画家”的真实身份却让众人意想不到…… Y7<(_p7  
G<Y}QhFU  
General xM**n3SZ`  
Format                         : MPEG-4 3M5wF6nY[[  
Format profile                 : Base Media sF~!qag4q'  
Codec ID                       : isom dWiX_&g  
File size                      : 6.50 GiB `NCH^)  
Duration                       : 2h 9mn uA~?z :~=  
Overall bit rate               : 7 178 Kbps 4P^CqD&i  
Writing application            : Lavf57.41.100 nJY3 1(p  
J*t_r-z  
Video r b*;4a  
ID                             : 1 HM &"2c  
Format                         : AVC lH/7m;M  
Format/Info                    : Advanced Video Codec - *v)sP"@  
Format profile                 : High@L5.1 G$VE o8Blb  
Format settings, CABAC         : Yes mb*|$ysPx  
Format settings, ReFrames      : 3 frames ftD(ed  
Codec ID                       : avc1 Z31a4O  
Codec ID/Info                  : Advanced Video Coding 6@FGt3y  
Duration                       : 2h 9mn ^J)0i_RS  
Bit rate                       : 7 108 Kbps cFr `9A\-n  
Width                          : 3 840 pixels ~nb1c:F  
Height                         : 1 608 pixels dZCnQIS  
Display aspect ratio           : 2.40:1 :ka^ ztXG  
Frame rate mode                : Variable QBb%$_Z  
Frame rate                     : 24.000 fps 7KN+ @6!x  
Minimum frame rate             : 23.810 fps %|'VucLx  
Maximum frame rate             : 24.390 fps V#X<Yt  
Color space                    : YUV ,O_ iSohS  
Chroma subsampling             : 4:2:0 `o?PLE;)p  
Bit depth                      : 8 bits |z? c>.  
Scan type                      : Progressive RaOLy \  
Bits/(Pixel*Frame)             : 0.048 BH0s ` K"  
Stream size                    : 6.44 GiB (99%) 8=OpX,t(  
Color range                    : Limited 2yV^'o)  
Color primaries                : BT.709 :Z+J t=;  
Transfer characteristics       : BT.709 ]Rj?OSok  
Matrix coefficients            : BT.709 +#9 4 X)*  
<[?ZpG  
Audio S =G2%u!;  
ID                             : 2 f<M!L> +M6  
Format                         : AAC \|CuTb;0  
Format/Info                    : Advanced Audio Codec ef2)k4)"  
Format profile                 : HE-AAC / LC (Ta(Y=!uq  
Codec ID                       : 40 W0<2*7s  
Duration                       : 2h 9mn X'j9l4Ph7  
Bit rate mode                  : Constant 6pbtE]  
Bit rate                       : 63.0 Kbps 8khIy-9-'  
Channel(s)                     : 2 channels r?/!VO-*N  
Channel positions              : Front: L R ~.CmiG.7  
Sampling rate                  : 44.1 KHz / 22.05 KHz a#a n+JY3  
Compression mode               : Lossy $hy0U_}6  
Stream size                    : 58.4 MiB (1%) hGRHuJ  
Fz' s\  
[attachment=32556]

只看该作者 1 发表于: 2019-01-03
什么版本?粤语还是国语