切换到宽版
  • 886阅读
  • 1回复

一出好戏[内封中字]The.Island.2018.1080p.BluRay.x264-WiKi 12GB [复制链接]

上一主题 下一主题
 

只看楼主 倒序阅读 使用道具 0 发表于: 2018-11-27
[attachment=32541] N<&"_jzm  
V`*N2ztSL  
◎译  名 The Island / 大富翁 / 诳想曲 39 D!e&  
◎片  名 一出好戏 kpT>xS^6<  
◎年  代 2018 Zj,1)ii  
◎产  地 中国大陆 Mf'T\^-!  
◎类  别 剧情 / 喜剧 LIzdP,^pc  
◎语  言 汉语普通话 byALM  
◎上映日期 2018-08-10(中国大陆) nymF`0HYe1  
◎IMDb评分 6.4/10 from 600 users e5\/:HpI  
◎IMDb链接 http://www.imdb.com/title/tt8755316  6/u]r  
◎豆瓣评分 7.2/10 from 426482 users +XL^dzN[|$  
◎豆瓣链接 https://movie.douban.com/subject/26985127/ 3<Qe'd ^  
◎BT之家整理 http://www.btbtt.us/ +fh@m h0[  
◎片  长 134分钟 L'1!vu *Rg  
◎导  演 黄渤 Bo Huang m/ D ~D~  
◎编  剧 黄渤 Bo Huang / 张冀 Ji Zhang / 郭俊立 Junli Guo / 查慕春 Muchun Zha / 崔斯韦 Siwei Cui / 邢爱娜 Aina Xing / 黄湛中 Zhanzhong Huang m ab921-n  
◎主  演 黄渤 Bo Huang ~SKV%  
      舒淇 Qi Shu eBUexxBY  
      王宝强 Baoqiang Wang `^3N|76Y  
      张艺兴 Yixing Zhang N{/):O  
      于和伟 Hewei Yu }ST TDq4  
      王迅 Xun Wang %x}iEqk U  
      李勤勤 Qinqin Li JATW'HWC|I  
      李又麟 You-Lin Lee "==fWf  
      宁浩 Hao Ning ].AAHu5  
      管虎 Hu Guan q<Tx'Ya  
      梁静 Jing Liang j@g`Pm%u`  
      徐峥 Zheng Xu j!1 :+H_L  
      陈德森 Teddy Chan b'x26wT?  
      张磊 Lei Zhang q!L@9&KAQ  
]iI2  
◎简  介   CGyw '0S  
Os)jfKn2  
  马进欠下债务,与远房表弟小兴在底层社会摸爬滚打,习惯性的买彩票,企图一夜暴富,并迎娶自己的同事姗姗。一日,公司全体员工出海团建,途中,马进收到了彩票中头奖的信息,六千万!就在马进狂喜自己翻身的日子终于到来之际,一场突如其来的滔天巨浪打破了一切。苏醒过来的众人发现身处荒岛 ,丧失了一切与外界的联系…… > nHaMj  
TH[xS g  
Video \kN?7b^  
ID : 1 mVaWbR@HS  
Format : AVC =()Vrk|uK  
Format/Info : Advanced Video Codec +( Q$GO%  
Format profile : High@L4.1 0^lCZ,uq;  
Format settings : CABAC / 5 Ref Frames >z #^JR\6  
Format settings, CABAC : Yes {J&[JA\   
Format settings, ReFrames : 5 frames K_SURTys  
Codec ID : V_MPEG4/ISO/AVC #uRj 9|E7  
Duration : 2 h 13 min G4&vrM,f  
Bit rate : 12.3 Mb/s ww? AGd  
Width : 1 920 pixels {[I]pm~n  
Height : 856 pixels -uk}Fou  
Display aspect ratio : 2.25:1 .z+S @s[O  
Frame rate mode : Constant \ 8v^ hb  
Frame rate : 24.000 FPS Am'%tw ~  
Color space : YUV 1]&FB{l  
Chroma subsampling : 4:2:0 )6!ji]c N  
Bit depth : 8 bits *F:)S"3_~e  
Scan type : Progressive Q9G\T:^ury  
Bits/(Pixel*Frame) : 0.312 F<V.OFt  
Stream size : 11.5 GiB (95%) )44c[Z  
Writing library : x264 core 129 r2245 bc13772 }xa~U,#5  
Encoding settings : cabac=1 / ref=5 / deblock=1:-3:-3 / analyse=0x3:0x133 / me=umh / subme=11 / psy=1 / psy_rd=1.05:0.05 / mixed_ref=1 / me_range=64 / chroma_me=1 / trellis=2 / 8x8dct=1 / cqm=0 / deadzone=21,11 / fast_pskip=0 / chroma_qp_offset=-3 / threads=12 / lookahead_threads=2 / sliced_threads=0 / nr=0 / decimate=1 / interlaced=0 / bluray_compat=0 / constrained_intra=0 / bframes=8 / b_pyramid=2 / b_adapt=2 / b_bias=0 / direct=3 / weightb=1 / open_gop=0 / weightp=2 / keyint=250 / keyint_min=24 / scenecut=40 / intra_refresh=0 / rc_lookahead=60 / rc=2pass / mbtree=1 / bitrate=12307 / ratetol=1.0 / qcomp=0.60 / qpmin=0 / qpmax=69 / qpstep=4 / cplxblur=20.0 / qblur=0.5 / vbv_maxrate=40000 / vbv_bufsize=30000 / nal_hrd=none / ip_ratio=1.40 / aq=1:0.60 =)c^ik%F&  
Language : English mz>GbImVD~  
Default : Yes @ajt D-_2  
Forced : No C0K0c6A (4  
;2y4^  
Audio 3< 'bi}{  
ID : 2 {P {h|+;  
Format : AC-3 @S<6#zR  
Format/Info : Audio Coding 3 7Gwo:s L  
Commercial name : Dolby Digital /:Q  
Codec ID : A_AC3 v\Y8+dD  
Duration : 2 h 13 min u7/]Go44  
Bit rate mode : Constant 4'~zuUs  
Bit rate : 640 kb/s 0h-'TJg*sk  
Channel(s) : 6 channels ieap  
Channel layout : L R C LFE Ls Rs 9)?_[|2  
Sampling rate : 48.0 kHz YB}m1 g`  
Frame rate : 31.250 FPS (1536 SPF) ?hmuAgOtbh  
Bit depth : 16 bits :<P3fW  
Compression mode : Lossy 1c\KRK4  
Stream size : 611 MiB (5%) xNd p]u  
Language : Chinese 71+ bn  
Service kind : Complete Main oQiRjDLx  
Default : Yes }?)U`zF)7}  
Forced : No >bFrJz}  
po!bRk[4  
Text #1 fW w+'xF!  
ID : 3 Di"Tv<RlQ  
Format : UTF-8 ucYweXsO3  
Codec ID : S_TEXT/UTF8 *x-@}WY$U  
Codec ID/Info : UTF-8 Plain Text (fun,(R6"  
Duration : 2 h 12 min #&}j'oD|N  
Bit rate : 44 b/s >ZwDcuJ~Lz  
Count of elements : 2065 8n,/hY>w  
Stream size : 42.7 KiB (0%) o~{rZ~  
Language : English K>vi9,4/ks  
Default : Yes [G",Yky  
Forced : Yes JJHO E{%  
^WkqRs  
Text #2 d:Oo5t)MN  
ID : 4 M?_7*o]!  
Format : UTF-8 m-2!r*(zt  
Codec ID : S_TEXT/UTF8 o1Krp '*  
Codec ID/Info : UTF-8 Plain Text zRMz8 IC.  
Duration : 2 h 12 min TD sjNFe3  
Bit rate : 43 b/s /|p\l"  
Count of elements : 2073 V!Pe%.>  
Stream size : 41.9 KiB (0%) W#@6e')d  
Title : 简体 n-u HKBq  
Language : Chinese f hjlt#  
Default : No l* z "wA-  
Forced : No ;4QE.&s`  
- -\eYVh[  
Text #3 N*f ]NCSi  
ID : 5 GOsOFs" I  
Format : UTF-8 bA1O]:`  
Codec ID : S_TEXT/UTF8 Iw4[D#o  
Codec ID/Info : UTF-8 Plain Text V-(*{/^"  
Duration : 2 h 12 min  (l-l Y  
Bit rate : 43 b/s C]Q`!e  
Count of elements : 2073 -(},%!-_  
Stream size : 41.9 KiB (0%) QM'|k6  
Title : 繁体 j>?`N^  
Language : Chinese *P/DDRq(2  
Default : No Zb7%$1)L~  
Forced : No CofTTYl  
UX'q64F!  
[attachment=32542][attachment=32543] Zu*7t<W  
qe5;Pq !G  
[attachment=32544]

只看该作者 1 发表于: 2018-11-28
厉害了老刀,不带娃娃么???