切换到宽版
  • 1013阅读
  • 1回复

一出好戏[内封中字]The.Island.2018.1080p.BluRay.x264-WiKi 12GB [复制链接]

上一主题 下一主题
 

只看楼主 倒序阅读 使用道具 0 发表于: 2018-11-27
[attachment=32541] meO:@Z0  
7ZWgf"1j  
◎译  名 The Island / 大富翁 / 诳想曲 RMu~l@  
◎片  名 一出好戏 'zuIBOH`j3  
◎年  代 2018 yl +gL?IES  
◎产  地 中国大陆 j'"J%e]  
◎类  别 剧情 / 喜剧 fuf"Ae  
◎语  言 汉语普通话 E{P|)`,V  
◎上映日期 2018-08-10(中国大陆) 6mxfLlZ  
◎IMDb评分 6.4/10 from 600 users \\;jw[P0  
◎IMDb链接 http://www.imdb.com/title/tt8755316 j{+.tIzpq[  
◎豆瓣评分 7.2/10 from 426482 users 1^JS Dd  
◎豆瓣链接 https://movie.douban.com/subject/26985127/ .Vvx,>>D  
◎BT之家整理 http://www.btbtt.us/ #?- wm  
◎片  长 134分钟 [?N~s:}  
◎导  演 黄渤 Bo Huang ^o&. fQ*  
◎编  剧 黄渤 Bo Huang / 张冀 Ji Zhang / 郭俊立 Junli Guo / 查慕春 Muchun Zha / 崔斯韦 Siwei Cui / 邢爱娜 Aina Xing / 黄湛中 Zhanzhong Huang ;+ hH  
◎主  演 黄渤 Bo Huang e8?jmN`2  
      舒淇 Qi Shu H8}oIA"b  
      王宝强 Baoqiang Wang )=_,O=z$K  
      张艺兴 Yixing Zhang k>si5'W  
      于和伟 Hewei Yu 7n<::k\lb  
      王迅 Xun Wang FP4P|kl/9'  
      李勤勤 Qinqin Li #BH*Z(  
      李又麟 You-Lin Lee "'?>fe\qG  
      宁浩 Hao Ning T'Dv.h  
      管虎 Hu Guan U0P~  
      梁静 Jing Liang B>P{A7Q  
      徐峥 Zheng Xu pG;U2wE  
      陈德森 Teddy Chan \d`h/tHk  
      张磊 Lei Zhang U26}gT)  
%YqEzlzF  
◎简  介   0*{%=M  
<*cikXS  
  马进欠下债务,与远房表弟小兴在底层社会摸爬滚打,习惯性的买彩票,企图一夜暴富,并迎娶自己的同事姗姗。一日,公司全体员工出海团建,途中,马进收到了彩票中头奖的信息,六千万!就在马进狂喜自己翻身的日子终于到来之际,一场突如其来的滔天巨浪打破了一切。苏醒过来的众人发现身处荒岛 ,丧失了一切与外界的联系…… dhK~O.~m  
)oPBa  
Video hf&9uHN%7m  
ID : 1 'YSHi\z ](  
Format : AVC SSMHoJGm  
Format/Info : Advanced Video Codec /R wjCUf  
Format profile : High@L4.1 AFE~ v\Gz  
Format settings : CABAC / 5 Ref Frames LyFN.2qw  
Format settings, CABAC : Yes 6?c7$Y  
Format settings, ReFrames : 5 frames 8&b,qQ~  
Codec ID : V_MPEG4/ISO/AVC 8[{ Vu0R  
Duration : 2 h 13 min &\*(Q*2N  
Bit rate : 12.3 Mb/s OYn}5RN  
Width : 1 920 pixels v0.#Sl-  
Height : 856 pixels *VxgARIL  
Display aspect ratio : 2.25:1 }b.%Im<3R  
Frame rate mode : Constant R~ q]JSIC@  
Frame rate : 24.000 FPS smo~7;  
Color space : YUV Yr[\|$H5  
Chroma subsampling : 4:2:0 4~Q/"hMSkO  
Bit depth : 8 bits L) T (<  
Scan type : Progressive _ E.>`Q  
Bits/(Pixel*Frame) : 0.312 PB\x3pV!}  
Stream size : 11.5 GiB (95%) svH !1 b  
Writing library : x264 core 129 r2245 bc13772 S;`A{Mow  
Encoding settings : cabac=1 / ref=5 / deblock=1:-3:-3 / analyse=0x3:0x133 / me=umh / subme=11 / psy=1 / psy_rd=1.05:0.05 / mixed_ref=1 / me_range=64 / chroma_me=1 / trellis=2 / 8x8dct=1 / cqm=0 / deadzone=21,11 / fast_pskip=0 / chroma_qp_offset=-3 / threads=12 / lookahead_threads=2 / sliced_threads=0 / nr=0 / decimate=1 / interlaced=0 / bluray_compat=0 / constrained_intra=0 / bframes=8 / b_pyramid=2 / b_adapt=2 / b_bias=0 / direct=3 / weightb=1 / open_gop=0 / weightp=2 / keyint=250 / keyint_min=24 / scenecut=40 / intra_refresh=0 / rc_lookahead=60 / rc=2pass / mbtree=1 / bitrate=12307 / ratetol=1.0 / qcomp=0.60 / qpmin=0 / qpmax=69 / qpstep=4 / cplxblur=20.0 / qblur=0.5 / vbv_maxrate=40000 / vbv_bufsize=30000 / nal_hrd=none / ip_ratio=1.40 / aq=1:0.60 ,r\o}E2  
Language : English \LexR.Di  
Default : Yes -PR N:'T  
Forced : No z!9-:  
w ;^ra<*<+  
Audio 9~[Y-cpoi  
ID : 2 XU(eEnmo m  
Format : AC-3 #?:lb1  
Format/Info : Audio Coding 3 k@W1-D?  
Commercial name : Dolby Digital @|YH|/RF  
Codec ID : A_AC3 ]~3V}z,T*  
Duration : 2 h 13 min m!HJj>GEo  
Bit rate mode : Constant vUM4S26"NT  
Bit rate : 640 kb/s Wvf ^N(  
Channel(s) : 6 channels  Mb~F%_  
Channel layout : L R C LFE Ls Rs cSV aI  
Sampling rate : 48.0 kHz 1yu4emye4  
Frame rate : 31.250 FPS (1536 SPF) 7hPY_W y  
Bit depth : 16 bits 3)ywX&4"L  
Compression mode : Lossy $-sHWYZ  
Stream size : 611 MiB (5%) +QJ#2~pE  
Language : Chinese H9e<v4 c  
Service kind : Complete Main )\$|X}uny&  
Default : Yes B tcy)LRk  
Forced : No 8bld3p"^  
U # qK.  
Text #1 Ig>(m49d  
ID : 3 gRcQt:  
Format : UTF-8 =D"#U#>;7&  
Codec ID : S_TEXT/UTF8 P~X2^bw  
Codec ID/Info : UTF-8 Plain Text R4:b{ )=O  
Duration : 2 h 12 min S30%)<W  
Bit rate : 44 b/s l,5+@i`5i  
Count of elements : 2065 t"oeQ*d%  
Stream size : 42.7 KiB (0%) _X x/(.O  
Language : English kE1TP]|  
Default : Yes U&qZ"  
Forced : Yes j1T#yt J  
m ~$v;?i  
Text #2 aK^q_ghh[  
ID : 4 j?4qO]_Wx+  
Format : UTF-8 3%b6{ie/=  
Codec ID : S_TEXT/UTF8 LZxNAua  
Codec ID/Info : UTF-8 Plain Text |P?*5xPB  
Duration : 2 h 12 min 6 (-N FnT  
Bit rate : 43 b/s AH~E)S  
Count of elements : 2073 S3Jo>jXS "  
Stream size : 41.9 KiB (0%) ] Zh%DQ  
Title : 简体 SXP]%{@ R/  
Language : Chinese :gFx{*xN/9  
Default : No X 0+vXz{~g  
Forced : No S{T >}'y  
\YrUe1  
Text #3 $6R-5oQ  
ID : 5 4;2uW#dG"  
Format : UTF-8 [j+sC*  
Codec ID : S_TEXT/UTF8 e~"U @8xk~  
Codec ID/Info : UTF-8 Plain Text 5*u+q2\F  
Duration : 2 h 12 min Q^^niVz  
Bit rate : 43 b/s ^E>3|du]O  
Count of elements : 2073 Ar#(p sU  
Stream size : 41.9 KiB (0%) t\O16O7S  
Title : 繁体 :e+jU5;]3  
Language : Chinese ,zY{  
Default : No rEz^  
Forced : No TIg3` Fon  
|-~Y#]  
[attachment=32542][attachment=32543] * kh tJ]=  
v4 E}D  
[attachment=32544]

只看该作者 1 发表于: 2018-11-28
厉害了老刀,不带娃娃么???