切换到宽版
  • 170阅读
  • 1回复

一出好戏[内封中字]The.Island.2018.1080p.BluRay.x264-WiKi 12GB [复制链接]

上一主题 下一主题
 

只看楼主 倒序阅读 使用道具 0 发表于: 2018-11-27
[attachment=32541] Vy+UOV&v-  
aC9PlKI  
◎译  名 The Island / 大富翁 / 诳想曲 6X1_NbC  
◎片  名 一出好戏 C{"uz_Gh  
◎年  代 2018 hp:8e@  
◎产  地 中国大陆 CHZjK(a  
◎类  别 剧情 / 喜剧 |N^z=g P[  
◎语  言 汉语普通话 <kY ||  
◎上映日期 2018-08-10(中国大陆) h3z=tu['  
◎IMDb评分 6.4/10 from 600 users E\ 'X|/$a  
◎IMDb链接 http://www.imdb.com/title/tt8755316 l>H G|ol  
◎豆瓣评分 7.2/10 from 426482 users `;'fCO!  
◎豆瓣链接 https://movie.douban.com/subject/26985127/ vWM'}(  
◎BT之家整理 http://www.btbtt.us/ .*0`}H+_  
◎片  长 134分钟 c[a1 Md&  
◎导  演 黄渤 Bo Huang 0'{`"QD\IW  
◎编  剧 黄渤 Bo Huang / 张冀 Ji Zhang / 郭俊立 Junli Guo / 查慕春 Muchun Zha / 崔斯韦 Siwei Cui / 邢爱娜 Aina Xing / 黄湛中 Zhanzhong Huang HDTdOG)  
◎主  演 黄渤 Bo Huang TAXl73j_CY  
      舒淇 Qi Shu -_>g=a@&  
      王宝强 Baoqiang Wang 4_A9o9&_Rh  
      张艺兴 Yixing Zhang 4Pm+0=E   
      于和伟 Hewei Yu |H(Mmqgk  
      王迅 Xun Wang /p&)bL  
      李勤勤 Qinqin Li .x^`y2'U  
      李又麟 You-Lin Lee 7+h*&f3>  
      宁浩 Hao Ning INHN=KY{  
      管虎 Hu Guan [H3~b=  
      梁静 Jing Liang +]!`>  
      徐峥 Zheng Xu h/CF^0m"!  
      陈德森 Teddy Chan w|1Gb[  
      张磊 Lei Zhang bhFAt1h  
bnWKfz5  
◎简  介   .)wj{(>TJ  
8J- ;/  
  马进欠下债务,与远房表弟小兴在底层社会摸爬滚打,习惯性的买彩票,企图一夜暴富,并迎娶自己的同事姗姗。一日,公司全体员工出海团建,途中,马进收到了彩票中头奖的信息,六千万!就在马进狂喜自己翻身的日子终于到来之际,一场突如其来的滔天巨浪打破了一切。苏醒过来的众人发现身处荒岛 ,丧失了一切与外界的联系…… C~5-E{i  
 })l+-H"  
Video OoFQ@zE7%  
ID : 1 jaoGm$o>"F  
Format : AVC 3x 9O(;k  
Format/Info : Advanced Video Codec b=#3p  
Format profile : High@L4.1 J6!t"eB+  
Format settings : CABAC / 5 Ref Frames :*2+ t-  
Format settings, CABAC : Yes +  njE  
Format settings, ReFrames : 5 frames lB\ "*K;  
Codec ID : V_MPEG4/ISO/AVC .2xp.i{  
Duration : 2 h 13 min O ).1>  
Bit rate : 12.3 Mb/s @UO=)PxN3  
Width : 1 920 pixels }G8RJxy  
Height : 856 pixels tk^1Ga3  
Display aspect ratio : 2.25:1 ))n7.pB9/  
Frame rate mode : Constant Lp \%-s#5s  
Frame rate : 24.000 FPS S|A?z)I  
Color space : YUV 6, Q{/  
Chroma subsampling : 4:2:0 NVnKgGlHgd  
Bit depth : 8 bits F:/R'0  
Scan type : Progressive /~_Cb= 7  
Bits/(Pixel*Frame) : 0.312 uTRa]D_q  
Stream size : 11.5 GiB (95%) {-rK:*yP'u  
Writing library : x264 core 129 r2245 bc13772 Ih}I`wY-  
Encoding settings : cabac=1 / ref=5 / deblock=1:-3:-3 / analyse=0x3:0x133 / me=umh / subme=11 / psy=1 / psy_rd=1.05:0.05 / mixed_ref=1 / me_range=64 / chroma_me=1 / trellis=2 / 8x8dct=1 / cqm=0 / deadzone=21,11 / fast_pskip=0 / chroma_qp_offset=-3 / threads=12 / lookahead_threads=2 / sliced_threads=0 / nr=0 / decimate=1 / interlaced=0 / bluray_compat=0 / constrained_intra=0 / bframes=8 / b_pyramid=2 / b_adapt=2 / b_bias=0 / direct=3 / weightb=1 / open_gop=0 / weightp=2 / keyint=250 / keyint_min=24 / scenecut=40 / intra_refresh=0 / rc_lookahead=60 / rc=2pass / mbtree=1 / bitrate=12307 / ratetol=1.0 / qcomp=0.60 / qpmin=0 / qpmax=69 / qpstep=4 / cplxblur=20.0 / qblur=0.5 / vbv_maxrate=40000 / vbv_bufsize=30000 / nal_hrd=none / ip_ratio=1.40 / aq=1:0.60 Av*R(d=`  
Language : English uP/WRQ{rW>  
Default : Yes O_f|R1G5z  
Forced : No &)v X7*j  
bOCdf"!g  
Audio j$*]'s&_hZ  
ID : 2 DytOS}/^9  
Format : AC-3 7"f$;CN?~  
Format/Info : Audio Coding 3 m_H$fioha,  
Commercial name : Dolby Digital ,q#^ _/?  
Codec ID : A_AC3 r'hr 'wZ  
Duration : 2 h 13 min 9p!V?cH#8  
Bit rate mode : Constant  "7!K'i  
Bit rate : 640 kb/s "F+ 9xf&r  
Channel(s) : 6 channels H ^Xw<Z=  
Channel layout : L R C LFE Ls Rs .2hQ!)+  
Sampling rate : 48.0 kHz ,_T,B'a:  
Frame rate : 31.250 FPS (1536 SPF) [;VNuF  
Bit depth : 16 bits :~^ec|tp  
Compression mode : Lossy 2 G_*Pqc  
Stream size : 611 MiB (5%) T\:3(+uK  
Language : Chinese 3V`K^X3  
Service kind : Complete Main rsf A.o  
Default : Yes  w\;=3C`  
Forced : No t4?g_$>   
~}4o=O(  
Text #1 -!MDYj+U  
ID : 3 n?pCMS|  
Format : UTF-8 }i/&m&VU  
Codec ID : S_TEXT/UTF8 >qx~m>2|8]  
Codec ID/Info : UTF-8 Plain Text ~0fT*lp  
Duration : 2 h 12 min 'N5qX>Ob  
Bit rate : 44 b/s Pp GNA  
Count of elements : 2065  z$-/yT"M  
Stream size : 42.7 KiB (0%) 6!bA~"N  
Language : English "h7-nwm  
Default : Yes mo#4jtCE  
Forced : Yes @V] Wm1g  
S:vv*5  
Text #2 SlZL%C;  
ID : 4 ;lX:EU  
Format : UTF-8 V{Idj\~Jh  
Codec ID : S_TEXT/UTF8 7^ KQQ([  
Codec ID/Info : UTF-8 Plain Text ]Nt97eD)  
Duration : 2 h 12 min X@9_ukdpu  
Bit rate : 43 b/s p>K'6lCa  
Count of elements : 2073 B0q![  
Stream size : 41.9 KiB (0%) ]02 l!"  
Title : 简体 #Opfc8pm'  
Language : Chinese v.6" <nT2  
Default : No u{H,i(mx?  
Forced : No ~uC4>+dk  
kc8GnKM&mc  
Text #3 8)"KPr63M  
ID : 5 _gC<%6#V`r  
Format : UTF-8 b daZ{5^{  
Codec ID : S_TEXT/UTF8 N>ct`a)BD/  
Codec ID/Info : UTF-8 Plain Text f,M$>!$V  
Duration : 2 h 12 min @aCg1Rm  
Bit rate : 43 b/s .2xypL8(  
Count of elements : 2073 YXI DqTA+  
Stream size : 41.9 KiB (0%) >+vWtO 2  
Title : 繁体 A$XjzTR  
Language : Chinese Q(]-\L'  
Default : No ,C&h~uRi#f  
Forced : No Z(as@gj H  
D4'XBXmb  
[attachment=32542][attachment=32543] hD >:WJ  
0^ E!P>  
[attachment=32544]

只看该作者 1 发表于: 2018-11-28
厉害了老刀,不带娃娃么???