切换到宽版
  • 373阅读
  • 1回复

一出好戏[内封中字]The.Island.2018.1080p.BluRay.x264-WiKi 12GB [复制链接]

上一主题 下一主题
 

只看楼主 倒序阅读 使用道具 0 发表于: 2018-11-27
[attachment=32541] hRMya#%-  
e\O-5hp7  
◎译  名 The Island / 大富翁 / 诳想曲 \BN$WV  
◎片  名 一出好戏 r=~K#:66  
◎年  代 2018 p_X{'=SQ1  
◎产  地 中国大陆 BMdZd5!p&  
◎类  别 剧情 / 喜剧 tY: Nq*@  
◎语  言 汉语普通话 <fF|AbC:  
◎上映日期 2018-08-10(中国大陆) K?r  
◎IMDb评分 6.4/10 from 600 users LNyrIk/1  
◎IMDb链接 http://www.imdb.com/title/tt8755316 `oH4"9&]k3  
◎豆瓣评分 7.2/10 from 426482 users MTKNIv|  
◎豆瓣链接 https://movie.douban.com/subject/26985127/ Sc/$ 2gSG  
◎BT之家整理 http://www.btbtt.us/ paLPC&G  
◎片  长 134分钟 e<*qaUI  
◎导  演 黄渤 Bo Huang _ Yc"{d3S  
◎编  剧 黄渤 Bo Huang / 张冀 Ji Zhang / 郭俊立 Junli Guo / 查慕春 Muchun Zha / 崔斯韦 Siwei Cui / 邢爱娜 Aina Xing / 黄湛中 Zhanzhong Huang !zllv tK4  
◎主  演 黄渤 Bo Huang Ow.DBL)x'>  
      舒淇 Qi Shu /'5d0' ,M  
      王宝强 Baoqiang Wang ?c+$9  
      张艺兴 Yixing Zhang &GkD5b  
      于和伟 Hewei Yu *HUXvX|-%  
      王迅 Xun Wang 6B|i-b $~  
      李勤勤 Qinqin Li 0{vH.b @  
      李又麟 You-Lin Lee e([>sAx!1  
      宁浩 Hao Ning kkWv#,qwU  
      管虎 Hu Guan a2tEp+7?  
      梁静 Jing Liang p$qk\efv*4  
      徐峥 Zheng Xu < oV[[wl  
      陈德森 Teddy Chan M=lU`Sm  
      张磊 Lei Zhang +:4>4=  
gPT_}#_GxM  
◎简  介   dR;N3KwY  
 mC$y*G  
  马进欠下债务,与远房表弟小兴在底层社会摸爬滚打,习惯性的买彩票,企图一夜暴富,并迎娶自己的同事姗姗。一日,公司全体员工出海团建,途中,马进收到了彩票中头奖的信息,六千万!就在马进狂喜自己翻身的日子终于到来之际,一场突如其来的滔天巨浪打破了一切。苏醒过来的众人发现身处荒岛 ,丧失了一切与外界的联系…… +L`}(yLJ)9  
{Dk!<w I)  
Video s \pukpf@  
ID : 1 #QIY+muN  
Format : AVC h`dQ OH#  
Format/Info : Advanced Video Codec `lWGwFgg(  
Format profile : High@L4.1  WZY+c  
Format settings : CABAC / 5 Ref Frames tx~,7TMS/  
Format settings, CABAC : Yes _#NibW  
Format settings, ReFrames : 5 frames nq8XVT.m^\  
Codec ID : V_MPEG4/ISO/AVC x,.=VB  
Duration : 2 h 13 min ..X_nF  
Bit rate : 12.3 Mb/s =gD)j&~}_  
Width : 1 920 pixels 6]~/`6Dub  
Height : 856 pixels {+=hYB|&  
Display aspect ratio : 2.25:1  1n +Uv*  
Frame rate mode : Constant 1n[)({OQ  
Frame rate : 24.000 FPS mL2J  
Color space : YUV ,?erAI  
Chroma subsampling : 4:2:0 ;Vs2 e  
Bit depth : 8 bits 6?~9{0  
Scan type : Progressive 'jfE?ngt  
Bits/(Pixel*Frame) : 0.312 $q z{L~ <  
Stream size : 11.5 GiB (95%) (${ #l  
Writing library : x264 core 129 r2245 bc13772 7@%qm|i>w  
Encoding settings : cabac=1 / ref=5 / deblock=1:-3:-3 / analyse=0x3:0x133 / me=umh / subme=11 / psy=1 / psy_rd=1.05:0.05 / mixed_ref=1 / me_range=64 / chroma_me=1 / trellis=2 / 8x8dct=1 / cqm=0 / deadzone=21,11 / fast_pskip=0 / chroma_qp_offset=-3 / threads=12 / lookahead_threads=2 / sliced_threads=0 / nr=0 / decimate=1 / interlaced=0 / bluray_compat=0 / constrained_intra=0 / bframes=8 / b_pyramid=2 / b_adapt=2 / b_bias=0 / direct=3 / weightb=1 / open_gop=0 / weightp=2 / keyint=250 / keyint_min=24 / scenecut=40 / intra_refresh=0 / rc_lookahead=60 / rc=2pass / mbtree=1 / bitrate=12307 / ratetol=1.0 / qcomp=0.60 / qpmin=0 / qpmax=69 / qpstep=4 / cplxblur=20.0 / qblur=0.5 / vbv_maxrate=40000 / vbv_bufsize=30000 / nal_hrd=none / ip_ratio=1.40 / aq=1:0.60 =eUKpYI  
Language : English &:&l+  
Default : Yes )9_W"'V  
Forced : No G3io!XM)D  
S.~L[iLc  
Audio gac31,gH  
ID : 2 dGm%If9P  
Format : AC-3 g9|OhymB  
Format/Info : Audio Coding 3 Pz{MYw  
Commercial name : Dolby Digital zKGZg>q  
Codec ID : A_AC3 ;mQ|+|F6X  
Duration : 2 h 13 min i0K 2#}=^  
Bit rate mode : Constant z+7V}aPM  
Bit rate : 640 kb/s 5z,q~CU  
Channel(s) : 6 channels Ig}hap]G  
Channel layout : L R C LFE Ls Rs N,-C+r5}<4  
Sampling rate : 48.0 kHz g;'S5w9S  
Frame rate : 31.250 FPS (1536 SPF) iYgVSVNg  
Bit depth : 16 bits h~\k;ca  
Compression mode : Lossy <<u]WsW{C  
Stream size : 611 MiB (5%) /y{: N  
Language : Chinese 9dNkKMc@  
Service kind : Complete Main EQ,`6UT>  
Default : Yes ~6n|GxR.[  
Forced : No 4 H0rS'5d  
mMwV5\(  
Text #1 Awxm[:r>^  
ID : 3 @3KS oA"^  
Format : UTF-8 f?tU5EX  
Codec ID : S_TEXT/UTF8 DdI%TU K,  
Codec ID/Info : UTF-8 Plain Text 9!n95  
Duration : 2 h 12 min .O1w-,=  
Bit rate : 44 b/s IC'+{3.m8  
Count of elements : 2065 /C Xg$%\  
Stream size : 42.7 KiB (0%) Z,2?TT|p  
Language : English j!i* &  
Default : Yes oQ r.cKD ?  
Forced : Yes %C,zR&]F  
&,%n  
Text #2 aUZ?Ue9l>2  
ID : 4 S1^/W-yoc~  
Format : UTF-8 gU+yqT7=  
Codec ID : S_TEXT/UTF8 ; X+tCkzF  
Codec ID/Info : UTF-8 Plain Text DCiU?u~  
Duration : 2 h 12 min ,Ohhl`q(  
Bit rate : 43 b/s V[kJ;YLPN  
Count of elements : 2073 #BP0MY&  
Stream size : 41.9 KiB (0%) #oTVfY#  
Title : 简体 ,= ApnNUgX  
Language : Chinese E*5aLT5!,  
Default : No j1g$LAe  
Forced : No C('D]u$Hdk  
eC"e v5v  
Text #3 !Z2h ?..O  
ID : 5 5A`>3w{3n  
Format : UTF-8 [>?|wQy>=  
Codec ID : S_TEXT/UTF8 6O{QmB0K K  
Codec ID/Info : UTF-8 Plain Text /]z #V'  
Duration : 2 h 12 min @JhkUGG]p  
Bit rate : 43 b/s 4h!yh2c..  
Count of elements : 2073 IrCl\HQN  
Stream size : 41.9 KiB (0%) ,^c-}`!K  
Title : 繁体 7=fN vES2  
Language : Chinese *(yw6(9%  
Default : No $!9U\Au>2  
Forced : No n^;-&  
B"> Ko3  
[attachment=32542][attachment=32543] =p[Sd*d  
3Y)z{o>P  
[attachment=32544]

只看该作者 1 发表于: 2018-11-28
厉害了老刀,不带娃娃么???