切换到宽版
  • 101阅读
  • 1回复

一出好戏[内封中字]The.Island.2018.1080p.BluRay.x264-WiKi 12GB [复制链接]

上一主题 下一主题
 

只看楼主 倒序阅读 使用道具 0 发表于: 2018-11-27
[attachment=32541] u.q3~~[=  
RF*>U a  
◎译  名 The Island / 大富翁 / 诳想曲 2<*"@Vj  
◎片  名 一出好戏 1tTP;C l#  
◎年  代 2018 i'<hT q4  
◎产  地 中国大陆 }t#|+T2f  
◎类  别 剧情 / 喜剧 oi`L ;w|]  
◎语  言 汉语普通话 uKzx >\}?1  
◎上映日期 2018-08-10(中国大陆) P, ZQ*Ju  
◎IMDb评分 6.4/10 from 600 users +76'(@(1Y  
◎IMDb链接 http://www.imdb.com/title/tt8755316 a5Vlfx  
◎豆瓣评分 7.2/10 from 426482 users r1F5'?NZ(0  
◎豆瓣链接 https://movie.douban.com/subject/26985127/ I]n X6=j5  
◎BT之家整理 http://www.btbtt.us/ n',7=~  
◎片  长 134分钟 [;hkT   
◎导  演 黄渤 Bo Huang V=fu[#<@Ig  
◎编  剧 黄渤 Bo Huang / 张冀 Ji Zhang / 郭俊立 Junli Guo / 查慕春 Muchun Zha / 崔斯韦 Siwei Cui / 邢爱娜 Aina Xing / 黄湛中 Zhanzhong Huang g@x7 2$j  
◎主  演 黄渤 Bo Huang n7i~^nf>  
      舒淇 Qi Shu E 1`g8Hk'  
      王宝强 Baoqiang Wang ,Gy,bcv{  
      张艺兴 Yixing Zhang N @_y<7#C  
      于和伟 Hewei Yu w}6~t\9D  
      王迅 Xun Wang o~Hq&C"^}  
      李勤勤 Qinqin Li q=e;P;u  
      李又麟 You-Lin Lee ?#c "wA&  
      宁浩 Hao Ning 8oU R/___  
      管虎 Hu Guan sRLjKi2D  
      梁静 Jing Liang BO}IN#  
      徐峥 Zheng Xu Q`K^>L1  
      陈德森 Teddy Chan xBc$qjV  
      张磊 Lei Zhang k6DJ(.n'%a  
3<.DiY  
◎简  介   o1 27? ^  
)/f#~$ws  
  马进欠下债务,与远房表弟小兴在底层社会摸爬滚打,习惯性的买彩票,企图一夜暴富,并迎娶自己的同事姗姗。一日,公司全体员工出海团建,途中,马进收到了彩票中头奖的信息,六千万!就在马进狂喜自己翻身的日子终于到来之际,一场突如其来的滔天巨浪打破了一切。苏醒过来的众人发现身处荒岛 ,丧失了一切与外界的联系…… GZ<@#~1%\  
T-n>+G{  
Video ^xk4HF   
ID : 1 A##Q>|>)  
Format : AVC | #a{1Z)  
Format/Info : Advanced Video Codec p\I3fI0i  
Format profile : High@L4.1 !p ~.Y+  
Format settings : CABAC / 5 Ref Frames [ s/ j?/9  
Format settings, CABAC : Yes Y#):1C1  
Format settings, ReFrames : 5 frames sMAH;'`!Eu  
Codec ID : V_MPEG4/ISO/AVC lp d~U2&  
Duration : 2 h 13 min ;[lLFI  
Bit rate : 12.3 Mb/s T+0z.E!~I  
Width : 1 920 pixels g<F+Ldgj  
Height : 856 pixels rx]Q,;"  
Display aspect ratio : 2.25:1 )y!gApNs"  
Frame rate mode : Constant ?l[#d7IB  
Frame rate : 24.000 FPS SANb g&$  
Color space : YUV X,M!Tp  
Chroma subsampling : 4:2:0 i< imE#  
Bit depth : 8 bits ?st}rJ_  
Scan type : Progressive =.J>'9Q  
Bits/(Pixel*Frame) : 0.312 Grw[h  
Stream size : 11.5 GiB (95%) V[^AV"V  
Writing library : x264 core 129 r2245 bc13772 /Re67cMQ*  
Encoding settings : cabac=1 / ref=5 / deblock=1:-3:-3 / analyse=0x3:0x133 / me=umh / subme=11 / psy=1 / psy_rd=1.05:0.05 / mixed_ref=1 / me_range=64 / chroma_me=1 / trellis=2 / 8x8dct=1 / cqm=0 / deadzone=21,11 / fast_pskip=0 / chroma_qp_offset=-3 / threads=12 / lookahead_threads=2 / sliced_threads=0 / nr=0 / decimate=1 / interlaced=0 / bluray_compat=0 / constrained_intra=0 / bframes=8 / b_pyramid=2 / b_adapt=2 / b_bias=0 / direct=3 / weightb=1 / open_gop=0 / weightp=2 / keyint=250 / keyint_min=24 / scenecut=40 / intra_refresh=0 / rc_lookahead=60 / rc=2pass / mbtree=1 / bitrate=12307 / ratetol=1.0 / qcomp=0.60 / qpmin=0 / qpmax=69 / qpstep=4 / cplxblur=20.0 / qblur=0.5 / vbv_maxrate=40000 / vbv_bufsize=30000 / nal_hrd=none / ip_ratio=1.40 / aq=1:0.60 Z @m5hx&  
Language : English kVeY} 8  
Default : Yes ?TDmW8G}J  
Forced : No Ozulp(8*  
a{;+_J3S  
Audio vGH]7jht  
ID : 2 4ke.p<dG  
Format : AC-3 qbD_  
Format/Info : Audio Coding 3 *!NW!,R  
Commercial name : Dolby Digital ca,JQrm  
Codec ID : A_AC3 >Ir?)h  
Duration : 2 h 13 min `Lw Z(M-hI  
Bit rate mode : Constant e=tM=i"  
Bit rate : 640 kb/s !t)uRJ   
Channel(s) : 6 channels g p9;I*!  
Channel layout : L R C LFE Ls Rs 'L1yFv  
Sampling rate : 48.0 kHz -G1R><8[  
Frame rate : 31.250 FPS (1536 SPF) EcR[b@YI  
Bit depth : 16 bits uW( Ngcpr  
Compression mode : Lossy Vn^8nS  
Stream size : 611 MiB (5%) 0!c/4^  
Language : Chinese # 5{lOeN  
Service kind : Complete Main  Cb|R  
Default : Yes ]3U|K .G  
Forced : No :K \IS`  
ye {y[$#3  
Text #1 > JTf 0/  
ID : 3 {Z$]Rj  
Format : UTF-8 >G0ihhVt  
Codec ID : S_TEXT/UTF8 Me+)2S 9  
Codec ID/Info : UTF-8 Plain Text #b&=CsW`  
Duration : 2 h 12 min Nw1 .x  
Bit rate : 44 b/s cnDBT3$~Z  
Count of elements : 2065 ~a>3,v -  
Stream size : 42.7 KiB (0%) Hw#yw g  
Language : English `1 Tg8  
Default : Yes xLbF9ASim  
Forced : Yes ]#rmk!VT?  
,y7X>M2  
Text #2 ?I.bC   
ID : 4 2Aq+:ud)P  
Format : UTF-8 iqTmgE-  
Codec ID : S_TEXT/UTF8 y0t-e   
Codec ID/Info : UTF-8 Plain Text ~VF?T~Kr_  
Duration : 2 h 12 min w (,x{Bg\  
Bit rate : 43 b/s 51>OwEf<R  
Count of elements : 2073 #/K71Y  
Stream size : 41.9 KiB (0%) 7ws[Rp8  
Title : 简体 cl'qw##  
Language : Chinese ns[h_g!j;  
Default : No z)FGbX  
Forced : No !;U}ax;AF  
nlx~yUXL4  
Text #3 U&gl$/4U@  
ID : 5 q[.,i{2R}  
Format : UTF-8 l'\m' Ioh  
Codec ID : S_TEXT/UTF8  %B#8  
Codec ID/Info : UTF-8 Plain Text ,5|@vW2@u  
Duration : 2 h 12 min 4L2TsuLw  
Bit rate : 43 b/s 2CPh'7|l  
Count of elements : 2073 \/ /{\d  
Stream size : 41.9 KiB (0%) )9rJ]D ^B  
Title : 繁体 W% }zwQ  
Language : Chinese sCAWrbOe>  
Default : No Ar$ Am  
Forced : No (Mt-2+"+  
SDW!9jm>R  
[attachment=32542][attachment=32543] TP) }1 @  
hzy#%FaB  
[attachment=32544]

只看该作者 1 发表于: 2018-11-28
厉害了老刀,不带娃娃么???