切换到宽版
  • 221阅读
  • 1回复

一出好戏[内封中字]The.Island.2018.1080p.BluRay.x264-WiKi 12GB [复制链接]

上一主题 下一主题
 

只看楼主 倒序阅读 使用道具 0 发表于: 2018-11-27
[attachment=32541] _ZB\L^j)  
5wao1sd#  
◎译  名 The Island / 大富翁 / 诳想曲 UV 4>N  
◎片  名 一出好戏 -$VZte x  
◎年  代 2018 XKA&XpF  
◎产  地 中国大陆 c\6+=\  
◎类  别 剧情 / 喜剧 =h6 sPJ  
◎语  言 汉语普通话 s`j~-P  
◎上映日期 2018-08-10(中国大陆) eivtH P  
◎IMDb评分 6.4/10 from 600 users '3]p29v{  
◎IMDb链接 http://www.imdb.com/title/tt8755316 1% F?B-k  
◎豆瓣评分 7.2/10 from 426482 users 4(neKr5\#  
◎豆瓣链接 https://movie.douban.com/subject/26985127/ v[@c*wo  
◎BT之家整理 http://www.btbtt.us/ /yz=Cjoz  
◎片  长 134分钟 OdWou|Gz  
◎导  演 黄渤 Bo Huang !MDNE*_  
◎编  剧 黄渤 Bo Huang / 张冀 Ji Zhang / 郭俊立 Junli Guo / 查慕春 Muchun Zha / 崔斯韦 Siwei Cui / 邢爱娜 Aina Xing / 黄湛中 Zhanzhong Huang UX3BeUi.)  
◎主  演 黄渤 Bo Huang \;-fi.Hrf$  
      舒淇 Qi Shu "Td`AuP@,  
      王宝强 Baoqiang Wang M/?KV9Xk2  
      张艺兴 Yixing Zhang -7/s]9o'  
      于和伟 Hewei Yu hUQ,z7-  
      王迅 Xun Wang @D-AO_  
      李勤勤 Qinqin Li , P'P^0qJ  
      李又麟 You-Lin Lee '}g*!jL  
      宁浩 Hao Ning ,:~0F^z  
      管虎 Hu Guan HkV1sT  
      梁静 Jing Liang !3i Gz_y  
      徐峥 Zheng Xu >{eCh$L  
      陈德森 Teddy Chan {mWui9 %M  
      张磊 Lei Zhang Ftw;Yz  
<PPNhf8  
◎简  介    $Y=T&O  
ccC zu6  
  马进欠下债务,与远房表弟小兴在底层社会摸爬滚打,习惯性的买彩票,企图一夜暴富,并迎娶自己的同事姗姗。一日,公司全体员工出海团建,途中,马进收到了彩票中头奖的信息,六千万!就在马进狂喜自己翻身的日子终于到来之际,一场突如其来的滔天巨浪打破了一切。苏醒过来的众人发现身处荒岛 ,丧失了一切与外界的联系…… e{;OSk`x  
a$"ib  
Video  Eh-n  
ID : 1 VL[R(a6c <  
Format : AVC JOjoiA  
Format/Info : Advanced Video Codec :Ih|en^w  
Format profile : High@L4.1 2f U$J>Y  
Format settings : CABAC / 5 Ref Frames Ngr/QL]Q  
Format settings, CABAC : Yes O8|5KpXd@  
Format settings, ReFrames : 5 frames nf 1#tlIJd  
Codec ID : V_MPEG4/ISO/AVC K.G$]H  
Duration : 2 h 13 min i>EgG5iJ  
Bit rate : 12.3 Mb/s vA$o~?a]/  
Width : 1 920 pixels "#v=IJy&r  
Height : 856 pixels #`GY}-hL!  
Display aspect ratio : 2.25:1 7r|(}S  
Frame rate mode : Constant bX.ja;;   
Frame rate : 24.000 FPS MYBx&]!\  
Color space : YUV QDpEb=|S  
Chroma subsampling : 4:2:0 < Dx]b*H  
Bit depth : 8 bits kOvDl!^  
Scan type : Progressive $?,a[79  
Bits/(Pixel*Frame) : 0.312 s5RjIa0$7  
Stream size : 11.5 GiB (95%) /8VP[i)u  
Writing library : x264 core 129 r2245 bc13772 :{NC-%4o0  
Encoding settings : cabac=1 / ref=5 / deblock=1:-3:-3 / analyse=0x3:0x133 / me=umh / subme=11 / psy=1 / psy_rd=1.05:0.05 / mixed_ref=1 / me_range=64 / chroma_me=1 / trellis=2 / 8x8dct=1 / cqm=0 / deadzone=21,11 / fast_pskip=0 / chroma_qp_offset=-3 / threads=12 / lookahead_threads=2 / sliced_threads=0 / nr=0 / decimate=1 / interlaced=0 / bluray_compat=0 / constrained_intra=0 / bframes=8 / b_pyramid=2 / b_adapt=2 / b_bias=0 / direct=3 / weightb=1 / open_gop=0 / weightp=2 / keyint=250 / keyint_min=24 / scenecut=40 / intra_refresh=0 / rc_lookahead=60 / rc=2pass / mbtree=1 / bitrate=12307 / ratetol=1.0 / qcomp=0.60 / qpmin=0 / qpmax=69 / qpstep=4 / cplxblur=20.0 / qblur=0.5 / vbv_maxrate=40000 / vbv_bufsize=30000 / nal_hrd=none / ip_ratio=1.40 / aq=1:0.60 }SIGPVM  
Language : English l5+ gsEux]  
Default : Yes @fu M)B1"  
Forced : No C^ Q tSha  
%/>x O3"T  
Audio {bO|409>W  
ID : 2 X1 ZgSs+i  
Format : AC-3 &V|>dLT>A  
Format/Info : Audio Coding 3 "NRDNqj(  
Commercial name : Dolby Digital Mv c`)_Md  
Codec ID : A_AC3 CG'.:` t  
Duration : 2 h 13 min d:G]1k;z  
Bit rate mode : Constant GE>[*zN  
Bit rate : 640 kb/s 9N%JP+<89  
Channel(s) : 6 channels yr#5k`&\_  
Channel layout : L R C LFE Ls Rs JT fd#g?I  
Sampling rate : 48.0 kHz >NB?& |  
Frame rate : 31.250 FPS (1536 SPF) sH[ -W-  
Bit depth : 16 bits SWp1|.=Sm  
Compression mode : Lossy ++L?+^h  
Stream size : 611 MiB (5%) ! _2n  
Language : Chinese RzhWD^bB  
Service kind : Complete Main \7"@RHcihB  
Default : Yes  FgL,k  
Forced : No < j$#9QQ1  
GE|+fYVM-$  
Text #1 qS&%!  
ID : 3 ,G#.BLH cX  
Format : UTF-8 T0)"1D<l  
Codec ID : S_TEXT/UTF8 y8VpFa  
Codec ID/Info : UTF-8 Plain Text rbT)=-(  
Duration : 2 h 12 min kt4d; 4n  
Bit rate : 44 b/s jL)WPq!m+  
Count of elements : 2065 +i\&6HGK;-  
Stream size : 42.7 KiB (0%) +.y .Mp  
Language : English Ev!{n  
Default : Yes = 07Gy,=i  
Forced : Yes  Av0y?oGH  
b;|55Y  
Text #2 &rDM<pO #-  
ID : 4 $8l({:*q0  
Format : UTF-8 8@NH%zWBp  
Codec ID : S_TEXT/UTF8 Oi"a:bCU  
Codec ID/Info : UTF-8 Plain Text E&Qi@Ty  
Duration : 2 h 12 min 7VK}Dy/Vvn  
Bit rate : 43 b/s X0{/ydG F8  
Count of elements : 2073 )Qm[[pnj  
Stream size : 41.9 KiB (0%) uS&| "*pR  
Title : 简体 q P ;A}C  
Language : Chinese xoB},Xl$D  
Default : No 4h6k`ie!$  
Forced : No ,:+d g(\r  
6.t',LTB  
Text #3 >hY" 3  
ID : 5 )'l*Tl  
Format : UTF-8 [<`SfE  
Codec ID : S_TEXT/UTF8 0i CPi)B  
Codec ID/Info : UTF-8 Plain Text ( *G\g=D  
Duration : 2 h 12 min q.Nweu!jQ  
Bit rate : 43 b/s ?Z\Yu'  
Count of elements : 2073 LtT\z<bAI  
Stream size : 41.9 KiB (0%) bYe;b><G  
Title : 繁体 (BX83)  
Language : Chinese _w@qr\4i=  
Default : No e lG;jB  
Forced : No lq.Te,Y%w  
yV)m "j  
[attachment=32542][attachment=32543] X\p,%hk \  
(2?G:+C 7  
[attachment=32544]

只看该作者 1 发表于: 2018-11-28
厉害了老刀,不带娃娃么???