切换到宽版
  • 1050阅读
  • 1回复

一出好戏[内封中字]The.Island.2018.1080p.BluRay.x264-WiKi 12GB [复制链接]

上一主题 下一主题
 

只看楼主 正序阅读 使用道具 0 发表于: 2018-11-27
[attachment=32541] r)Sw V!b  
L (!mm  
◎译  名 The Island / 大富翁 / 诳想曲 e'Th[ wJ  
◎片  名 一出好戏 )q+9_KU q  
◎年  代 2018 ^04|tda  
◎产  地 中国大陆 Q.G6 y,KR  
◎类  别 剧情 / 喜剧 sS|N.2*  
◎语  言 汉语普通话 &Kgl\;}  
◎上映日期 2018-08-10(中国大陆) >HXmpu.O  
◎IMDb评分 6.4/10 from 600 users ij=}3;L_!  
◎IMDb链接 http://www.imdb.com/title/tt8755316 0jN?5j  
◎豆瓣评分 7.2/10 from 426482 users Z[{: `  
◎豆瓣链接 https://movie.douban.com/subject/26985127/ 8L7ZWw d  
◎BT之家整理 http://www.btbtt.us/ o-jF?9m  
◎片  长 134分钟 W}U-u{Z  
◎导  演 黄渤 Bo Huang ^J=l]  l  
◎编  剧 黄渤 Bo Huang / 张冀 Ji Zhang / 郭俊立 Junli Guo / 查慕春 Muchun Zha / 崔斯韦 Siwei Cui / 邢爱娜 Aina Xing / 黄湛中 Zhanzhong Huang  Gp/yr  
◎主  演 黄渤 Bo Huang /n SmGAO  
      舒淇 Qi Shu e.|_=Gd2/  
      王宝强 Baoqiang Wang /hMD Me  
      张艺兴 Yixing Zhang s~(iB{-  
      于和伟 Hewei Yu Ya)s_Zr7  
      王迅 Xun Wang G:2m)0bW  
      李勤勤 Qinqin Li &L S&O  
      李又麟 You-Lin Lee f}c z_"o4  
      宁浩 Hao Ning DEw_dOJ(  
      管虎 Hu Guan !~&vcz0>)9  
      梁静 Jing Liang >9.xFiq<  
      徐峥 Zheng Xu BEzF'<Z  
      陈德森 Teddy Chan 6DG:i mGl  
      张磊 Lei Zhang Q7 Clr{&  
bNG;`VZ%  
◎简  介   %?3\gFvBo  
N}3$1=@Y  
  马进欠下债务,与远房表弟小兴在底层社会摸爬滚打,习惯性的买彩票,企图一夜暴富,并迎娶自己的同事姗姗。一日,公司全体员工出海团建,途中,马进收到了彩票中头奖的信息,六千万!就在马进狂喜自己翻身的日子终于到来之际,一场突如其来的滔天巨浪打破了一切。苏醒过来的众人发现身处荒岛 ,丧失了一切与外界的联系…… THM\-abz  
[1Yx#t  
Video +89s+4Jn  
ID : 1 '}{J;moB  
Format : AVC #~r+   
Format/Info : Advanced Video Codec U8z$=W o  
Format profile : High@L4.1 {<HL}m@kQ  
Format settings : CABAC / 5 Ref Frames ,HxsU,xiG  
Format settings, CABAC : Yes A qKl}8  
Format settings, ReFrames : 5 frames `!j|Ym  
Codec ID : V_MPEG4/ISO/AVC /IS j0"/$  
Duration : 2 h 13 min # Pulbk8  
Bit rate : 12.3 Mb/s bV#U&)|  
Width : 1 920 pixels JxP=[>I  
Height : 856 pixels F-)lRGw  
Display aspect ratio : 2.25:1 :H$D-pbJ4  
Frame rate mode : Constant 64^dy V,;  
Frame rate : 24.000 FPS RrkS!E[C  
Color space : YUV o Ohm`7iy  
Chroma subsampling : 4:2:0 .oq!Ys4KA  
Bit depth : 8 bits {Tp0#fi  
Scan type : Progressive QJ`#&QRp  
Bits/(Pixel*Frame) : 0.312 nz|;6?LCLY  
Stream size : 11.5 GiB (95%) BHE((3  
Writing library : x264 core 129 r2245 bc13772 av(d0E}}b  
Encoding settings : cabac=1 / ref=5 / deblock=1:-3:-3 / analyse=0x3:0x133 / me=umh / subme=11 / psy=1 / psy_rd=1.05:0.05 / mixed_ref=1 / me_range=64 / chroma_me=1 / trellis=2 / 8x8dct=1 / cqm=0 / deadzone=21,11 / fast_pskip=0 / chroma_qp_offset=-3 / threads=12 / lookahead_threads=2 / sliced_threads=0 / nr=0 / decimate=1 / interlaced=0 / bluray_compat=0 / constrained_intra=0 / bframes=8 / b_pyramid=2 / b_adapt=2 / b_bias=0 / direct=3 / weightb=1 / open_gop=0 / weightp=2 / keyint=250 / keyint_min=24 / scenecut=40 / intra_refresh=0 / rc_lookahead=60 / rc=2pass / mbtree=1 / bitrate=12307 / ratetol=1.0 / qcomp=0.60 / qpmin=0 / qpmax=69 / qpstep=4 / cplxblur=20.0 / qblur=0.5 / vbv_maxrate=40000 / vbv_bufsize=30000 / nal_hrd=none / ip_ratio=1.40 / aq=1:0.60 \vB-0w  
Language : English }TZ5/zn.Dw  
Default : Yes _be*B+?2t  
Forced : No `MgR/@%hr  
p1Q[c0NMK  
Audio iAX\F`  
ID : 2 "-4V48ci  
Format : AC-3 j[XA"DZR<  
Format/Info : Audio Coding 3 *Rv eR?kO  
Commercial name : Dolby Digital _M+'30  
Codec ID : A_AC3 k[l+~5ix  
Duration : 2 h 13 min  I)E +  
Bit rate mode : Constant ${#5$U+kI  
Bit rate : 640 kb/s ';x .ry  
Channel(s) : 6 channels EOrWax@k$}  
Channel layout : L R C LFE Ls Rs *J!oV0#1  
Sampling rate : 48.0 kHz SzR0Mu3uK  
Frame rate : 31.250 FPS (1536 SPF) O~g _rcG  
Bit depth : 16 bits cWl)ZE<hM  
Compression mode : Lossy n*^g^gp  
Stream size : 611 MiB (5%) }(AUe5aw`G  
Language : Chinese < 0T4MR7  
Service kind : Complete Main CJ_X:Frj)  
Default : Yes F_!6C-z  
Forced : No cve(p kl  
e0HG"z4  
Text #1 jMUE&/k  
ID : 3 :b;2iB VB  
Format : UTF-8 _=jc%@]1y  
Codec ID : S_TEXT/UTF8 BbZ-dXC<  
Codec ID/Info : UTF-8 Plain Text ^Ois]#py  
Duration : 2 h 12 min hA?j"y0?  
Bit rate : 44 b/s =YBwO. !%  
Count of elements : 2065 V-CPq  
Stream size : 42.7 KiB (0%) Tk9*@kqv  
Language : English $"T1W=;j9  
Default : Yes p 8BAan3  
Forced : Yes Z!C\n[R/  
x{u_kepv[k  
Text #2 FpE83}@".w  
ID : 4 6)P~3 C'  
Format : UTF-8 )_b #c+  
Codec ID : S_TEXT/UTF8 k+44ud.j  
Codec ID/Info : UTF-8 Plain Text {o7ibw=E)  
Duration : 2 h 12 min N{`-&8q;K  
Bit rate : 43 b/s YL&$cT]1  
Count of elements : 2073 T1;yw1/m5\  
Stream size : 41.9 KiB (0%) RMDs~  
Title : 简体 ;u,%an<(  
Language : Chinese z-uJ+SA  
Default : No _%!C;`3Y  
Forced : No je.jui"  
Wt"@?#L  
Text #3 gE J mMh  
ID : 5 + H_Jr'/  
Format : UTF-8 X#5dd.RR  
Codec ID : S_TEXT/UTF8 bOux8OHt*  
Codec ID/Info : UTF-8 Plain Text DTN@b!  
Duration : 2 h 12 min *(L4rK\2  
Bit rate : 43 b/s GC H= X  
Count of elements : 2073 N{iBVl  
Stream size : 41.9 KiB (0%) [+gX6  
Title : 繁体  OnF +  
Language : Chinese KU3lAjzN  
Default : No iBxCk^  
Forced : No S D] d/|y  
sU4(ed\gI\  
[attachment=32542][attachment=32543] >Fz_] z   
?AyG!F  
[attachment=32544]

只看该作者 1 发表于: 2018-11-28
厉害了老刀,不带娃娃么???