切换到宽版
  • 171阅读
  • 1回复

一出好戏[内封中字]The.Island.2018.1080p.BluRay.x264-WiKi 12GB [复制链接]

上一主题 下一主题
 

只看楼主 倒序阅读 使用道具 0 发表于: 2018-11-27
[attachment=32541] mmk=97  
$[a8$VY^Cm  
◎译  名 The Island / 大富翁 / 诳想曲 Y<%@s}zc  
◎片  名 一出好戏 ", KCCis  
◎年  代 2018 rr02pM0  
◎产  地 中国大陆 |$ lM#Ua  
◎类  别 剧情 / 喜剧 Su/6Q$0 t  
◎语  言 汉语普通话 S(*sw 0O@+  
◎上映日期 2018-08-10(中国大陆) eEv@}1~  
◎IMDb评分 6.4/10 from 600 users U "^kH|  
◎IMDb链接 http://www.imdb.com/title/tt8755316 f\sQO&  
◎豆瓣评分 7.2/10 from 426482 users g'n7T|h ~  
◎豆瓣链接 https://movie.douban.com/subject/26985127/ sg3OL/"  
◎BT之家整理 http://www.btbtt.us/ '6cWS'9"  
◎片  长 134分钟 S79;^X  
◎导  演 黄渤 Bo Huang z kuU5O  
◎编  剧 黄渤 Bo Huang / 张冀 Ji Zhang / 郭俊立 Junli Guo / 查慕春 Muchun Zha / 崔斯韦 Siwei Cui / 邢爱娜 Aina Xing / 黄湛中 Zhanzhong Huang iW%I|&  
◎主  演 黄渤 Bo Huang %Q  fO8P  
      舒淇 Qi Shu 7'W%blg !V  
      王宝强 Baoqiang Wang g+Sbl  
      张艺兴 Yixing Zhang xqG[~)~  
      于和伟 Hewei Yu UU;(rS/  
      王迅 Xun Wang kwo3`b  
      李勤勤 Qinqin Li H Y&DmE  
      李又麟 You-Lin Lee -$cmG4  
      宁浩 Hao Ning e4 78U$  
      管虎 Hu Guan Bn#?zI  
      梁静 Jing Liang jHE}qE~>5  
      徐峥 Zheng Xu 75f"'nJ)  
      陈德森 Teddy Chan [65 `$x-  
      张磊 Lei Zhang ao1(]64X"  
"55skmD.P  
◎简  介   =[cS0Sy  
7Bzq,2s  
  马进欠下债务,与远房表弟小兴在底层社会摸爬滚打,习惯性的买彩票,企图一夜暴富,并迎娶自己的同事姗姗。一日,公司全体员工出海团建,途中,马进收到了彩票中头奖的信息,六千万!就在马进狂喜自己翻身的日子终于到来之际,一场突如其来的滔天巨浪打破了一切。苏醒过来的众人发现身处荒岛 ,丧失了一切与外界的联系…… 4:$4u@   
8dZS i  
Video hV8[@&Sx3  
ID : 1 B}Z63|/N  
Format : AVC dMf:h"7  
Format/Info : Advanced Video Codec ]@j*/IP  
Format profile : High@L4.1 ~?4PBq  
Format settings : CABAC / 5 Ref Frames rb5~XnJk  
Format settings, CABAC : Yes g]<4&)~  
Format settings, ReFrames : 5 frames D0&,?  
Codec ID : V_MPEG4/ISO/AVC WejY y|  
Duration : 2 h 13 min :|V$\!o'U  
Bit rate : 12.3 Mb/s `5cKA;j>b  
Width : 1 920 pixels >kj`7GA  
Height : 856 pixels @Owb?(6?  
Display aspect ratio : 2.25:1 :q$.,EZ4#n  
Frame rate mode : Constant zT =Ho   
Frame rate : 24.000 FPS lGPUIoUo  
Color space : YUV .0S~872  
Chroma subsampling : 4:2:0 1n >X[! 8x  
Bit depth : 8 bits ~P*6ozSYpY  
Scan type : Progressive 9_L[w\P|4  
Bits/(Pixel*Frame) : 0.312 ?{P"O!I{  
Stream size : 11.5 GiB (95%) iEVb"w0 59  
Writing library : x264 core 129 r2245 bc13772 w k(VR  
Encoding settings : cabac=1 / ref=5 / deblock=1:-3:-3 / analyse=0x3:0x133 / me=umh / subme=11 / psy=1 / psy_rd=1.05:0.05 / mixed_ref=1 / me_range=64 / chroma_me=1 / trellis=2 / 8x8dct=1 / cqm=0 / deadzone=21,11 / fast_pskip=0 / chroma_qp_offset=-3 / threads=12 / lookahead_threads=2 / sliced_threads=0 / nr=0 / decimate=1 / interlaced=0 / bluray_compat=0 / constrained_intra=0 / bframes=8 / b_pyramid=2 / b_adapt=2 / b_bias=0 / direct=3 / weightb=1 / open_gop=0 / weightp=2 / keyint=250 / keyint_min=24 / scenecut=40 / intra_refresh=0 / rc_lookahead=60 / rc=2pass / mbtree=1 / bitrate=12307 / ratetol=1.0 / qcomp=0.60 / qpmin=0 / qpmax=69 / qpstep=4 / cplxblur=20.0 / qblur=0.5 / vbv_maxrate=40000 / vbv_bufsize=30000 / nal_hrd=none / ip_ratio=1.40 / aq=1:0.60 V]|^&A _c  
Language : English `YFtL  
Default : Yes nW PF6V>  
Forced : No j~2 {lCT  
[.O?Z=5a[V  
Audio iZ#!O* >  
ID : 2 aGrIQq/k)%  
Format : AC-3 p#ol*m5wE  
Format/Info : Audio Coding 3 6LOnU~l,  
Commercial name : Dolby Digital ;+W# 5<i  
Codec ID : A_AC3 oz,np@f)J  
Duration : 2 h 13 min j#X.KM   
Bit rate mode : Constant +DW~BS3  
Bit rate : 640 kb/s #ZJ _T`l  
Channel(s) : 6 channels 3AHlSX  
Channel layout : L R C LFE Ls Rs WQ~;;.v#  
Sampling rate : 48.0 kHz v0 nj M  
Frame rate : 31.250 FPS (1536 SPF) j>*R]mr6  
Bit depth : 16 bits zcel|oz)  
Compression mode : Lossy u8gS< \  
Stream size : 611 MiB (5%) ?zeJ#i  
Language : Chinese 3*]eigi)  
Service kind : Complete Main 9E zj"  
Default : Yes D N'3QQn  
Forced : No d:ARf  
un)4eo!7  
Text #1 ~T ]m>A!  
ID : 3 H;?{BV  
Format : UTF-8 &qMPq->  
Codec ID : S_TEXT/UTF8 nc~F_i=  
Codec ID/Info : UTF-8 Plain Text hLI`If/+K  
Duration : 2 h 12 min KX!T8+Y  
Bit rate : 44 b/s K-e9>fmB#  
Count of elements : 2065 O*eby*%h  
Stream size : 42.7 KiB (0%) ZW-yP2  
Language : English LUG;(Fko  
Default : Yes FYOD Upn  
Forced : Yes ,R'@%,/  
@x9a?L.48  
Text #2 O?NeSx 1  
ID : 4 dA-2%u J  
Format : UTF-8 &K[_J  
Codec ID : S_TEXT/UTF8 ZtV9&rd7  
Codec ID/Info : UTF-8 Plain Text :@kGAI  
Duration : 2 h 12 min j;%-fvd;  
Bit rate : 43 b/s ]p*l%(dhY  
Count of elements : 2073 Q Btnx[  
Stream size : 41.9 KiB (0%) So{x]x:f  
Title : 简体 V7GRA #|  
Language : Chinese %dJX-sm@  
Default : No IKABBW  
Forced : No 4S,`bnmB  
0rh]]kj  
Text #3 aF)1Nm[  
ID : 5 `%CtWJ(e  
Format : UTF-8 L~ _9_9c  
Codec ID : S_TEXT/UTF8 + hvO^?4j  
Codec ID/Info : UTF-8 Plain Text aT_&x@x  
Duration : 2 h 12 min A{UULVp  
Bit rate : 43 b/s `^bgUmJ~  
Count of elements : 2073 0.dgoq 3u  
Stream size : 41.9 KiB (0%) D<|qaHB=  
Title : 繁体 0QPH}Vi5}  
Language : Chinese Ge,;8N88  
Default : No sW)Zi  
Forced : No [E+$?a=  
$}lbT15a  
[attachment=32542][attachment=32543] ~7Ts_:E-  
x\F,SEj  
[attachment=32544]

只看该作者 1 发表于: 2018-11-28
厉害了老刀,不带娃娃么???