切换到宽版
  • 679阅读
  • 1回复

一出好戏[内封中字]The.Island.2018.1080p.BluRay.x264-WiKi 12GB [复制链接]

上一主题 下一主题
 

只看楼主 倒序阅读 使用道具 0 发表于: 2018-11-27
[attachment=32541] )m|)cLT&  
\Cx2$<8  
◎译  名 The Island / 大富翁 / 诳想曲 \<TWy&2&  
◎片  名 一出好戏 ]v=A}}kS  
◎年  代 2018 *jM]:GpyoU  
◎产  地 中国大陆 9! ; /+P  
◎类  别 剧情 / 喜剧 XkDIP4v%  
◎语  言 汉语普通话 :pq+SifP  
◎上映日期 2018-08-10(中国大陆)  HQX.oW  
◎IMDb评分 6.4/10 from 600 users MR}=tO  
◎IMDb链接 http://www.imdb.com/title/tt8755316 4}`z^P<C  
◎豆瓣评分 7.2/10 from 426482 users vhvFBx0  
◎豆瓣链接 https://movie.douban.com/subject/26985127/ T,r?% G{XE  
◎BT之家整理 http://www.btbtt.us/ Q\rf J||  
◎片  长 134分钟 zc K`hS  
◎导  演 黄渤 Bo Huang id+ ~ V  
◎编  剧 黄渤 Bo Huang / 张冀 Ji Zhang / 郭俊立 Junli Guo / 查慕春 Muchun Zha / 崔斯韦 Siwei Cui / 邢爱娜 Aina Xing / 黄湛中 Zhanzhong Huang W[/Txc0$  
◎主  演 黄渤 Bo Huang >P@g].Q-  
      舒淇 Qi Shu JV ydTvc  
      王宝强 Baoqiang Wang 3$G &~A{  
      张艺兴 Yixing Zhang ?fW['%  
      于和伟 Hewei Yu iSbPOC7  
      王迅 Xun Wang o, PpD,,  
      李勤勤 Qinqin Li {^8?fJ/L  
      李又麟 You-Lin Lee -Gy=1W`09  
      宁浩 Hao Ning bI+/0X x  
      管虎 Hu Guan 2ca#@??R  
      梁静 Jing Liang 9k /L m  
      徐峥 Zheng Xu KrdEB0qh  
      陈德森 Teddy Chan F_G .$a Cc  
      张磊 Lei Zhang jIEntk  
"%lIB{  
◎简  介   :CLWmMC_  
# ~Doz7~  
  马进欠下债务,与远房表弟小兴在底层社会摸爬滚打,习惯性的买彩票,企图一夜暴富,并迎娶自己的同事姗姗。一日,公司全体员工出海团建,途中,马进收到了彩票中头奖的信息,六千万!就在马进狂喜自己翻身的日子终于到来之际,一场突如其来的滔天巨浪打破了一切。苏醒过来的众人发现身处荒岛 ,丧失了一切与外界的联系…… ^hNl6)hR  
bMn)lrsX  
Video #lR-?Uh  
ID : 1 Jr5dw=B gw  
Format : AVC ,oykOda:|  
Format/Info : Advanced Video Codec ncqAof(/  
Format profile : High@L4.1 e>6|# d  
Format settings : CABAC / 5 Ref Frames E5!vw@,  
Format settings, CABAC : Yes 'i',M+0>jC  
Format settings, ReFrames : 5 frames eSQkW  
Codec ID : V_MPEG4/ISO/AVC ^hXm=r4ozR  
Duration : 2 h 13 min EQN)y27poW  
Bit rate : 12.3 Mb/s 'Lq+ONX5  
Width : 1 920 pixels O uNPDq%  
Height : 856 pixels _3(rwD  
Display aspect ratio : 2.25:1 )(0if0D4  
Frame rate mode : Constant }`kiULC'=  
Frame rate : 24.000 FPS -L +kt_>  
Color space : YUV G9NI`]k  
Chroma subsampling : 4:2:0 rY 6x):sC  
Bit depth : 8 bits C$q};7b1N  
Scan type : Progressive p[w! SR%=  
Bits/(Pixel*Frame) : 0.312 Fei5'  
Stream size : 11.5 GiB (95%) "4\k1H"_  
Writing library : x264 core 129 r2245 bc13772 1 RJFPv  
Encoding settings : cabac=1 / ref=5 / deblock=1:-3:-3 / analyse=0x3:0x133 / me=umh / subme=11 / psy=1 / psy_rd=1.05:0.05 / mixed_ref=1 / me_range=64 / chroma_me=1 / trellis=2 / 8x8dct=1 / cqm=0 / deadzone=21,11 / fast_pskip=0 / chroma_qp_offset=-3 / threads=12 / lookahead_threads=2 / sliced_threads=0 / nr=0 / decimate=1 / interlaced=0 / bluray_compat=0 / constrained_intra=0 / bframes=8 / b_pyramid=2 / b_adapt=2 / b_bias=0 / direct=3 / weightb=1 / open_gop=0 / weightp=2 / keyint=250 / keyint_min=24 / scenecut=40 / intra_refresh=0 / rc_lookahead=60 / rc=2pass / mbtree=1 / bitrate=12307 / ratetol=1.0 / qcomp=0.60 / qpmin=0 / qpmax=69 / qpstep=4 / cplxblur=20.0 / qblur=0.5 / vbv_maxrate=40000 / vbv_bufsize=30000 / nal_hrd=none / ip_ratio=1.40 / aq=1:0.60 /jNvHo^B  
Language : English Qo)Da}uo20  
Default : Yes q>Di|5<y  
Forced : No )X-'Q-  
b{qN7X~>  
Audio  $TfB72  
ID : 2 \_WR:?l  
Format : AC-3 h;,1BpbM  
Format/Info : Audio Coding 3 1~t.2eUG  
Commercial name : Dolby Digital Tf~eH!~0  
Codec ID : A_AC3 w i[9RD@  
Duration : 2 h 13 min -nXP<v=V  
Bit rate mode : Constant ~n- Px)  
Bit rate : 640 kb/s Pr1q X5>=  
Channel(s) : 6 channels 5mQ@&E~#W  
Channel layout : L R C LFE Ls Rs t5% cpkgh4  
Sampling rate : 48.0 kHz j*@@H6G  
Frame rate : 31.250 FPS (1536 SPF) Mh*r)B~%[  
Bit depth : 16 bits a M9v  
Compression mode : Lossy  q[ _qZ  
Stream size : 611 MiB (5%) Ly&+m+Gwu  
Language : Chinese kV+^1@"  
Service kind : Complete Main dpTsTU!\  
Default : Yes tBbOxMm0  
Forced : No I<O$);DV'  
ss[`*89  
Text #1 `mzlOB  
ID : 3 &EqLF  
Format : UTF-8 Sp492W+  
Codec ID : S_TEXT/UTF8 "aOs#4N  
Codec ID/Info : UTF-8 Plain Text i+h*<){X  
Duration : 2 h 12 min k?Z:=.YW  
Bit rate : 44 b/s q)i %*IY  
Count of elements : 2065 5>I-? Ki  
Stream size : 42.7 KiB (0%) \r F S^#  
Language : English qS#G7~ur>y  
Default : Yes _;B wP  
Forced : Yes K f/[Edn  
sSh{.XuB+3  
Text #2 .JPN';  
ID : 4 ~f h  
Format : UTF-8 l)9IgJ|<b  
Codec ID : S_TEXT/UTF8 8@;]@c)m  
Codec ID/Info : UTF-8 Plain Text H:@hCO[a  
Duration : 2 h 12 min 5E\.YqdV  
Bit rate : 43 b/s &]DB-t#\  
Count of elements : 2073 |tGUx*NN  
Stream size : 41.9 KiB (0%) x="Wqcnj{  
Title : 简体 P9/ (f$=  
Language : Chinese /~Y\KOH|  
Default : No jc&k-d>=G  
Forced : No Y~AjcqS  
bZ\R0[0  
Text #3 mux/\TII  
ID : 5 #RBrii-,  
Format : UTF-8 3PE.7-HF  
Codec ID : S_TEXT/UTF8 e0TYHr)X>3  
Codec ID/Info : UTF-8 Plain Text _#u\ar )  
Duration : 2 h 12 min 5MVa;m  
Bit rate : 43 b/s 2#>;cn\  
Count of elements : 2073 )i~AXBt}  
Stream size : 41.9 KiB (0%) I8Aq8XBw  
Title : 繁体 ^.6[vmmq  
Language : Chinese jVQ y{8{G  
Default : No vN Bg&m  
Forced : No Zz0bd473k?  
G:<f(Gy  
[attachment=32542][attachment=32543] ^ Oh  
`,qft[1  
[attachment=32544]

只看该作者 1 发表于: 2018-11-28
厉害了老刀,不带娃娃么???