切换到宽版
  • 376阅读
  • 1回复

一出好戏[内封中字]The.Island.2018.1080p.BluRay.x264-WiKi 12GB [复制链接]

上一主题 下一主题
 

只看楼主 倒序阅读 使用道具 0 发表于: 2018-11-27
[attachment=32541] U3U eTa_  
A`r&"i OKA  
◎译  名 The Island / 大富翁 / 诳想曲 <g%xo"  
◎片  名 一出好戏  b'{D4/  
◎年  代 2018 ?y04g u6p  
◎产  地 中国大陆 N]=.I   
◎类  别 剧情 / 喜剧 aVtwpkgZ  
◎语  言 汉语普通话 q{_buTARq  
◎上映日期 2018-08-10(中国大陆) X>wQYIi  
◎IMDb评分 6.4/10 from 600 users Aio0++ r-  
◎IMDb链接 http://www.imdb.com/title/tt8755316 d~_OWCg`  
◎豆瓣评分 7.2/10 from 426482 users ):[[Ch_  
◎豆瓣链接 https://movie.douban.com/subject/26985127/ V?rI,'F>N  
◎BT之家整理 http://www.btbtt.us/ <n`|zQ  
◎片  长 134分钟 -zTeIvcy5  
◎导  演 黄渤 Bo Huang L'6zs:i  
◎编  剧 黄渤 Bo Huang / 张冀 Ji Zhang / 郭俊立 Junli Guo / 查慕春 Muchun Zha / 崔斯韦 Siwei Cui / 邢爱娜 Aina Xing / 黄湛中 Zhanzhong Huang kdo)y(fn@  
◎主  演 黄渤 Bo Huang . }1!MK5  
      舒淇 Qi Shu 0+H"$2/  
      王宝强 Baoqiang Wang <=`@`rm{  
      张艺兴 Yixing Zhang B=p'2lla  
      于和伟 Hewei Yu }z*p2)v`  
      王迅 Xun Wang P~*fZ)\}F@  
      李勤勤 Qinqin Li AUq?<Vg\  
      李又麟 You-Lin Lee A6Qi^TI  
      宁浩 Hao Ning [gE2lf aEy  
      管虎 Hu Guan f Gfv{4R  
      梁静 Jing Liang L@ay4,e.bz  
      徐峥 Zheng Xu qy]-YJZ  
      陈德森 Teddy Chan 9!OpW:bR|  
      张磊 Lei Zhang X3 >(K1  
U9q*zP_jV  
◎简  介   @GV^B'}*  
Q7s1 M&K  
  马进欠下债务,与远房表弟小兴在底层社会摸爬滚打,习惯性的买彩票,企图一夜暴富,并迎娶自己的同事姗姗。一日,公司全体员工出海团建,途中,马进收到了彩票中头奖的信息,六千万!就在马进狂喜自己翻身的日子终于到来之际,一场突如其来的滔天巨浪打破了一切。苏醒过来的众人发现身处荒岛 ,丧失了一切与外界的联系…… aqN.5'2\  
Cm&itG  
Video xphqgOc12,  
ID : 1 _96&P7  
Format : AVC $ S49v  
Format/Info : Advanced Video Codec {J]|mxo  
Format profile : High@L4.1 TvP# /qGgG  
Format settings : CABAC / 5 Ref Frames  e?7paJ  
Format settings, CABAC : Yes "&ks8 3  
Format settings, ReFrames : 5 frames ppYz~ {"r  
Codec ID : V_MPEG4/ISO/AVC @PI\.y_w  
Duration : 2 h 13 min bM'AD[  
Bit rate : 12.3 Mb/s :z:Blp>nK/  
Width : 1 920 pixels 8 ?$2;uGL  
Height : 856 pixels _`\INZ e-G  
Display aspect ratio : 2.25:1 4M]8po/;  
Frame rate mode : Constant J B|I/\(A  
Frame rate : 24.000 FPS DjKjEZHgM  
Color space : YUV g[$B9 0  
Chroma subsampling : 4:2:0 pA2U+Q@  
Bit depth : 8 bits Dn[1BWM/7  
Scan type : Progressive 7~16letQ  
Bits/(Pixel*Frame) : 0.312 TQou.'+v  
Stream size : 11.5 GiB (95%) g DhwJks  
Writing library : x264 core 129 r2245 bc13772 2*|]#W  
Encoding settings : cabac=1 / ref=5 / deblock=1:-3:-3 / analyse=0x3:0x133 / me=umh / subme=11 / psy=1 / psy_rd=1.05:0.05 / mixed_ref=1 / me_range=64 / chroma_me=1 / trellis=2 / 8x8dct=1 / cqm=0 / deadzone=21,11 / fast_pskip=0 / chroma_qp_offset=-3 / threads=12 / lookahead_threads=2 / sliced_threads=0 / nr=0 / decimate=1 / interlaced=0 / bluray_compat=0 / constrained_intra=0 / bframes=8 / b_pyramid=2 / b_adapt=2 / b_bias=0 / direct=3 / weightb=1 / open_gop=0 / weightp=2 / keyint=250 / keyint_min=24 / scenecut=40 / intra_refresh=0 / rc_lookahead=60 / rc=2pass / mbtree=1 / bitrate=12307 / ratetol=1.0 / qcomp=0.60 / qpmin=0 / qpmax=69 / qpstep=4 / cplxblur=20.0 / qblur=0.5 / vbv_maxrate=40000 / vbv_bufsize=30000 / nal_hrd=none / ip_ratio=1.40 / aq=1:0.60 cm]]9z_<  
Language : English t'J fiG M  
Default : Yes !2Orklzd1  
Forced : No kpdFb7>|  
{G}HZv%S U  
Audio |^F-.Z  
ID : 2 5c"kLq6r  
Format : AC-3 =%3nKSg  
Format/Info : Audio Coding 3 _x!pM j(A  
Commercial name : Dolby Digital WdT|xf.Q&  
Codec ID : A_AC3 1@WGbORc*  
Duration : 2 h 13 min FMn&2f H  
Bit rate mode : Constant 7'|PHQ?S  
Bit rate : 640 kb/s Bag#An1  
Channel(s) : 6 channels 8VZ-`?p  
Channel layout : L R C LFE Ls Rs <-F"&LI{<  
Sampling rate : 48.0 kHz +[ItkfSod!  
Frame rate : 31.250 FPS (1536 SPF) P5>CSWy%  
Bit depth : 16 bits #-;BU{3*  
Compression mode : Lossy '!R,)5l0h  
Stream size : 611 MiB (5%) x}{VHp`|ld  
Language : Chinese U]|q4!WE  
Service kind : Complete Main ca =e_sg  
Default : Yes | 6>_L6t  
Forced : No FT~^$)8=  
W%1S:2+Kl  
Text #1 k 3 l  
ID : 3 mw[4<vfB0a  
Format : UTF-8 mV,R0olF  
Codec ID : S_TEXT/UTF8 GcnY= %L?  
Codec ID/Info : UTF-8 Plain Text @m V C  
Duration : 2 h 12 min vrzX%'  
Bit rate : 44 b/s #E9['JnZ  
Count of elements : 2065 9HX+sB M  
Stream size : 42.7 KiB (0%) $T6Qg(p  
Language : English x1wxB 1)2  
Default : Yes $J6.a!5IE  
Forced : Yes X}(0y  
5-^%\?,x  
Text #2 >K :"[?  
ID : 4 oui!fTy  
Format : UTF-8 F-^HN%  
Codec ID : S_TEXT/UTF8 +,Az\aT/%  
Codec ID/Info : UTF-8 Plain Text opMUt,4  
Duration : 2 h 12 min s3{s.55{m  
Bit rate : 43 b/s #ja`+w}  
Count of elements : 2073 bSf(DSqx  
Stream size : 41.9 KiB (0%) SbZt\a 8  
Title : 简体 sg{D ?zl  
Language : Chinese au|^V^m  
Default : No \'Ta8  
Forced : No J\3} il N  
[+g@@\X4  
Text #3 ;YDF*~9u  
ID : 5 hX m} d\  
Format : UTF-8 8%<`$`FyU  
Codec ID : S_TEXT/UTF8 |*KS<iHr%  
Codec ID/Info : UTF-8 Plain Text A Vm{#^p[(  
Duration : 2 h 12 min Jwd&[ O  
Bit rate : 43 b/s V:BX"$ J1  
Count of elements : 2073 mE`qvavP|/  
Stream size : 41.9 KiB (0%) Wk\@n+Q {]  
Title : 繁体 _}OJPahw  
Language : Chinese *O> aqu  
Default : No `8;,&<U'`  
Forced : No Reu{   
\bm6/fhA:  
[attachment=32542][attachment=32543] 4;RCPC  
kLt9; <L  
[attachment=32544]

只看该作者 1 发表于: 2018-11-28
厉害了老刀,不带娃娃么???