切换到宽版
  • 1007阅读
  • 1回复

一出好戏[内封中字]The.Island.2018.1080p.BluRay.x264-WiKi 12GB [复制链接]

上一主题 下一主题
 

只看楼主 倒序阅读 使用道具 0 发表于: 2018-11-27
[attachment=32541] 6, =oTmFP  
R Ptc \ 4  
◎译  名 The Island / 大富翁 / 诳想曲 i4"BN,NZ{  
◎片  名 一出好戏 7Uy49cs,  
◎年  代 2018 II(7U3  
◎产  地 中国大陆 u!wR  
◎类  别 剧情 / 喜剧 MBlh lMyI  
◎语  言 汉语普通话 E=PmOw7b  
◎上映日期 2018-08-10(中国大陆) \jlem<&  
◎IMDb评分 6.4/10 from 600 users 9k5$rK`  
◎IMDb链接 http://www.imdb.com/title/tt8755316 }@VdtH  
◎豆瓣评分 7.2/10 from 426482 users jN. '%5Q?H  
◎豆瓣链接 https://movie.douban.com/subject/26985127/ K7o!,['W  
◎BT之家整理 http://www.btbtt.us/ ^Yu<fFn  
◎片  长 134分钟 A}K2"lQ#>,  
◎导  演 黄渤 Bo Huang Z.:g8Xl-6  
◎编  剧 黄渤 Bo Huang / 张冀 Ji Zhang / 郭俊立 Junli Guo / 查慕春 Muchun Zha / 崔斯韦 Siwei Cui / 邢爱娜 Aina Xing / 黄湛中 Zhanzhong Huang f]N.$,:$  
◎主  演 黄渤 Bo Huang $A>\I3B  
      舒淇 Qi Shu +OGa}9j-  
      王宝强 Baoqiang Wang *>b*I4dz  
      张艺兴 Yixing Zhang (- ]A1WQ?  
      于和伟 Hewei Yu 1D@'uApi .  
      王迅 Xun Wang 4rpx  
      李勤勤 Qinqin Li Pr|:nJs  
      李又麟 You-Lin Lee ){'Ef_/R  
      宁浩 Hao Ning ^Bkwbj  
      管虎 Hu Guan 6Ja } N  
      梁静 Jing Liang "DWw]\xO](  
      徐峥 Zheng Xu R 1CoS6  
      陈德森 Teddy Chan h?cf)L  
      张磊 Lei Zhang /3( a'o[  
7t8[M(  
◎简  介   3}U {~l!K  
="yN4+0-p  
  马进欠下债务,与远房表弟小兴在底层社会摸爬滚打,习惯性的买彩票,企图一夜暴富,并迎娶自己的同事姗姗。一日,公司全体员工出海团建,途中,马进收到了彩票中头奖的信息,六千万!就在马进狂喜自己翻身的日子终于到来之际,一场突如其来的滔天巨浪打破了一切。苏醒过来的众人发现身处荒岛 ,丧失了一切与外界的联系…… 2QU ZBrs s  
K chp%   
Video a?635*9K  
ID : 1 (f Gmjx  
Format : AVC w4 R!aWLd  
Format/Info : Advanced Video Codec |s<IZ2z]}R  
Format profile : High@L4.1 ED0Vlw+1  
Format settings : CABAC / 5 Ref Frames 2;!,:bFb  
Format settings, CABAC : Yes ! };OL Q  
Format settings, ReFrames : 5 frames u1@&o9  
Codec ID : V_MPEG4/ISO/AVC /&PRw<}>_o  
Duration : 2 h 13 min ar+ j`QIe  
Bit rate : 12.3 Mb/s S!\4,6  
Width : 1 920 pixels e7T}*Up  
Height : 856 pixels `>.^/SGu>?  
Display aspect ratio : 2.25:1 |@Cx%aEKU  
Frame rate mode : Constant 5" 5tY  
Frame rate : 24.000 FPS ao+lL Cr  
Color space : YUV 701mf1 a  
Chroma subsampling : 4:2:0 Z>9uVBE02  
Bit depth : 8 bits QJeL&mf  
Scan type : Progressive x%J4A+kU  
Bits/(Pixel*Frame) : 0.312 H> zX8qP+  
Stream size : 11.5 GiB (95%) 2N)siH  
Writing library : x264 core 129 r2245 bc13772 {>x6SVF  
Encoding settings : cabac=1 / ref=5 / deblock=1:-3:-3 / analyse=0x3:0x133 / me=umh / subme=11 / psy=1 / psy_rd=1.05:0.05 / mixed_ref=1 / me_range=64 / chroma_me=1 / trellis=2 / 8x8dct=1 / cqm=0 / deadzone=21,11 / fast_pskip=0 / chroma_qp_offset=-3 / threads=12 / lookahead_threads=2 / sliced_threads=0 / nr=0 / decimate=1 / interlaced=0 / bluray_compat=0 / constrained_intra=0 / bframes=8 / b_pyramid=2 / b_adapt=2 / b_bias=0 / direct=3 / weightb=1 / open_gop=0 / weightp=2 / keyint=250 / keyint_min=24 / scenecut=40 / intra_refresh=0 / rc_lookahead=60 / rc=2pass / mbtree=1 / bitrate=12307 / ratetol=1.0 / qcomp=0.60 / qpmin=0 / qpmax=69 / qpstep=4 / cplxblur=20.0 / qblur=0.5 / vbv_maxrate=40000 / vbv_bufsize=30000 / nal_hrd=none / ip_ratio=1.40 / aq=1:0.60 J(0E'o{ug  
Language : English !z EW)  
Default : Yes wW. V>$q  
Forced : No df85g  
FR bmeq3c  
Audio o#p{0y  
ID : 2 $oPx2sb  
Format : AC-3 +-s$Htx  
Format/Info : Audio Coding 3 #8cpZ]#  
Commercial name : Dolby Digital lKtA.{(  
Codec ID : A_AC3 <%_7%  
Duration : 2 h 13 min 5o v F$qn  
Bit rate mode : Constant 7? 1[sP M  
Bit rate : 640 kb/s pm)kocG  
Channel(s) : 6 channels vS@;D7ep  
Channel layout : L R C LFE Ls Rs <`PW4zSI  
Sampling rate : 48.0 kHz u!]g^r  
Frame rate : 31.250 FPS (1536 SPF) eNQQ`ll@m  
Bit depth : 16 bits _S$ SL%;\  
Compression mode : Lossy l0 Eh?  
Stream size : 611 MiB (5%) BXzn-S  
Language : Chinese \/wbk`2  
Service kind : Complete Main ?QJS6i'k  
Default : Yes `FJ2 ?  
Forced : No Lm!/ iseGv  
x>C_O\  
Text #1 )\`.Ru~,  
ID : 3 )o=ipm[  
Format : UTF-8 KxA ^?,t[  
Codec ID : S_TEXT/UTF8 bXiOf#:''  
Codec ID/Info : UTF-8 Plain Text ?o>JX.Nl&7  
Duration : 2 h 12 min fRt`]o :Om  
Bit rate : 44 b/s Xur{nk~?  
Count of elements : 2065 iNlY\67sW  
Stream size : 42.7 KiB (0%) =%i~HDiy  
Language : English (yr<B_Y'MY  
Default : Yes \dx$G?R  
Forced : Yes f4mQDRlD  
7o99@K,  
Text #2 C6 PlO  
ID : 4 QEC4!$L^  
Format : UTF-8 6r]l8*3 4;  
Codec ID : S_TEXT/UTF8 @5=2+ M  
Codec ID/Info : UTF-8 Plain Text 9%^IMUWA  
Duration : 2 h 12 min (#)-IdXXO<  
Bit rate : 43 b/s q{c/TRp7  
Count of elements : 2073 0#/NZO  
Stream size : 41.9 KiB (0%) *WQl#JAr  
Title : 简体 0etJ, _">  
Language : Chinese c}-WK*v  
Default : No *LZB.84  
Forced : No U+4W9zhw o  
cns~)j~  
Text #3 17C"@1n-  
ID : 5 J ,s9,("  
Format : UTF-8 r8wip\[  
Codec ID : S_TEXT/UTF8 [YTOrN  
Codec ID/Info : UTF-8 Plain Text ^&|KuI+ u  
Duration : 2 h 12 min ,q".d =6  
Bit rate : 43 b/s N E/_  
Count of elements : 2073 4b@ Awtk  
Stream size : 41.9 KiB (0%) ir?Y >  
Title : 繁体 S9;:)  
Language : Chinese e.>> al  
Default : No + lNAog  
Forced : No !RPPwvNk4  
TIIwq H+h.  
[attachment=32542][attachment=32543] 4k]DktY}.  
vNn$dc  
[attachment=32544]

只看该作者 1 发表于: 2018-11-28
厉害了老刀,不带娃娃么???