切换到宽版
  • 868阅读
  • 1回复

一出好戏[内封中字]The.Island.2018.1080p.BluRay.x264-WiKi 12GB [复制链接]

上一主题 下一主题
 

只看楼主 倒序阅读 使用道具 0 发表于: 2018-11-27
[attachment=32541] C69q&S,  
7Nk!1s :  
◎译  名 The Island / 大富翁 / 诳想曲 zfc'=ODX  
◎片  名 一出好戏 uEktQ_u[  
◎年  代 2018 Jbjmv: db  
◎产  地 中国大陆 tZ'|DCT  
◎类  别 剧情 / 喜剧 MXw hxk#E  
◎语  言 汉语普通话 hM;lp1l  
◎上映日期 2018-08-10(中国大陆) |_] Q$q[[%  
◎IMDb评分 6.4/10 from 600 users E;Y;z  
◎IMDb链接 http://www.imdb.com/title/tt8755316 2^y ^q2(r  
◎豆瓣评分 7.2/10 from 426482 users N"" BCh"  
◎豆瓣链接 https://movie.douban.com/subject/26985127/ CS@FYO  
◎BT之家整理 http://www.btbtt.us/ P,xKZ{(  
◎片  长 134分钟 qHuZcht  
◎导  演 黄渤 Bo Huang -db_E#  
◎编  剧 黄渤 Bo Huang / 张冀 Ji Zhang / 郭俊立 Junli Guo / 查慕春 Muchun Zha / 崔斯韦 Siwei Cui / 邢爱娜 Aina Xing / 黄湛中 Zhanzhong Huang *QwY]j%^  
◎主  演 黄渤 Bo Huang J&M o%"[)  
      舒淇 Qi Shu )\eI ;8  
      王宝强 Baoqiang Wang `V`lo,"\  
      张艺兴 Yixing Zhang :[O 8  
      于和伟 Hewei Yu @ o3T  
      王迅 Xun Wang ?)kGA$m#  
      李勤勤 Qinqin Li -*$HddD  
      李又麟 You-Lin Lee {zn!vJX  
      宁浩 Hao Ning 6 G #}Q/  
      管虎 Hu Guan + Af"f' )  
      梁静 Jing Liang z2g3FUTX)b  
      徐峥 Zheng Xu y0#u9t"Z;  
      陈德森 Teddy Chan HkO7R `  
      张磊 Lei Zhang "t (p&;d  
EK;YiJ  
◎简  介   *1v[kWa?  
)2bvQy8K  
  马进欠下债务,与远房表弟小兴在底层社会摸爬滚打,习惯性的买彩票,企图一夜暴富,并迎娶自己的同事姗姗。一日,公司全体员工出海团建,途中,马进收到了彩票中头奖的信息,六千万!就在马进狂喜自己翻身的日子终于到来之际,一场突如其来的滔天巨浪打破了一切。苏醒过来的众人发现身处荒岛 ,丧失了一切与外界的联系…… +3BBQ+x!  
lr`&mZ( j  
Video KVT-P};jy*  
ID : 1 Hkwl>R$  
Format : AVC Y0x%sz 5  
Format/Info : Advanced Video Codec v.pBX<  
Format profile : High@L4.1 Q4+gAS9  
Format settings : CABAC / 5 Ref Frames iPd[l {85Z  
Format settings, CABAC : Yes :c8&N-`  
Format settings, ReFrames : 5 frames E%r k[wI  
Codec ID : V_MPEG4/ISO/AVC ~$)2s7 O  
Duration : 2 h 13 min F P* lQRA  
Bit rate : 12.3 Mb/s r[4tPk  
Width : 1 920 pixels l038%U~U!  
Height : 856 pixels w8MG(Lq1"  
Display aspect ratio : 2.25:1 t5y;CxL  
Frame rate mode : Constant y~q8pH1  
Frame rate : 24.000 FPS <eQj` HL  
Color space : YUV Nv(9N-9r  
Chroma subsampling : 4:2:0 )n2 re?S  
Bit depth : 8 bits IF44F3(V4  
Scan type : Progressive , Wk?I%>  
Bits/(Pixel*Frame) : 0.312 FFu9&8Y  
Stream size : 11.5 GiB (95%) j@SQ~AS  
Writing library : x264 core 129 r2245 bc13772 c(!6^qk]!`  
Encoding settings : cabac=1 / ref=5 / deblock=1:-3:-3 / analyse=0x3:0x133 / me=umh / subme=11 / psy=1 / psy_rd=1.05:0.05 / mixed_ref=1 / me_range=64 / chroma_me=1 / trellis=2 / 8x8dct=1 / cqm=0 / deadzone=21,11 / fast_pskip=0 / chroma_qp_offset=-3 / threads=12 / lookahead_threads=2 / sliced_threads=0 / nr=0 / decimate=1 / interlaced=0 / bluray_compat=0 / constrained_intra=0 / bframes=8 / b_pyramid=2 / b_adapt=2 / b_bias=0 / direct=3 / weightb=1 / open_gop=0 / weightp=2 / keyint=250 / keyint_min=24 / scenecut=40 / intra_refresh=0 / rc_lookahead=60 / rc=2pass / mbtree=1 / bitrate=12307 / ratetol=1.0 / qcomp=0.60 / qpmin=0 / qpmax=69 / qpstep=4 / cplxblur=20.0 / qblur=0.5 / vbv_maxrate=40000 / vbv_bufsize=30000 / nal_hrd=none / ip_ratio=1.40 / aq=1:0.60 kQEy#JQmB  
Language : English :cF[(i/k4  
Default : Yes xT   
Forced : No #vti+A~n,4  
,n3a gkPO>  
Audio "Y~:|?(@-  
ID : 2 [n \2  
Format : AC-3 I@yCTl uV$  
Format/Info : Audio Coding 3 Qa-K$dm%  
Commercial name : Dolby Digital hw= Ft4L  
Codec ID : A_AC3 w8U&ls1b  
Duration : 2 h 13 min VXR>]HUF  
Bit rate mode : Constant ? }kG`q  
Bit rate : 640 kb/s 3E!|<q$ z  
Channel(s) : 6 channels 4nh>'v%pD  
Channel layout : L R C LFE Ls Rs &e#~<Wm82  
Sampling rate : 48.0 kHz y CVI\y\B  
Frame rate : 31.250 FPS (1536 SPF) s'%R  
Bit depth : 16 bits 23RN}LU i  
Compression mode : Lossy nV-mPyfL8  
Stream size : 611 MiB (5%) u~WVGjoQ  
Language : Chinese rA%usaW  
Service kind : Complete Main vgfcCcZ_iZ  
Default : Yes M$/|)U'W  
Forced : No u>k N1kQ8  
r76 J N  
Text #1 $W!!wN=B  
ID : 3 B? '#4J  
Format : UTF-8 6L"%e!be6  
Codec ID : S_TEXT/UTF8 @zU6t|mhz  
Codec ID/Info : UTF-8 Plain Text SqEgn}m$  
Duration : 2 h 12 min +@p% p  
Bit rate : 44 b/s e?JW   
Count of elements : 2065 #xX5,r0  
Stream size : 42.7 KiB (0%) /v- 6WSN  
Language : English U%q7Ai7  
Default : Yes P<X\%_Iat  
Forced : Yes glM$R&/  
18+)`M-5o  
Text #2 W4pL ,( S  
ID : 4 * +"9%& ?  
Format : UTF-8 f !I[>&n  
Codec ID : S_TEXT/UTF8 @+Si?8\  
Codec ID/Info : UTF-8 Plain Text ca7=V/i_a{  
Duration : 2 h 12 min Ye2 {f"F  
Bit rate : 43 b/s F'4w;-ax  
Count of elements : 2073 ew#B [[  
Stream size : 41.9 KiB (0%) K 1 a\b"  
Title : 简体 9x>d[-#y:J  
Language : Chinese = \'}g?  
Default : No IsZHe lg  
Forced : No r:f[mk"-"A  
Z4S!NDMm~  
Text #3 5-aj 2>=7  
ID : 5 ADDSCY=,  
Format : UTF-8 r'^Hg/Jzt  
Codec ID : S_TEXT/UTF8 >7I15U  
Codec ID/Info : UTF-8 Plain Text &7PG.Ff!r  
Duration : 2 h 12 min xJ>fm%{5  
Bit rate : 43 b/s gtk7)Uh  
Count of elements : 2073 D^l%{IG   
Stream size : 41.9 KiB (0%) g!lWu[d  
Title : 繁体 'gC_)rK*  
Language : Chinese F`gi_; c  
Default : No vk77B(u  
Forced : No %?}33yV  
'p> Ra/4  
[attachment=32542][attachment=32543] B@&4i?yJ  
/67 h&j  
[attachment=32544]

只看该作者 1 发表于: 2018-11-28
厉害了老刀,不带娃娃么???