切换到宽版
  • 220阅读
  • 1回复

一出好戏[内封中字]The.Island.2018.1080p.BluRay.x264-WiKi 12GB [复制链接]

上一主题 下一主题
 

只看楼主 倒序阅读 使用道具 0 发表于: 2018-11-27
[attachment=32541] $gVLk.  
2GSgG.%SSM  
◎译  名 The Island / 大富翁 / 诳想曲 ?k{|Lk  
◎片  名 一出好戏 M#OH Y *  
◎年  代 2018 U;\S(s}  
◎产  地 中国大陆 \n#]%X5c  
◎类  别 剧情 / 喜剧 k }D[Hp:m  
◎语  言 汉语普通话 4,2(nYF  
◎上映日期 2018-08-10(中国大陆) |*:tyP%m^  
◎IMDb评分 6.4/10 from 600 users RCI4~q  
◎IMDb链接 http://www.imdb.com/title/tt8755316 E;6~R M:  
◎豆瓣评分 7.2/10 from 426482 users [UMLx  
◎豆瓣链接 https://movie.douban.com/subject/26985127/ s=MT,  
◎BT之家整理 http://www.btbtt.us/ Iz#yQ`  
◎片  长 134分钟 B &?fM ~J  
◎导  演 黄渤 Bo Huang zI:(33 )  
◎编  剧 黄渤 Bo Huang / 张冀 Ji Zhang / 郭俊立 Junli Guo / 查慕春 Muchun Zha / 崔斯韦 Siwei Cui / 邢爱娜 Aina Xing / 黄湛中 Zhanzhong Huang +UzXN$73  
◎主  演 黄渤 Bo Huang h40'@u^W  
      舒淇 Qi Shu OB~C}'^$  
      王宝强 Baoqiang Wang SSE3tcRRl  
      张艺兴 Yixing Zhang !\^jt%e&  
      于和伟 Hewei Yu AH^e]<2-  
      王迅 Xun Wang RlrZxmPV>O  
      李勤勤 Qinqin Li v dU%R\  
      李又麟 You-Lin Lee `mzb(b E  
      宁浩 Hao Ning abBO93f^  
      管虎 Hu Guan Pp+~Cir  
      梁静 Jing Liang  R:~(Z?  
      徐峥 Zheng Xu qe$33f*  
      陈德森 Teddy Chan %zzYleJ!]  
      张磊 Lei Zhang EUy(T1Cl&&  
>GXXjAIu/  
◎简  介   f2yq8/J8.  
>7'+ye6z  
  马进欠下债务,与远房表弟小兴在底层社会摸爬滚打,习惯性的买彩票,企图一夜暴富,并迎娶自己的同事姗姗。一日,公司全体员工出海团建,途中,马进收到了彩票中头奖的信息,六千万!就在马进狂喜自己翻身的日子终于到来之际,一场突如其来的滔天巨浪打破了一切。苏醒过来的众人发现身处荒岛 ,丧失了一切与外界的联系…… sw $2d  
([R")~`(l2  
Video (WRMaI72(  
ID : 1 H_w%'v&  
Format : AVC Hz@h0+h  
Format/Info : Advanced Video Codec XWUP=D~  
Format profile : High@L4.1 KVR~jF%  
Format settings : CABAC / 5 Ref Frames ZyI$M3{J  
Format settings, CABAC : Yes \\:|Odd  
Format settings, ReFrames : 5 frames Zw{MgoJ0Z  
Codec ID : V_MPEG4/ISO/AVC u5Up&QE!>q  
Duration : 2 h 13 min PLA#!$c7q  
Bit rate : 12.3 Mb/s 6e&$l-  
Width : 1 920 pixels A]o4Mf0>I  
Height : 856 pixels * geN [ [  
Display aspect ratio : 2.25:1 UKtSm%\  
Frame rate mode : Constant 9b"MQ[B4#a  
Frame rate : 24.000 FPS iWA|8$u4gm  
Color space : YUV lnh+a7a)  
Chroma subsampling : 4:2:0 ]~0}=,H$N  
Bit depth : 8 bits "Sridh?  
Scan type : Progressive %m&@o~+  
Bits/(Pixel*Frame) : 0.312 CMW,slC_3  
Stream size : 11.5 GiB (95%) hyg8wI  
Writing library : x264 core 129 r2245 bc13772 SA;#aj}rV  
Encoding settings : cabac=1 / ref=5 / deblock=1:-3:-3 / analyse=0x3:0x133 / me=umh / subme=11 / psy=1 / psy_rd=1.05:0.05 / mixed_ref=1 / me_range=64 / chroma_me=1 / trellis=2 / 8x8dct=1 / cqm=0 / deadzone=21,11 / fast_pskip=0 / chroma_qp_offset=-3 / threads=12 / lookahead_threads=2 / sliced_threads=0 / nr=0 / decimate=1 / interlaced=0 / bluray_compat=0 / constrained_intra=0 / bframes=8 / b_pyramid=2 / b_adapt=2 / b_bias=0 / direct=3 / weightb=1 / open_gop=0 / weightp=2 / keyint=250 / keyint_min=24 / scenecut=40 / intra_refresh=0 / rc_lookahead=60 / rc=2pass / mbtree=1 / bitrate=12307 / ratetol=1.0 / qcomp=0.60 / qpmin=0 / qpmax=69 / qpstep=4 / cplxblur=20.0 / qblur=0.5 / vbv_maxrate=40000 / vbv_bufsize=30000 / nal_hrd=none / ip_ratio=1.40 / aq=1:0.60 vLT0ETHg6  
Language : English 2;2}wM[  
Default : Yes xSMt*]=9  
Forced : No #8XL :I  
SaOYu &>  
Audio IkPN?N  
ID : 2 Yg9joNBh  
Format : AC-3 NSQp< m  
Format/Info : Audio Coding 3 5PT5#[  
Commercial name : Dolby Digital 2`G OJ,$  
Codec ID : A_AC3 IZ/ m4~  
Duration : 2 h 13 min O@V%Cu  
Bit rate mode : Constant Dd/wUP  
Bit rate : 640 kb/s ` Ag{)  
Channel(s) : 6 channels Gh.[dF?  
Channel layout : L R C LFE Ls Rs %D g0fL  
Sampling rate : 48.0 kHz `-h8vj5uG  
Frame rate : 31.250 FPS (1536 SPF) phnV7D(E  
Bit depth : 16 bits anMF-x4/*q  
Compression mode : Lossy ,'xYlH3s  
Stream size : 611 MiB (5%) y){ k3lm0  
Language : Chinese Qx;\USv  
Service kind : Complete Main eIRLNxt+v  
Default : Yes z|E EVNFd&  
Forced : No u! "t!2I  
'u4<BQVV[  
Text #1 h$4Hw+Yxs]  
ID : 3  wr[,  
Format : UTF-8 A C>`'Gx  
Codec ID : S_TEXT/UTF8 Og,$ sH}`  
Codec ID/Info : UTF-8 Plain Text ~HOy:1QhE=  
Duration : 2 h 12 min /"eey(X  
Bit rate : 44 b/s ='`/BY(m[  
Count of elements : 2065 $ s9Vrw0Z  
Stream size : 42.7 KiB (0%) yzqVz_Fi*W  
Language : English emCM\|NQg&  
Default : Yes I 'V4D[H5  
Forced : Yes bbrXgQ`s+w  
b )B? F  
Text #2 !o:f$6EA~C  
ID : 4 KXx32 b,~  
Format : UTF-8 <YdE1{fm  
Codec ID : S_TEXT/UTF8 Z'"tB/=W  
Codec ID/Info : UTF-8 Plain Text |Y?H A&  
Duration : 2 h 12 min N@t|7~  
Bit rate : 43 b/s D)L+7N0D~  
Count of elements : 2073 IZpP[hov  
Stream size : 41.9 KiB (0%) E*]bgD7V  
Title : 简体 Yt;MV)  
Language : Chinese G3Z)Z) N  
Default : No <g"{Wv: h  
Forced : No <g$~1fa  
hb}+A=A=+  
Text #3 k$blEa4  
ID : 5 .+$ Q<L  
Format : UTF-8 MN\HDKN  
Codec ID : S_TEXT/UTF8 ~E17L]ete  
Codec ID/Info : UTF-8 Plain Text A^USBv+9`  
Duration : 2 h 12 min " &Y`+0S8  
Bit rate : 43 b/s ZrpU <   
Count of elements : 2073 !|^|,"A)  
Stream size : 41.9 KiB (0%) H?yK~bGQ  
Title : 繁体 CsGx@\jN  
Language : Chinese ~vm%6CABM  
Default : No +r2+X:#~T  
Forced : No +$ 'Zf0U  
oB(?_No7  
[attachment=32542][attachment=32543] DX#Nf""Pw  
(KjoSN( K  
[attachment=32544]

只看该作者 1 发表于: 2018-11-28
厉害了老刀,不带娃娃么???