切换到宽版
  • 100阅读
  • 1回复

一出好戏[内封中字]The.Island.2018.1080p.BluRay.x264-WiKi 12GB [复制链接]

上一主题 下一主题
 

只看楼主 倒序阅读 使用道具 0 发表于: 2018-11-27
[attachment=32541] O6k[1C  
|D`Zi>lv  
◎译  名 The Island / 大富翁 / 诳想曲 8c]\4iau  
◎片  名 一出好戏 - DL/Hk_r  
◎年  代 2018 w7w$z _P  
◎产  地 中国大陆 Gh42qar`  
◎类  别 剧情 / 喜剧 63-`3R?;  
◎语  言 汉语普通话 OO53U=NU  
◎上映日期 2018-08-10(中国大陆) kTs)u\r.  
◎IMDb评分 6.4/10 from 600 users %Cb8vYz~  
◎IMDb链接 http://www.imdb.com/title/tt8755316 ROQk^  
◎豆瓣评分 7.2/10 from 426482 users B3XVhUP  
◎豆瓣链接 https://movie.douban.com/subject/26985127/ dtm_~r7~  
◎BT之家整理 http://www.btbtt.us/ H-7*)D  
◎片  长 134分钟 HT kce,dQ  
◎导  演 黄渤 Bo Huang ]<W1edr  
◎编  剧 黄渤 Bo Huang / 张冀 Ji Zhang / 郭俊立 Junli Guo / 查慕春 Muchun Zha / 崔斯韦 Siwei Cui / 邢爱娜 Aina Xing / 黄湛中 Zhanzhong Huang :vX;>SH$p  
◎主  演 黄渤 Bo Huang j!m~ :D  
      舒淇 Qi Shu "wexG]R=5  
      王宝强 Baoqiang Wang AvP*p{we  
      张艺兴 Yixing Zhang I2K52A+  
      于和伟 Hewei Yu QF[9Zn  
      王迅 Xun Wang E62VuX  
      李勤勤 Qinqin Li jwAO{.}T1r  
      李又麟 You-Lin Lee B:+} ^=  
      宁浩 Hao Ning .yg"!X  
      管虎 Hu Guan sks_>BM  
      梁静 Jing Liang )bw>)&)b`  
      徐峥 Zheng Xu sy/J+==  
      陈德森 Teddy Chan AVNB)K"  
      张磊 Lei Zhang 8q_3*++D  
>Z<ym|(T*  
◎简  介   &WvJg#f  
bis/Nfr]  
  马进欠下债务,与远房表弟小兴在底层社会摸爬滚打,习惯性的买彩票,企图一夜暴富,并迎娶自己的同事姗姗。一日,公司全体员工出海团建,途中,马进收到了彩票中头奖的信息,六千万!就在马进狂喜自己翻身的日子终于到来之际,一场突如其来的滔天巨浪打破了一切。苏醒过来的众人发现身处荒岛 ,丧失了一切与外界的联系…… E3NYUHfZ  
$_)YrqSo~  
Video _2f}WY3S  
ID : 1 glk I9~  
Format : AVC a-i#?hld  
Format/Info : Advanced Video Codec HzH_5kVW  
Format profile : High@L4.1 fp12-Hk ~  
Format settings : CABAC / 5 Ref Frames 0FTiTrTn  
Format settings, CABAC : Yes R&PQ[Xc  
Format settings, ReFrames : 5 frames 0SvPyf%AC  
Codec ID : V_MPEG4/ISO/AVC  |nU:  
Duration : 2 h 13 min _eO+O=j_x  
Bit rate : 12.3 Mb/s PMXnupt  
Width : 1 920 pixels 4_r8ynq{z  
Height : 856 pixels |W:kzTT-T  
Display aspect ratio : 2.25:1 hn!$?Vo.  
Frame rate mode : Constant ;CAB.aB~  
Frame rate : 24.000 FPS mpr["C"l  
Color space : YUV =Ee f  
Chroma subsampling : 4:2:0 )2rI/=R  
Bit depth : 8 bits H@aCo(#  
Scan type : Progressive F<IqKgGzH  
Bits/(Pixel*Frame) : 0.312 <!DOCvd  
Stream size : 11.5 GiB (95%) a[9;Okm #  
Writing library : x264 core 129 r2245 bc13772 ( 7Y :3  
Encoding settings : cabac=1 / ref=5 / deblock=1:-3:-3 / analyse=0x3:0x133 / me=umh / subme=11 / psy=1 / psy_rd=1.05:0.05 / mixed_ref=1 / me_range=64 / chroma_me=1 / trellis=2 / 8x8dct=1 / cqm=0 / deadzone=21,11 / fast_pskip=0 / chroma_qp_offset=-3 / threads=12 / lookahead_threads=2 / sliced_threads=0 / nr=0 / decimate=1 / interlaced=0 / bluray_compat=0 / constrained_intra=0 / bframes=8 / b_pyramid=2 / b_adapt=2 / b_bias=0 / direct=3 / weightb=1 / open_gop=0 / weightp=2 / keyint=250 / keyint_min=24 / scenecut=40 / intra_refresh=0 / rc_lookahead=60 / rc=2pass / mbtree=1 / bitrate=12307 / ratetol=1.0 / qcomp=0.60 / qpmin=0 / qpmax=69 / qpstep=4 / cplxblur=20.0 / qblur=0.5 / vbv_maxrate=40000 / vbv_bufsize=30000 / nal_hrd=none / ip_ratio=1.40 / aq=1:0.60 rD$7;  
Language : English y=  
Default : Yes i1aS2gFi_  
Forced : No QW6k!ms$  
unD8h=Z2  
Audio /hI#6k8o_  
ID : 2 OQ!mL 3f  
Format : AC-3 _}JygOew  
Format/Info : Audio Coding 3 O8dDoP\F2  
Commercial name : Dolby Digital b[RBp0]x  
Codec ID : A_AC3 @X\nY</E#M  
Duration : 2 h 13 min 6{+~B2Ef  
Bit rate mode : Constant k"Sw,"e>+  
Bit rate : 640 kb/s LGod"8~U  
Channel(s) : 6 channels +[~\\X  
Channel layout : L R C LFE Ls Rs 2sittP  
Sampling rate : 48.0 kHz +;; fw |/  
Frame rate : 31.250 FPS (1536 SPF) R 8Iac[N  
Bit depth : 16 bits Pu axS  
Compression mode : Lossy cRU.   
Stream size : 611 MiB (5%)  N?87Bd  
Language : Chinese vBM\W%T|d  
Service kind : Complete Main <w2Nh eM 3  
Default : Yes K h% x  
Forced : No \vm'D'9  
1N#TL"lMS  
Text #1 +m>Kb edl  
ID : 3 OQ[>s(`*{  
Format : UTF-8 V?Nl%M[b  
Codec ID : S_TEXT/UTF8 typ*.j[q  
Codec ID/Info : UTF-8 Plain Text AA05wpu8  
Duration : 2 h 12 min {nHy!{+qqG  
Bit rate : 44 b/s MX9 q )(:  
Count of elements : 2065 J`"1Dl H  
Stream size : 42.7 KiB (0%) .!9]I'9M  
Language : English d,D)>Y'h  
Default : Yes c[",WB<9  
Forced : Yes pl"|NZz 7;  
5~.\rcr%  
Text #2 sDbALAp +  
ID : 4 v3]q2*`G#  
Format : UTF-8 y8<,>  
Codec ID : S_TEXT/UTF8 %8 4<@f&n]  
Codec ID/Info : UTF-8 Plain Text Tmw :w~  
Duration : 2 h 12 min b#XS.e/uf  
Bit rate : 43 b/s YHKm{A ]  
Count of elements : 2073 {[Yv@CpN  
Stream size : 41.9 KiB (0%) 9:=a FP  
Title : 简体 ~*2PmD"+:  
Language : Chinese twO)b"0  
Default : No Box,N5AA  
Forced : No Y%&6qt G  
%F}`;>C3  
Text #3 q_oYI3  
ID : 5 y*7ht {B  
Format : UTF-8 FAQ:0 L$G  
Codec ID : S_TEXT/UTF8 VVe>}  
Codec ID/Info : UTF-8 Plain Text 3'. OghI  
Duration : 2 h 12 min  /?_{DMt  
Bit rate : 43 b/s  j, G/[V  
Count of elements : 2073 h_A}i2/{  
Stream size : 41.9 KiB (0%) z%;\ q$  
Title : 繁体 \8t g7Sdq  
Language : Chinese oW/&X5  
Default : No XhIgzaGVu  
Forced : No pH"LZ7)DI0  
IGB>8$7  
[attachment=32542][attachment=32543] ipbVQ7  
cF/FretoO  
[attachment=32544]

只看该作者 1 发表于: 2018-11-28
厉害了老刀,不带娃娃么???