切换到宽版
  • 514阅读
  • 1回复

一出好戏[内封中字]The.Island.2018.1080p.BluRay.x264-WiKi 12GB [复制链接]

上一主题 下一主题
 

只看楼主 倒序阅读 使用道具 0 发表于: 2018-11-27
[attachment=32541] K/txD20 O|  
j(iuz^I  
◎译  名 The Island / 大富翁 / 诳想曲 4:7mK/Z  
◎片  名 一出好戏 `1Zhq+s  
◎年  代 2018 8TE>IPjm  
◎产  地 中国大陆 WK0 C  
◎类  别 剧情 / 喜剧 p~&BChBl!=  
◎语  言 汉语普通话 Mo D?2J  
◎上映日期 2018-08-10(中国大陆) Z<U>A   
◎IMDb评分 6.4/10 from 600 users .6 3=(o  
◎IMDb链接 http://www.imdb.com/title/tt8755316 "X04mQn15  
◎豆瓣评分 7.2/10 from 426482 users .Pe9_ZH$W  
◎豆瓣链接 https://movie.douban.com/subject/26985127/ |S&5es-yW  
◎BT之家整理 http://www.btbtt.us/ ]N^*tO  
◎片  长 134分钟 }s_hD`'  
◎导  演 黄渤 Bo Huang {hQ6K)s  
◎编  剧 黄渤 Bo Huang / 张冀 Ji Zhang / 郭俊立 Junli Guo / 查慕春 Muchun Zha / 崔斯韦 Siwei Cui / 邢爱娜 Aina Xing / 黄湛中 Zhanzhong Huang wG 1l+^p  
◎主  演 黄渤 Bo Huang -Fxmsi  
      舒淇 Qi Shu 9@K.cdRjQ  
      王宝强 Baoqiang Wang bUZ_UW  
      张艺兴 Yixing Zhang 1D F/6y  
      于和伟 Hewei Yu H6K`\8/SeN  
      王迅 Xun Wang S|em[D[Y^  
      李勤勤 Qinqin Li  rkB'Hf  
      李又麟 You-Lin Lee KL [ek  
      宁浩 Hao Ning C$d>_ r  
      管虎 Hu Guan maNW{"1  
      梁静 Jing Liang 2 rN ,D(  
      徐峥 Zheng Xu h5"Ov,K3[  
      陈德森 Teddy Chan fY,|o3#  
      张磊 Lei Zhang x[(?#  
Pm+tQ  
◎简  介   \( )# e  
hePPxKQ-  
  马进欠下债务,与远房表弟小兴在底层社会摸爬滚打,习惯性的买彩票,企图一夜暴富,并迎娶自己的同事姗姗。一日,公司全体员工出海团建,途中,马进收到了彩票中头奖的信息,六千万!就在马进狂喜自己翻身的日子终于到来之际,一场突如其来的滔天巨浪打破了一切。苏醒过来的众人发现身处荒岛 ,丧失了一切与外界的联系…… jjzA .8?(7  
J~#$J&iKh  
Video a.@qGsIH  
ID : 1 *|% ^0#$c  
Format : AVC ua5?(,E`']  
Format/Info : Advanced Video Codec 47r&8C+&\  
Format profile : High@L4.1 WG7k(Sp ]  
Format settings : CABAC / 5 Ref Frames &QNY,Pj  
Format settings, CABAC : Yes zR;X*q"T$4  
Format settings, ReFrames : 5 frames   d$W  
Codec ID : V_MPEG4/ISO/AVC l@JSK ;  
Duration : 2 h 13 min &fOdlQ?  
Bit rate : 12.3 Mb/s 4)6xU4eBaL  
Width : 1 920 pixels ememce,Np  
Height : 856 pixels jS.g]k  
Display aspect ratio : 2.25:1 A"v{~  
Frame rate mode : Constant %JZZ%xc  
Frame rate : 24.000 FPS /) 4GSC}Gg  
Color space : YUV |X19fgk  
Chroma subsampling : 4:2:0 *sw7niw  
Bit depth : 8 bits _>m-AI4^  
Scan type : Progressive C? 4JXW  
Bits/(Pixel*Frame) : 0.312 V 9wI\0  
Stream size : 11.5 GiB (95%) .w?(NZ2~  
Writing library : x264 core 129 r2245 bc13772 E.`U`L  
Encoding settings : cabac=1 / ref=5 / deblock=1:-3:-3 / analyse=0x3:0x133 / me=umh / subme=11 / psy=1 / psy_rd=1.05:0.05 / mixed_ref=1 / me_range=64 / chroma_me=1 / trellis=2 / 8x8dct=1 / cqm=0 / deadzone=21,11 / fast_pskip=0 / chroma_qp_offset=-3 / threads=12 / lookahead_threads=2 / sliced_threads=0 / nr=0 / decimate=1 / interlaced=0 / bluray_compat=0 / constrained_intra=0 / bframes=8 / b_pyramid=2 / b_adapt=2 / b_bias=0 / direct=3 / weightb=1 / open_gop=0 / weightp=2 / keyint=250 / keyint_min=24 / scenecut=40 / intra_refresh=0 / rc_lookahead=60 / rc=2pass / mbtree=1 / bitrate=12307 / ratetol=1.0 / qcomp=0.60 / qpmin=0 / qpmax=69 / qpstep=4 / cplxblur=20.0 / qblur=0.5 / vbv_maxrate=40000 / vbv_bufsize=30000 / nal_hrd=none / ip_ratio=1.40 / aq=1:0.60 w|[RDaAb  
Language : English '8Ztj  
Default : Yes Lw1EWN6}_&  
Forced : No I6!5Yj]O"  
P>ceeoYQuA  
Audio Q/ms]Du  
ID : 2 qa`- * 4m  
Format : AC-3 Y-mK+1 2  
Format/Info : Audio Coding 3 epHJ@W@#  
Commercial name : Dolby Digital y&m0Lz53Z  
Codec ID : A_AC3 Yap?^&GV  
Duration : 2 h 13 min *l+OlQI0+  
Bit rate mode : Constant $2^`Uca  
Bit rate : 640 kb/s (>4aibA'P  
Channel(s) : 6 channels D]a:@x`+Bz  
Channel layout : L R C LFE Ls Rs ?~"bR%  
Sampling rate : 48.0 kHz WtulTAfN  
Frame rate : 31.250 FPS (1536 SPF) 6qWdd&1  
Bit depth : 16 bits =J-5.0Q\_\  
Compression mode : Lossy 2T@GA 1G  
Stream size : 611 MiB (5%) `;|5  
Language : Chinese IQ< MyB(  
Service kind : Complete Main .nu @ o40  
Default : Yes .d;Iht,[  
Forced : No 9E2j!  
X,aYK;q%z  
Text #1 4/kv3rv  
ID : 3 kE8>dmH23  
Format : UTF-8 W7"{r)7  
Codec ID : S_TEXT/UTF8 *[ #;j$m  
Codec ID/Info : UTF-8 Plain Text \<Sv3xy&O  
Duration : 2 h 12 min j"^ +oxH  
Bit rate : 44 b/s 99$ 5`R;  
Count of elements : 2065 w=]Ks'C ]  
Stream size : 42.7 KiB (0%) D4eTTfQ  
Language : English Oa;X +  
Default : Yes O%g $9-?F0  
Forced : Yes E:zF/$tG  
YjF|XPv+ l  
Text #2 ih,%i4<}6m  
ID : 4 ~R$~&x(b  
Format : UTF-8 9a\nszwa  
Codec ID : S_TEXT/UTF8 <IW#M E  
Codec ID/Info : UTF-8 Plain Text fO'Wj`&a  
Duration : 2 h 12 min Zwcy4>8  
Bit rate : 43 b/s 2!&&|Mh}  
Count of elements : 2073 HEL!GC>#  
Stream size : 41.9 KiB (0%) gBT2)2]  
Title : 简体 ZyOv.,y  
Language : Chinese )jWO P,|  
Default : No /@AEJ][$  
Forced : No }X GEX:1K  
+3s%E{  
Text #3 ReiB $y6  
ID : 5 08X_}97#WF  
Format : UTF-8 Pe C7  
Codec ID : S_TEXT/UTF8 xq6cKtSv  
Codec ID/Info : UTF-8 Plain Text UnVm1ZWZ  
Duration : 2 h 12 min m9U"[Huv1E  
Bit rate : 43 b/s x^Yl*iq  
Count of elements : 2073 Y(cN}44  
Stream size : 41.9 KiB (0%) QL6C,#6  
Title : 繁体 vvUSeG\n#j  
Language : Chinese go+Q~NV   
Default : No cvwhSdZu8  
Forced : No eC5$#,HiC  
tm7u^9]  
[attachment=32542][attachment=32543] Oj<S.fi  
dU\%Cq-G)  
[attachment=32544]

只看该作者 1 发表于: 2018-11-28
厉害了老刀,不带娃娃么???