切换到宽版
  • 515阅读
  • 0回复

恐怖爱情故事之死亡公路.Horror.Love.Story.Wrong.Way.2016.1080p.WEB-DL.x264.AAC-SeeHD [复制链接]

上一主题 下一主题
 

只看楼主 倒序阅读 使用道具 0 发表于: 2016-09-15
(<?6X9F :N  
◎译  名  恐怖爱情故事之死亡公路     r3a$n$Qw  
◎片  名  Horror Love Story Wrong Way U1?*vwfKZ  
◎年  代  2016 lSw9e<jYO  
◎国  家  中国大陆 4_3O? IY  
◎类  别  悬疑/恐怖/犯罪 74*1|S <  
◎语  言  普通话   qx0RCP /s  
◎字  幕  简体中文   v,t&t9}/  
◎IMDb评分  N/A E\N?D  
◎IMDb链接  N/A y74Ph:^ k  
◎文件格式  x264 + AAC bH}6N>Fp  
◎视频尺寸  1920 x 1080 4&r+K`C0  
◎文件大小  3.63 GiB Jd _w:H.  
◎片  长  1h 26mn X#9}|rT 56  
◎导  演  鸿水 Hong Shui ..yuEA  
◎主  演  冯可 Ke Feng ajIgL<x  
                 牟雨晨  Yu-chen Mu B9`^JYT<  
                 高名扬  Ming-yang Gap ^p#f B4z  
                 魏鹏  Peng Wei mG[S"?C  
                 张溯哲   Su-zhe Zhang ~@ZdO+n?  
                 陈圆媛  Yuan-yuan Chen QF/A-[V  
                 郑沛琳  Pei-lin Zheng }>vf(9sF`  
                 孙成程 Cheng-cheng Sun '| Enc"U  
                 李感  Gan Li U~z`u&/  
   4`@]jm  
     " @!z+x[8  
◎简   介 iTgGf  
   P<b.;Oz__-  
   '$u3i #. \  
        单雨(牟雨晨 饰)劈腿高大帅气的新欢乐侃(张尧 饰),闺蜜阻止未果;当单雨独自来到乐侃在山中的林中小屋时,却看到他正和一陌生女子翻云覆雨;单雨大怒,雨夜独自离开,不料各种匪夷所思的事件频发,乐侃和陌生女惨遭不幸,送单雨的黑车司机再次出现,把单雨带到荒郊野地后伸出魔爪;这一切都被一个人看在眼里…… *_d+cG  
)e.Y"5My  
        而当单雨走投无路时,遇到计然(魏鹏 饰)和他的女朋友井水(陈圆媛 饰),结果他们都成了另一个人的追击目标。于是,在山间、在公路上,一场生死博弈和人性较量就此展开…… Zd@'s.,J  
Q!/<=95E  
General I}/o`oc  
Format                         : MPEG-4 NVx`'Il8 "  
Format profile                 : Base Media _+0l+a*D  
Codec ID                       : isom /0QGU4=  
File size                      : 3.63 GiB (g,lDU[=  
Duration                       : 1h 26mn bF %#KSVw  
Overall bit rate mode          : Variable <apsG7(7  
Overall bit rate               : 6 031 Kbps U#G[#sd> K  
Encoded date                   : UTC 2016-08-17 05:55:26 <ml Qn?u  
Tagged date                    : UTC 2016-08-17 05:55:26 rP.qCl+J  
Copyright                      : PPTV-2.4.0.(20,20)[1] jI@0jxF  
.58>KBj(  
Video }h< \qvCcU  
ID                             : 1 wVk2Fr(  
Format                         : AVC ,c"_X8Fkx$  
Format/Info                    : Advanced Video Codec 9Ue3 %?~c  
Format profile                 : High@L4 3F 2> &p|7  
Format settings, CABAC         : Yes ]d?`3{h9LD  
Format settings, ReFrames      : 4 frames XNwY\y  
Codec ID                       : avc1 kRNr`yfN  
Codec ID/Info                  : Advanced Video Coding L>$yslH; b  
Duration                       : 1h 26mn CYrVP%xRA  
Bit rate                       : 6 000 Kbps L*bUjR,C  
Maximum bit rate               : 14.8 Mbps AbUPJF"F  
Width                          : 1 920 pixels (V @g?|LZ  
Height                         : 1 080 pixels ju8tNL,J  
Display aspect ratio           : 16:9 ~PaD _W#xP  
Frame rate mode                : Constant )c5 M;/s  
Frame rate                     : 25.000 fps =Z_\8qc  
Color space                    : YUV  =IV_yor  
Chroma subsampling             : 4:2:0 `g6XVa*%#  
Bit depth                      : 8 bits  'vj45b  
Scan type                      : Progressive yXS ~PG  
Bits/(Pixel*Frame)             : 0.116 #T Cz$_=t  
Stream size                    : 3.52 GiB (97%) I<|)uK7  
Title                          : VideoByEZMediaEditor vn3<LQ]  
Writing library                : x264()-core 129 - H.264/MPEG-4 7{f&L '  
4][m!dsU  
aq~hl7MTj  
Audio <`5>;Xn=  
ID                             : 2 n[n0iz1-  
Format                         : AAC _1hc^j  
Format/Info                    : Advanced Audio Codec *c7kB}/  
Format profile                 : LC hLGUkG?6G  
Codec ID                       : 40 2H;&E1:  
Duration                       : 1h 26mn lxj_ (Uo  
Bit rate mode                  : Variable 2_;.iH 6  
Bit rate                       : 192 Kbps ^M6v;8EU  
Maximum bit rate               : 198 Kbps LP_d}ve  
Channel(s)                     : 2 channels %75|+((fC  
Channel positions              : Front: L R >T;"bc b  
Sampling rate                  : 44.1 KHz -liVYI2s  
Compression mode               : Lossy YNc%[S[u^1  
Stream size                    : 117 MiB (3%) |TF,Aj   
Title                          : Audio1- vi@a87w>  
Encoded date                   : UTC 2016-08-17 05:55:36 ,,mkB6;  
Tagged date                    : UTC 2016-08-17 05:55:37 -'BJhi\Y]~  
)52:@=h*l  
78#je=MDg  
Sd' uXX@  
恐怖爱情故事之死亡公路.Horror.Love.Story.Wrong.Way.2016.1080p.WEB-DL.x264.AAC-Se.torrent (21 K) 下载次数:75