切换到宽版
  • 801阅读
  • 0回复

恐怖爱情故事之死亡公路.Horror.Love.Story.Wrong.Way.2016.1080p.WEB-DL.x264.AAC-SeeHD [复制链接]

上一主题 下一主题
 

只看楼主 倒序阅读 使用道具 0 发表于: 2016-09-15
2U#OBvNU  
◎译  名  恐怖爱情故事之死亡公路      r5F#q  
◎片  名  Horror Love Story Wrong Way az19-QIcg  
◎年  代  2016 [. 6uw=;o  
◎国  家  中国大陆 )DoY*'Cl  
◎类  别  悬疑/恐怖/犯罪 AoTL )',  
◎语  言  普通话   Q OdvzVy<  
◎字  幕  简体中文   iaPY>EP1  
◎IMDb评分  N/A VpJ2Qpd=  
◎IMDb链接  N/A R=PjLH&)  
◎文件格式  x264 + AAC a:@Eg;aN*O  
◎视频尺寸  1920 x 1080 b/<n:*$   
◎文件大小  3.63 GiB )8P<ZtEU  
◎片  长  1h 26mn ~sk 4v:-  
◎导  演  鸿水 Hong Shui (8{h I  
◎主  演  冯可 Ke Feng o3%+FWrVTS  
                 牟雨晨  Yu-chen Mu o2Z# 5-  
                 高名扬  Ming-yang Gap "rkP@ja9n  
                 魏鹏  Peng Wei "y5c)l(Rg  
                 张溯哲   Su-zhe Zhang uv._N6mj  
                 陈圆媛  Yuan-yuan Chen D(L%fK`+  
                 郑沛琳  Pei-lin Zheng ^bS&[+9E  
                 孙成程 Cheng-cheng Sun n?:s /6tP  
                 李感  Gan Li ? NVN&zD]  
   l"O=xt`m{  
     'N'EC`R  
◎简   介 MheP@ [w|@  
   Jf4D">h  
   ar>S_VW*  
        单雨(牟雨晨 饰)劈腿高大帅气的新欢乐侃(张尧 饰),闺蜜阻止未果;当单雨独自来到乐侃在山中的林中小屋时,却看到他正和一陌生女子翻云覆雨;单雨大怒,雨夜独自离开,不料各种匪夷所思的事件频发,乐侃和陌生女惨遭不幸,送单雨的黑车司机再次出现,把单雨带到荒郊野地后伸出魔爪;这一切都被一个人看在眼里…… 8'/vW~f  
+d Ig&}Tr  
        而当单雨走投无路时,遇到计然(魏鹏 饰)和他的女朋友井水(陈圆媛 饰),结果他们都成了另一个人的追击目标。于是,在山间、在公路上,一场生死博弈和人性较量就此展开…… r@k&1*&  
qI KVu_  
General P62g7>B5^  
Format                         : MPEG-4 J`V7FlM  
Format profile                 : Base Media i!sKL%z}  
Codec ID                       : isom L?<V KT  
File size                      : 3.63 GiB o3j4XrK  
Duration                       : 1h 26mn bi[vs|  
Overall bit rate mode          : Variable >`\~=ivrD  
Overall bit rate               : 6 031 Kbps XeJx/'9o{  
Encoded date                   : UTC 2016-08-17 05:55:26 >*k3D&  
Tagged date                    : UTC 2016-08-17 05:55:26 JKXs/r;:  
Copyright                      : PPTV-2.4.0.(20,20)[1] $)z(4Ev  
|*jnJWH4:  
Video %A:<rO85o  
ID                             : 1 +-K-CXt  
Format                         : AVC w}YO+  
Format/Info                    : Advanced Video Codec [y64%|m  
Format profile                 : High@L4 3Sf <oYF  
Format settings, CABAC         : Yes 1Ep!U#Del  
Format settings, ReFrames      : 4 frames ~ex1,J*}t  
Codec ID                       : avc1 c$bb0J%  
Codec ID/Info                  : Advanced Video Coding -7$7TD`'7  
Duration                       : 1h 26mn i|y8n7c  
Bit rate                       : 6 000 Kbps j^mAJ5  
Maximum bit rate               : 14.8 Mbps $yLsuqB}  
Width                          : 1 920 pixels pma'C\b>  
Height                         : 1 080 pixels gb( a`  
Display aspect ratio           : 16:9 Rs8^ 27  
Frame rate mode                : Constant M')f,5i&$  
Frame rate                     : 25.000 fps -Wb/3 X  
Color space                    : YUV nV@k}IJg:?  
Chroma subsampling             : 4:2:0 \l"1Io=  
Bit depth                      : 8 bits )zf &`T  
Scan type                      : Progressive n2Q~fx<6%  
Bits/(Pixel*Frame)             : 0.116 :l'61$=  
Stream size                    : 3.52 GiB (97%) iQ~;to;Y  
Title                          : VideoByEZMediaEditor z~# .Ey  
Writing library                : x264()-core 129 - H.264/MPEG-4 ;r B2Q H]  
PsjSL8]  
/YKg.DA|  
Audio B>AmH%f/  
ID                             : 2 [ ]}E- V  
Format                         : AAC I'Ui` :A  
Format/Info                    : Advanced Audio Codec 96fbMP+7R  
Format profile                 : LC {U= Mfo?AH  
Codec ID                       : 40 ^7G@CBic"  
Duration                       : 1h 26mn AvfSR p  
Bit rate mode                  : Variable \vjIw{   
Bit rate                       : 192 Kbps =aX;-  
Maximum bit rate               : 198 Kbps Bv k 8b  
Channel(s)                     : 2 channels H$bu*o-Z  
Channel positions              : Front: L R }1kT0*'L  
Sampling rate                  : 44.1 KHz qb'4x){  
Compression mode               : Lossy j *B,b4  
Stream size                    : 117 MiB (3%) 4! ]28[2B6  
Title                          : Audio1- Ro\ U T64  
Encoded date                   : UTC 2016-08-17 05:55:36 O10,h(O  
Tagged date                    : UTC 2016-08-17 05:55:37 8vpB(VxV+  
+ :4 F@R  
%Bn"/0,  
T?B753I  
恐怖爱情故事之死亡公路.Horror.Love.Story.Wrong.Way.2016.1080p.WEB-DL.x264.AAC-Se.torrent (21 K) 下载次数:100