切换到宽版
  • 1049阅读
  • 0回复

恐怖爱情故事之死亡公路.Horror.Love.Story.Wrong.Way.2016.1080p.WEB-DL.x264.AAC-SeeHD [复制链接]

上一主题 下一主题
 

只看楼主 倒序阅读 使用道具 0 发表于: 2016-09-15
bGc|SF<V  
◎译  名  恐怖爱情故事之死亡公路     >[4|6k|\x  
◎片  名  Horror Love Story Wrong Way 4^_Au^8R(  
◎年  代  2016 WV"QY/e3  
◎国  家  中国大陆 W r7e_   
◎类  别  悬疑/恐怖/犯罪 |S`yXsg  
◎语  言  普通话   9k[},MM  
◎字  幕  简体中文   ./y[<e  
◎IMDb评分  N/A 0P3|1=  
◎IMDb链接  N/A R${4Q1  
◎文件格式  x264 + AAC [k 7N+W8  
◎视频尺寸  1920 x 1080 8;f<qu|w  
◎文件大小  3.63 GiB 5>[sCl-  
◎片  长  1h 26mn ieRBD6_  
◎导  演  鸿水 Hong Shui f<4q]HCa  
◎主  演  冯可 Ke Feng Yk@s"qm3  
                 牟雨晨  Yu-chen Mu ?WtG|w  
                 高名扬  Ming-yang Gap ^ O Xr: P  
                 魏鹏  Peng Wei :F w"u4WI  
                 张溯哲   Su-zhe Zhang 1S]gD&V  
                 陈圆媛  Yuan-yuan Chen m<,G:?RM  
                 郑沛琳  Pei-lin Zheng  )P9{47  
                 孙成程 Cheng-cheng Sun &G|jzXE  
                 李感  Gan Li mc=! X  
   IQi[g~E.5  
     ;n7|.O]*  
◎简   介 B 6'%J  
   &J/4J  
   _ kSPUP5  
        单雨(牟雨晨 饰)劈腿高大帅气的新欢乐侃(张尧 饰),闺蜜阻止未果;当单雨独自来到乐侃在山中的林中小屋时,却看到他正和一陌生女子翻云覆雨;单雨大怒,雨夜独自离开,不料各种匪夷所思的事件频发,乐侃和陌生女惨遭不幸,送单雨的黑车司机再次出现,把单雨带到荒郊野地后伸出魔爪;这一切都被一个人看在眼里…… nL(%&z \4  
e]*=sp!T  
        而当单雨走投无路时,遇到计然(魏鹏 饰)和他的女朋友井水(陈圆媛 饰),结果他们都成了另一个人的追击目标。于是,在山间、在公路上,一场生死博弈和人性较量就此展开…… Ril21o! j  
/$Tl#   
General JfP\7  
Format                         : MPEG-4 $,QpSK`9i  
Format profile                 : Base Media Y0u'@l_[F  
Codec ID                       : isom ]D) 'I`  
File size                      : 3.63 GiB W]yClx \  
Duration                       : 1h 26mn 97]a-)SA  
Overall bit rate mode          : Variable #?$'nya*u  
Overall bit rate               : 6 031 Kbps APtselC  
Encoded date                   : UTC 2016-08-17 05:55:26 3gI[]4lRH  
Tagged date                    : UTC 2016-08-17 05:55:26 Zu0;/_rN  
Copyright                      : PPTV-2.4.0.(20,20)[1] >\?z37 :T  
@( n^S?(  
Video :<t{ =0G  
ID                             : 1 JwI`"$ > w  
Format                         : AVC NO+ 55n  
Format/Info                    : Advanced Video Codec .W@(nQ-<  
Format profile                 : High@L4 gaw4NZd)0  
Format settings, CABAC         : Yes M)`HK .  
Format settings, ReFrames      : 4 frames 1(%>`=R8  
Codec ID                       : avc1 \=w' HZH#+  
Codec ID/Info                  : Advanced Video Coding U50s!Z t45  
Duration                       : 1h 26mn 4{*tn"y  
Bit rate                       : 6 000 Kbps tIyuzc~U  
Maximum bit rate               : 14.8 Mbps .B 85!lCF  
Width                          : 1 920 pixels e'~-`Z9-)  
Height                         : 1 080 pixels M q^|M~  
Display aspect ratio           : 16:9 B=Zl&1  
Frame rate mode                : Constant <DeKs?v  
Frame rate                     : 25.000 fps 3C rQBIj1  
Color space                    : YUV ggm2%|?X  
Chroma subsampling             : 4:2:0 *t#s$Ga  
Bit depth                      : 8 bits :H!(?(Pie  
Scan type                      : Progressive i<4>\nc  
Bits/(Pixel*Frame)             : 0.116 AezvBY0'`z  
Stream size                    : 3.52 GiB (97%) kgbobolA  
Title                          : VideoByEZMediaEditor Z0 [)u_<  
Writing library                : x264()-core 129 - H.264/MPEG-4 w~kHQ%A  
<i_> y~v`  
?w+ QbT  
Audio ]ZzoJ7lr  
ID                             : 2 Q'Jv} 'eK_  
Format                         : AAC ?xtt7*'D  
Format/Info                    : Advanced Audio Codec {fog<1c  
Format profile                 : LC t6'61*)|0  
Codec ID                       : 40 )t|^Nuj8  
Duration                       : 1h 26mn ss? ]  
Bit rate mode                  : Variable BRQ"A,  
Bit rate                       : 192 Kbps #/ OUGeJ  
Maximum bit rate               : 198 Kbps Ya}T2VX  
Channel(s)                     : 2 channels I"Q#IvNw  
Channel positions              : Front: L R <=q*N;=T,  
Sampling rate                  : 44.1 KHz Q` H# fS~  
Compression mode               : Lossy DdBxqkh  
Stream size                    : 117 MiB (3%) CN$I:o04C  
Title                          : Audio1- {IJ-4>  
Encoded date                   : UTC 2016-08-17 05:55:36 }<vvxi  
Tagged date                    : UTC 2016-08-17 05:55:37 Xo2^N2I  
82lr4  
TbOJp  
CE)*qFs  
恐怖爱情故事之死亡公路.Horror.Love.Story.Wrong.Way.2016.1080p.WEB-DL.x264.AAC-Se.torrent (21 K) 下载次数:119