切换到宽版
  • 999阅读
  • 0回复

恐怖爱情故事之死亡公路.Horror.Love.Story.Wrong.Way.2016.1080p.WEB-DL.x264.AAC-SeeHD [复制链接]

上一主题 下一主题
 

只看楼主 倒序阅读 使用道具 0 发表于: 2016-09-15
.jMm-vox}  
◎译  名  恐怖爱情故事之死亡公路     YVVX7hB  
◎片  名  Horror Love Story Wrong Way I^Ichn  
◎年  代  2016 x ( w <U1  
◎国  家  中国大陆 etf ft8  
◎类  别  悬疑/恐怖/犯罪 6A M,1  
◎语  言  普通话   ?97MW a   
◎字  幕  简体中文   $m/-E#I #Z  
◎IMDb评分  N/A Qpd-uC_Ni  
◎IMDb链接  N/A $}oQ=+c5  
◎文件格式  x264 + AAC T~$ePVk>L  
◎视频尺寸  1920 x 1080 Td[w<m+p<P  
◎文件大小  3.63 GiB $o\p["DP  
◎片  长  1h 26mn 567ot|cc  
◎导  演  鸿水 Hong Shui L:YsAv  
◎主  演  冯可 Ke Feng y:4Sw#M%(  
                 牟雨晨  Yu-chen Mu fLI@;*hL0  
                 高名扬  Ming-yang Gap C koPno  
                 魏鹏  Peng Wei f<SSg* A;  
                 张溯哲   Su-zhe Zhang dQM# -t4*  
                 陈圆媛  Yuan-yuan Chen 'G(N,vu[@  
                 郑沛琳  Pei-lin Zheng qIjC -#a=m  
                 孙成程 Cheng-cheng Sun R $'}Z  
                 李感  Gan Li  %W"\  
   u- UUF  
     6?*iIA$b  
◎简   介 n!Y.?mU6  
   C*Ws6s>+z  
   IX7d[nm39  
        单雨(牟雨晨 饰)劈腿高大帅气的新欢乐侃(张尧 饰),闺蜜阻止未果;当单雨独自来到乐侃在山中的林中小屋时,却看到他正和一陌生女子翻云覆雨;单雨大怒,雨夜独自离开,不料各种匪夷所思的事件频发,乐侃和陌生女惨遭不幸,送单雨的黑车司机再次出现,把单雨带到荒郊野地后伸出魔爪;这一切都被一个人看在眼里…… n_Um)GI>  
344,mnAd  
        而当单雨走投无路时,遇到计然(魏鹏 饰)和他的女朋友井水(陈圆媛 饰),结果他们都成了另一个人的追击目标。于是,在山间、在公路上,一场生死博弈和人性较量就此展开…… @mP@~  
0O-p(L=  
General 'IfM~9'D  
Format                         : MPEG-4  (i*1M  
Format profile                 : Base Media w**.8]A"N  
Codec ID                       : isom h>mQ; L  
File size                      : 3.63 GiB 7]e]Y>wZap  
Duration                       : 1h 26mn $#R.+B  
Overall bit rate mode          : Variable tB(Q-c  
Overall bit rate               : 6 031 Kbps tHoFnPd\|  
Encoded date                   : UTC 2016-08-17 05:55:26 m.K"IXD  
Tagged date                    : UTC 2016-08-17 05:55:26 v@>hjie  
Copyright                      : PPTV-2.4.0.(20,20)[1] );))kYr  
d,<ctd  
Video KD,b.s  
ID                             : 1 dUO~dV1  
Format                         : AVC ,6t0w|@-k  
Format/Info                    : Advanced Video Codec 8.k"kXU@n  
Format profile                 : High@L4 8w2+t>?  
Format settings, CABAC         : Yes BOwkC;Q[  
Format settings, ReFrames      : 4 frames u85y;AE,(  
Codec ID                       : avc1 r}hj,Sq'  
Codec ID/Info                  : Advanced Video Coding $ya#-pi`;  
Duration                       : 1h 26mn ^[zF_df  
Bit rate                       : 6 000 Kbps K?I@'B'  
Maximum bit rate               : 14.8 Mbps _"WQi}Mm  
Width                          : 1 920 pixels J|xqfY@+  
Height                         : 1 080 pixels Ch;EnN<  
Display aspect ratio           : 16:9 L7D'wf  
Frame rate mode                : Constant Y!POUMA }A  
Frame rate                     : 25.000 fps PI?-gc?[  
Color space                    : YUV {xM%3  
Chroma subsampling             : 4:2:0 :hMuxHr  
Bit depth                      : 8 bits :~T:&;q0  
Scan type                      : Progressive ;7m>40W  
Bits/(Pixel*Frame)             : 0.116 $wN'mY  
Stream size                    : 3.52 GiB (97%) /o|@]SAe.  
Title                          : VideoByEZMediaEditor W{-N,?z  
Writing library                : x264()-core 129 - H.264/MPEG-4 ny=CtU!z  
.f jM9G#  
h+Q ==  
Audio MH !CzV&  
ID                             : 2 iicrRGp3  
Format                         : AAC B1LnuB%  
Format/Info                    : Advanced Audio Codec r`S]`&#}(  
Format profile                 : LC ~(%G; fZ?x  
Codec ID                       : 40 mDM]RAub)  
Duration                       : 1h 26mn e9%6+ 9Y  
Bit rate mode                  : Variable tS!~> X  
Bit rate                       : 192 Kbps ,/d-o;W  
Maximum bit rate               : 198 Kbps - TD6s:'  
Channel(s)                     : 2 channels @#T?SNIL5  
Channel positions              : Front: L R sL\|y38'  
Sampling rate                  : 44.1 KHz Tl=vgs1  
Compression mode               : Lossy _puQX@i  
Stream size                    : 117 MiB (3%) :_e.ch:4  
Title                          : Audio1- 7PisX!c,h  
Encoded date                   : UTC 2016-08-17 05:55:36 (yXVp2k  
Tagged date                    : UTC 2016-08-17 05:55:37 @8CD@SDv  
@x=CMF15  
MiSFT5$v6  
9s7B1Pf  
恐怖爱情故事之死亡公路.Horror.Love.Story.Wrong.Way.2016.1080p.WEB-DL.x264.AAC-Se.torrent (21 K) 下载次数:113