切换到宽版
  • 953阅读
  • 0回复

恐怖爱情故事之死亡公路.Horror.Love.Story.Wrong.Way.2016.1080p.WEB-DL.x264.AAC-SeeHD [复制链接]

上一主题 下一主题
 

只看楼主 倒序阅读 使用道具 0 发表于: 2016-09-15
`s.y!(`q  
◎译  名  恐怖爱情故事之死亡公路      ;BpuNB  
◎片  名  Horror Love Story Wrong Way _I75[W!  
◎年  代  2016 i)eub`uMy  
◎国  家  中国大陆 j'v2m6/  
◎类  别  悬疑/恐怖/犯罪 (LGx;9S?  
◎语  言  普通话   `L0}^ |`9  
◎字  幕  简体中文   #N7@p }P  
◎IMDb评分  N/A =)'AXtvE  
◎IMDb链接  N/A P1)9OE  
◎文件格式  x264 + AAC ^e)KEkh  
◎视频尺寸  1920 x 1080 vJK0>":G  
◎文件大小  3.63 GiB E{1O<qO<  
◎片  长  1h 26mn f%d7?<rw  
◎导  演  鸿水 Hong Shui cgml^k\k^  
◎主  演  冯可 Ke Feng : 3*(kb1)&  
                 牟雨晨  Yu-chen Mu 0~)cAKus  
                 高名扬  Ming-yang Gap UoBmS 5  
                 魏鹏  Peng Wei P**h\+M>{  
                 张溯哲   Su-zhe Zhang -NHc~=m  
                 陈圆媛  Yuan-yuan Chen ^vfp;  
                 郑沛琳  Pei-lin Zheng 9qIjs$g  
                 孙成程 Cheng-cheng Sun eG=Hyc  
                 李感  Gan Li #] cO] I  
   Xu2:yf4No*  
     aF]4%E  
◎简   介 dXg.[|S*  
   s<h]2W  
   !.Eua3:V*  
        单雨(牟雨晨 饰)劈腿高大帅气的新欢乐侃(张尧 饰),闺蜜阻止未果;当单雨独自来到乐侃在山中的林中小屋时,却看到他正和一陌生女子翻云覆雨;单雨大怒,雨夜独自离开,不料各种匪夷所思的事件频发,乐侃和陌生女惨遭不幸,送单雨的黑车司机再次出现,把单雨带到荒郊野地后伸出魔爪;这一切都被一个人看在眼里…… .SAOE'Foo  
Mj2`p#5wKh  
        而当单雨走投无路时,遇到计然(魏鹏 饰)和他的女朋友井水(陈圆媛 饰),结果他们都成了另一个人的追击目标。于是,在山间、在公路上,一场生死博弈和人性较量就此展开…… Gx,<|v  
4"at~K` Q  
General 4,4S5u[|  
Format                         : MPEG-4 $3psSQQo  
Format profile                 : Base Media 'I^3r~_  
Codec ID                       : isom waT'|9{  
File size                      : 3.63 GiB KW`^uoY$  
Duration                       : 1h 26mn (#KSwWo{ed  
Overall bit rate mode          : Variable +&bJhX  
Overall bit rate               : 6 031 Kbps v'=$K[_  
Encoded date                   : UTC 2016-08-17 05:55:26 ,yf2kU  
Tagged date                    : UTC 2016-08-17 05:55:26 qca,a3k  
Copyright                      : PPTV-2.4.0.(20,20)[1] "zE>+zRl  
BFnp[93N  
Video K]SsEsd  
ID                             : 1 WQiIS0BJ *  
Format                         : AVC {Qba`lOkq  
Format/Info                    : Advanced Video Codec #IvHxSo&  
Format profile                 : High@L4 u(W>HVEG  
Format settings, CABAC         : Yes awB+B8^s  
Format settings, ReFrames      : 4 frames lJvfgP-j  
Codec ID                       : avc1 q:cCk#ra  
Codec ID/Info                  : Advanced Video Coding xp*Wf#BF  
Duration                       : 1h 26mn 7S/ \;DF  
Bit rate                       : 6 000 Kbps +v+Dkyf:V  
Maximum bit rate               : 14.8 Mbps hs Ak7KC  
Width                          : 1 920 pixels f = 'AI  
Height                         : 1 080 pixels 6o.Dgt/f  
Display aspect ratio           : 16:9 $Sgq7  
Frame rate mode                : Constant &q>C  
Frame rate                     : 25.000 fps 7H g;SK6t0  
Color space                    : YUV zeshM8=  
Chroma subsampling             : 4:2:0 nx Jx 8d"  
Bit depth                      : 8 bits 2)Q%lEm`SP  
Scan type                      : Progressive R8>1 7w.  
Bits/(Pixel*Frame)             : 0.116 KK?R|1VK9  
Stream size                    : 3.52 GiB (97%) V]Kk =  
Title                          : VideoByEZMediaEditor I6i qC"BK  
Writing library                : x264()-core 129 - H.264/MPEG-4 d@? zCFD  
zmg :Z p=  
Et'&}NjI  
Audio 4D[(X=FSU  
ID                             : 2 HggINMG  
Format                         : AAC TU1W!=Z  
Format/Info                    : Advanced Audio Codec =%S*h)}@  
Format profile                 : LC ll ^I ;o0  
Codec ID                       : 40 3F9dr@I.7  
Duration                       : 1h 26mn $\aJ.N6rb  
Bit rate mode                  : Variable yPf,GB"  
Bit rate                       : 192 Kbps Xc9NM1bp=  
Maximum bit rate               : 198 Kbps geNvp0  
Channel(s)                     : 2 channels g6h=Q3@  
Channel positions              : Front: L R fM3Z oH/  
Sampling rate                  : 44.1 KHz  n[7=  
Compression mode               : Lossy +;a\ gF^  
Stream size                    : 117 MiB (3%) \98|.EG  
Title                          : Audio1- hdpA& OteR  
Encoded date                   : UTC 2016-08-17 05:55:36 op,mP0b  
Tagged date                    : UTC 2016-08-17 05:55:37 A< -3u  
p@3 <{kLm  
AQs_(LR  
Gdr 7d  
恐怖爱情故事之死亡公路.Horror.Love.Story.Wrong.Way.2016.1080p.WEB-DL.x264.AAC-Se.torrent (21 K) 下载次数:105