切换到宽版
  • 756阅读
  • 0回复

恐怖爱情故事之死亡公路.Horror.Love.Story.Wrong.Way.2016.1080p.WEB-DL.x264.AAC-SeeHD [复制链接]

上一主题 下一主题
 

只看楼主 倒序阅读 使用道具 0 发表于: 2016-09-15
1T3YFt@&I  
◎译  名  恐怖爱情故事之死亡公路     AkqGk5e ^  
◎片  名  Horror Love Story Wrong Way AqrK==0N  
◎年  代  2016 JnH5v(/  
◎国  家  中国大陆 Xb*>7U /'T  
◎类  别  悬疑/恐怖/犯罪 dnX^?  
◎语  言  普通话   #+3I$ k  
◎字  幕  简体中文   X`daaG_l  
◎IMDb评分  N/A 7.v{=UP  
◎IMDb链接  N/A `VOLw*Ci  
◎文件格式  x264 + AAC VzFzVeJ  
◎视频尺寸  1920 x 1080 m9m~2   
◎文件大小  3.63 GiB rg+3pX\{  
◎片  长  1h 26mn z:W1(/W~  
◎导  演  鸿水 Hong Shui ngaQa-8w  
◎主  演  冯可 Ke Feng >z8y L+  
                 牟雨晨  Yu-chen Mu %6<2~  
                 高名扬  Ming-yang Gap 0EP8MRSR  
                 魏鹏  Peng Wei kC6s_k  
                 张溯哲   Su-zhe Zhang cE]#23  
                 陈圆媛  Yuan-yuan Chen Z{.L_ ]$ I  
                 郑沛琳  Pei-lin Zheng QWxl$%`89<  
                 孙成程 Cheng-cheng Sun D D Crvl  
                 李感  Gan Li /T2f~1R  
   y0XI?Wr  
     OKq={l  
◎简   介  7QkAr  
   X{riI^(  
   ?`O Dt]s  
        单雨(牟雨晨 饰)劈腿高大帅气的新欢乐侃(张尧 饰),闺蜜阻止未果;当单雨独自来到乐侃在山中的林中小屋时,却看到他正和一陌生女子翻云覆雨;单雨大怒,雨夜独自离开,不料各种匪夷所思的事件频发,乐侃和陌生女惨遭不幸,送单雨的黑车司机再次出现,把单雨带到荒郊野地后伸出魔爪;这一切都被一个人看在眼里…… pBu~($%d  
yo0?QRT  
        而当单雨走投无路时,遇到计然(魏鹏 饰)和他的女朋友井水(陈圆媛 饰),结果他们都成了另一个人的追击目标。于是,在山间、在公路上,一场生死博弈和人性较量就此展开…… !P26$US%P  
#8d$%F))  
General wbId}!  
Format                         : MPEG-4 ^5~[G%G4  
Format profile                 : Base Media ,Pd2ZfZ  
Codec ID                       : isom "]`QQT-{0  
File size                      : 3.63 GiB {#y HL  
Duration                       : 1h 26mn E|.D  
Overall bit rate mode          : Variable i=<(fq  
Overall bit rate               : 6 031 Kbps ~qT+sc!t  
Encoded date                   : UTC 2016-08-17 05:55:26 ~1h-LbFI2  
Tagged date                    : UTC 2016-08-17 05:55:26 g%<7Px[W  
Copyright                      : PPTV-2.4.0.(20,20)[1] ~ +$l9~`{  
.9g\WH#qD|  
Video } q ? iJ?P  
ID                             : 1 #z t+U^#)  
Format                         : AVC m%E7V{t  
Format/Info                    : Advanced Video Codec 4"j5@bppJ  
Format profile                 : High@L4 W:>RstbnMG  
Format settings, CABAC         : Yes MJX m7<(  
Format settings, ReFrames      : 4 frames O'-lBf+<  
Codec ID                       : avc1 <STjB,_s  
Codec ID/Info                  : Advanced Video Coding XW Y0WDh:  
Duration                       : 1h 26mn .[Sv|;x"E  
Bit rate                       : 6 000 Kbps gi@+2 7;  
Maximum bit rate               : 14.8 Mbps 8a)EL*LH`  
Width                          : 1 920 pixels -RH ?FJ  
Height                         : 1 080 pixels \^-3)*r  
Display aspect ratio           : 16:9 bt&vik _  
Frame rate mode                : Constant V`WfJ>{;Z  
Frame rate                     : 25.000 fps sX_^H%fd  
Color space                    : YUV {fN_itn  
Chroma subsampling             : 4:2:0 d) o<R;F  
Bit depth                      : 8 bits d=4MqX r  
Scan type                      : Progressive cW GU?cv}  
Bits/(Pixel*Frame)             : 0.116 _Wb-&6{  
Stream size                    : 3.52 GiB (97%) dF.T6b  
Title                          : VideoByEZMediaEditor !s)$_tG  
Writing library                : x264()-core 129 - H.264/MPEG-4 Yu1xJgl  
nf G:4k,  
'b^:"\t'Rh  
Audio UU ,)z  
ID                             : 2 _RmE+Xg2  
Format                         : AAC #/jHnRrQ   
Format/Info                    : Advanced Audio Codec [ $"iO#oO  
Format profile                 : LC m9B3]H  
Codec ID                       : 40 Z?Q2ed*j  
Duration                       : 1h 26mn c,~44Z  
Bit rate mode                  : Variable ]Ns&`Yn{  
Bit rate                       : 192 Kbps BA>0 +  
Maximum bit rate               : 198 Kbps /1>  
Channel(s)                     : 2 channels {Jy%h8n*  
Channel positions              : Front: L R 4*,q 1yK  
Sampling rate                  : 44.1 KHz JWn{nJ$]  
Compression mode               : Lossy ^#Y6 E  
Stream size                    : 117 MiB (3%) &+^ # `nq  
Title                          : Audio1- /&|pXBY$;  
Encoded date                   : UTC 2016-08-17 05:55:36 :cEe4a  
Tagged date                    : UTC 2016-08-17 05:55:37 y^Jv?`jw  
0l6djN  
E0h p%:  
Iw:("A&~  
恐怖爱情故事之死亡公路.Horror.Love.Story.Wrong.Way.2016.1080p.WEB-DL.x264.AAC-Se.torrent (21 K) 下载次数:99