切换到宽版
  • 1122阅读
  • 0回复

恐怖爱情故事之死亡公路.Horror.Love.Story.Wrong.Way.2016.1080p.WEB-DL.x264.AAC-SeeHD [复制链接]

上一主题 下一主题
 

只看楼主 倒序阅读 使用道具 0 发表于: 2016-09-15
l4/TJ%`MG  
◎译  名  恐怖爱情故事之死亡公路     '|d (<.[  
◎片  名  Horror Love Story Wrong Way ~HYP:6f  
◎年  代  2016 %<M<'jxSca  
◎国  家  中国大陆 '^/E2+  
◎类  别  悬疑/恐怖/犯罪 6U&Uyd)  
◎语  言  普通话   gZ+I( o{  
◎字  幕  简体中文   !8L Ql}  
◎IMDb评分  N/A 5t<]|-i!  
◎IMDb链接  N/A i*^K)SI8  
◎文件格式  x264 + AAC @wFm])}0  
◎视频尺寸  1920 x 1080  *$cp"  
◎文件大小  3.63 GiB j2P|cBXu  
◎片  长  1h 26mn 0l:5hD,)F  
◎导  演  鸿水 Hong Shui GDcV1$NA  
◎主  演  冯可 Ke Feng }cPV_^{  
                 牟雨晨  Yu-chen Mu qXhrK /  
                 高名扬  Ming-yang Gap 6)3eB{$;  
                 魏鹏  Peng Wei p|FX_4RjX  
                 张溯哲   Su-zhe Zhang ]bR'J\Fwl  
                 陈圆媛  Yuan-yuan Chen *C:+N>  
                 郑沛琳  Pei-lin Zheng -of= Lp  
                 孙成程 Cheng-cheng Sun l3afuD :  
                 李感  Gan Li ua[\npz5  
   AO]lXa  
     |X.z|wKT6  
◎简   介 @s@  
   ~>C>LH> 8  
   eLTNnz  
        单雨(牟雨晨 饰)劈腿高大帅气的新欢乐侃(张尧 饰),闺蜜阻止未果;当单雨独自来到乐侃在山中的林中小屋时,却看到他正和一陌生女子翻云覆雨;单雨大怒,雨夜独自离开,不料各种匪夷所思的事件频发,乐侃和陌生女惨遭不幸,送单雨的黑车司机再次出现,把单雨带到荒郊野地后伸出魔爪;这一切都被一个人看在眼里…… MMAC,4  
 vXvV5Oq  
        而当单雨走投无路时,遇到计然(魏鹏 饰)和他的女朋友井水(陈圆媛 饰),结果他们都成了另一个人的追击目标。于是,在山间、在公路上,一场生死博弈和人性较量就此展开…… @TprS d  
u#,]>;  
General &7W6IM   
Format                         : MPEG-4 "_K 6=  
Format profile                 : Base Media i\ Vpp8<B  
Codec ID                       : isom 6,)y{/ENC  
File size                      : 3.63 GiB H<xC%/8  
Duration                       : 1h 26mn vj b?N  
Overall bit rate mode          : Variable D1n2Z :9  
Overall bit rate               : 6 031 Kbps :kVV.a#g  
Encoded date                   : UTC 2016-08-17 05:55:26 h+W^k+~(  
Tagged date                    : UTC 2016-08-17 05:55:26 ?c2TT Q  
Copyright                      : PPTV-2.4.0.(20,20)[1] 5oKc=iX_3  
0/ 6&2  
Video uqUo4z5T  
ID                             : 1 !LJ.L?9qw  
Format                         : AVC %_[-[t3  
Format/Info                    : Advanced Video Codec [5VUcXGt*\  
Format profile                 : High@L4 2T5xSpC  
Format settings, CABAC         : Yes UIl_& |  
Format settings, ReFrames      : 4 frames wuk7mIJ  
Codec ID                       : avc1 }j?S?=;m=  
Codec ID/Info                  : Advanced Video Coding -!0LIr:"  
Duration                       : 1h 26mn z~ H Gc"~  
Bit rate                       : 6 000 Kbps Wj:QC<5 v  
Maximum bit rate               : 14.8 Mbps .vv*bx   
Width                          : 1 920 pixels #$w#"Nr9k  
Height                         : 1 080 pixels 2mUu3fZ  
Display aspect ratio           : 16:9 ]~^/w}(K  
Frame rate mode                : Constant XNU qZ-M :  
Frame rate                     : 25.000 fps kpH;D= ;  
Color space                    : YUV PNKT\yd  
Chroma subsampling             : 4:2:0 %D r?.e  
Bit depth                      : 8 bits gQuw|u  
Scan type                      : Progressive !I [n|r"  
Bits/(Pixel*Frame)             : 0.116 {h"\JI!  
Stream size                    : 3.52 GiB (97%)  YBD{l  
Title                          : VideoByEZMediaEditor  UTQKlwPa  
Writing library                : x264()-core 129 - H.264/MPEG-4 m GhJn  
xp&!Cl>C3\  
Xa@wN/"F  
Audio G me$FWa  
ID                             : 2 |T_Pz& -  
Format                         : AAC m0Syxb  
Format/Info                    : Advanced Audio Codec O->eg  
Format profile                 : LC Fnpn_O XlH  
Codec ID                       : 40 X u):.0I  
Duration                       : 1h 26mn 4Aew )   
Bit rate mode                  : Variable n\-_i2yy  
Bit rate                       : 192 Kbps wYA/<0'yH  
Maximum bit rate               : 198 Kbps  |{)xC=  
Channel(s)                     : 2 channels io{H$  x(  
Channel positions              : Front: L R X`n0b<  
Sampling rate                  : 44.1 KHz X-1Vp_(,TP  
Compression mode               : Lossy Qc;[mxQe  
Stream size                    : 117 MiB (3%) 4n H91Z9=  
Title                          : Audio1- o#P3lz  
Encoded date                   : UTC 2016-08-17 05:55:36 i=UTc1  
Tagged date                    : UTC 2016-08-17 05:55:37 pPqN[OJ  
ocqB-C]  
Ue#yDTjc  
U%DF!~n  
恐怖爱情故事之死亡公路.Horror.Love.Story.Wrong.Way.2016.1080p.WEB-DL.x264.AAC-Se.torrent (21 K) 下载次数:122