切换到宽版
  • 902阅读
  • 0回复

恐怖爱情故事之死亡公路.Horror.Love.Story.Wrong.Way.2016.1080p.WEB-DL.x264.AAC-SeeHD [复制链接]

上一主题 下一主题
 

只看楼主 倒序阅读 使用道具 0 发表于: 2016-09-15
rZ1Hf11C  
◎译  名  恐怖爱情故事之死亡公路     q0mOG^  
◎片  名  Horror Love Story Wrong Way ~,6b_W p/  
◎年  代  2016 10[Jl5+t  
◎国  家  中国大陆 PaB!,<A  
◎类  别  悬疑/恐怖/犯罪 8iQ[9  
◎语  言  普通话   L6P1L)  
◎字  幕  简体中文   Iry  
◎IMDb评分  N/A Zi$ziDz&  
◎IMDb链接  N/A U]~^ZR  
◎文件格式  x264 + AAC \,UZX&ip  
◎视频尺寸  1920 x 1080 zdun,`6   
◎文件大小  3.63 GiB XkmQBV"  
◎片  长  1h 26mn NtGn88='{  
◎导  演  鸿水 Hong Shui ?kw&=T !  
◎主  演  冯可 Ke Feng Oc?+M 5  
                 牟雨晨  Yu-chen Mu +#J,BKul  
                 高名扬  Ming-yang Gap U!5)5c}G  
                 魏鹏  Peng Wei K r`]_m  
                 张溯哲   Su-zhe Zhang mY!iu(R1  
                 陈圆媛  Yuan-yuan Chen 9Mm!%Hu  
                 郑沛琳  Pei-lin Zheng qF)< H  
                 孙成程 Cheng-cheng Sun u'A#%}3  
                 李感  Gan Li V_n<?9^4  
   Pi2|  
     ZUXr!v/R:1  
◎简   介 U!w1AY|  
   qf)$$qi  
   Wo$%9!W  
        单雨(牟雨晨 饰)劈腿高大帅气的新欢乐侃(张尧 饰),闺蜜阻止未果;当单雨独自来到乐侃在山中的林中小屋时,却看到他正和一陌生女子翻云覆雨;单雨大怒,雨夜独自离开,不料各种匪夷所思的事件频发,乐侃和陌生女惨遭不幸,送单雨的黑车司机再次出现,把单雨带到荒郊野地后伸出魔爪;这一切都被一个人看在眼里…… 8G%yB}pa  
o`,Qku k  
        而当单雨走投无路时,遇到计然(魏鹏 饰)和他的女朋友井水(陈圆媛 饰),结果他们都成了另一个人的追击目标。于是,在山间、在公路上,一场生死博弈和人性较量就此展开…… ^cvl:HOog  
,"}Rg1\4t  
General VzS&`d.h  
Format                         : MPEG-4 BfTc I)  
Format profile                 : Base Media L *[K>iW  
Codec ID                       : isom _1Z=q.sC  
File size                      : 3.63 GiB C R<`ZNuWz  
Duration                       : 1h 26mn -]G(ms;}/Y  
Overall bit rate mode          : Variable xh@-g|+g  
Overall bit rate               : 6 031 Kbps 6X g]/FD  
Encoded date                   : UTC 2016-08-17 05:55:26 5-u=o )>  
Tagged date                    : UTC 2016-08-17 05:55:26 \Xrw"\")j  
Copyright                      : PPTV-2.4.0.(20,20)[1] N^?9ZO   
LS>G4 ]  
Video *y[PNqyd  
ID                             : 1 1m<Rw I3s  
Format                         : AVC R614#yn-+  
Format/Info                    : Advanced Video Codec ]Z<_ " F  
Format profile                 : High@L4 gW(gJ; L,%  
Format settings, CABAC         : Yes |tMn={  
Format settings, ReFrames      : 4 frames U $&hZ_A  
Codec ID                       : avc1 XhU@W}}  
Codec ID/Info                  : Advanced Video Coding G1T^a>tj4  
Duration                       : 1h 26mn I{0 k  
Bit rate                       : 6 000 Kbps "L"150Ih  
Maximum bit rate               : 14.8 Mbps Z-=YM P ]Q  
Width                          : 1 920 pixels g8;D/  
Height                         : 1 080 pixels u9-nt}hGYM  
Display aspect ratio           : 16:9 y k 161\  
Frame rate mode                : Constant FeJr\|FT  
Frame rate                     : 25.000 fps V% TH7@y  
Color space                    : YUV e= P  
Chroma subsampling             : 4:2:0 P%pp )BS  
Bit depth                      : 8 bits )8gGv  
Scan type                      : Progressive d4[(8} x$/  
Bits/(Pixel*Frame)             : 0.116 4NVV5_K a  
Stream size                    : 3.52 GiB (97%) 0 5\dl  
Title                          : VideoByEZMediaEditor zQy"m-Q  
Writing library                : x264()-core 129 - H.264/MPEG-4 beY=g7|  
|BMV.Zi  
w6|9|f/  
Audio <{(/E0~V/<  
ID                             : 2 ;_kzcK!l  
Format                         : AAC rk2xKm^w  
Format/Info                    : Advanced Audio Codec k ^'f[|}  
Format profile                 : LC sf } Dh  
Codec ID                       : 40 &YP#M |  
Duration                       : 1h 26mn %rQuBi# 1f  
Bit rate mode                  : Variable mbl]>JsQD  
Bit rate                       : 192 Kbps s,VXc/  
Maximum bit rate               : 198 Kbps qKS;x@  
Channel(s)                     : 2 channels  /RZR}  
Channel positions              : Front: L R w-B^ [<  
Sampling rate                  : 44.1 KHz wHjLd$ +o  
Compression mode               : Lossy ]T! }XXK  
Stream size                    : 117 MiB (3%) W~T}@T:EN  
Title                          : Audio1- $ 0|a;  
Encoded date                   : UTC 2016-08-17 05:55:36 pC,o 2~%{  
Tagged date                    : UTC 2016-08-17 05:55:37 n#Dv2 E=6  
4S0>-?{  
/h2b;"  
`i~ Y Fr  
恐怖爱情故事之死亡公路.Horror.Love.Story.Wrong.Way.2016.1080p.WEB-DL.x264.AAC-Se.torrent (21 K) 下载次数:111