切换到宽版
  • 840阅读
  • 0回复

恐怖爱情故事之死亡公路.Horror.Love.Story.Wrong.Way.2016.1080p.WEB-DL.x264.AAC-SeeHD [复制链接]

上一主题 下一主题
 

只看楼主 倒序阅读 使用道具 0 发表于: 2016-09-15
<"o"z2  
◎译  名  恐怖爱情故事之死亡公路     M Jj4Hd  
◎片  名  Horror Love Story Wrong Way >]'yK!a?  
◎年  代  2016 GFSt<k)  
◎国  家  中国大陆 iE0ab,OF  
◎类  别  悬疑/恐怖/犯罪 2?Ye*-  
◎语  言  普通话   g%[n4  
◎字  幕  简体中文   -#-p1^v}  
◎IMDb评分  N/A #G9 ad K5  
◎IMDb链接  N/A 7iu Q9q^&  
◎文件格式  x264 + AAC ]j>i.5  
◎视频尺寸  1920 x 1080 PIcrA2ll  
◎文件大小  3.63 GiB 9^P2I)aD  
◎片  长  1h 26mn `Lyq[zg8  
◎导  演  鸿水 Hong Shui 0f ER*.F  
◎主  演  冯可 Ke Feng h%d^Gq~  
                 牟雨晨  Yu-chen Mu c*\<,n_  
                 高名扬  Ming-yang Gap O`FqD{@V  
                 魏鹏  Peng Wei tXF]t   
                 张溯哲   Su-zhe Zhang :ZdUx  
                 陈圆媛  Yuan-yuan Chen !- C' }  
                 郑沛琳  Pei-lin Zheng zIQzmvf  
                 孙成程 Cheng-cheng Sun D)='8jV7  
                 李感  Gan Li x:K?\<  
   B7Ntk MK  
     Ex@`O+  
◎简   介 ?4PQQd  
   bv?0.{Z  
   HgJb4Fi  
        单雨(牟雨晨 饰)劈腿高大帅气的新欢乐侃(张尧 饰),闺蜜阻止未果;当单雨独自来到乐侃在山中的林中小屋时,却看到他正和一陌生女子翻云覆雨;单雨大怒,雨夜独自离开,不料各种匪夷所思的事件频发,乐侃和陌生女惨遭不幸,送单雨的黑车司机再次出现,把单雨带到荒郊野地后伸出魔爪;这一切都被一个人看在眼里…… `ZHP1uQ<  
DrS~lTf=>  
        而当单雨走投无路时,遇到计然(魏鹏 饰)和他的女朋友井水(陈圆媛 饰),结果他们都成了另一个人的追击目标。于是,在山间、在公路上,一场生死博弈和人性较量就此展开…… D>ai.T%n  
l_FGZ!7  
General RcY[rnI6  
Format                         : MPEG-4 :x>T}C<Y  
Format profile                 : Base Media +KK$0pL  
Codec ID                       : isom ESQ!@G/n  
File size                      : 3.63 GiB irxz l3   
Duration                       : 1h 26mn =(U/CI  
Overall bit rate mode          : Variable vX1uR]A[  
Overall bit rate               : 6 031 Kbps Rmh*TQu  
Encoded date                   : UTC 2016-08-17 05:55:26 u?Hb(xZtg=  
Tagged date                    : UTC 2016-08-17 05:55:26 Zy$Lrr!  
Copyright                      : PPTV-2.4.0.(20,20)[1] !c8L[/L  
Z}Cqd?_')  
Video 6OUvrfC(H  
ID                             : 1 hYt7kq!"  
Format                         : AVC TL-i=\{L:d  
Format/Info                    : Advanced Video Codec X\2_; zwf  
Format profile                 : High@L4 hTS|_5b  
Format settings, CABAC         : Yes F?*k}]Gi  
Format settings, ReFrames      : 4 frames ofCVbn  
Codec ID                       : avc1 W7e4pR?w  
Codec ID/Info                  : Advanced Video Coding -{x(`9H;  
Duration                       : 1h 26mn PZ]5Hf1"  
Bit rate                       : 6 000 Kbps _ VKgs]Y  
Maximum bit rate               : 14.8 Mbps V9jFjc?  
Width                          : 1 920 pixels +{>.Sk'$  
Height                         : 1 080 pixels Y^eX@dE FR  
Display aspect ratio           : 16:9 ./iXyta  
Frame rate mode                : Constant 0VG=?dq  
Frame rate                     : 25.000 fps ZrcPgcF  
Color space                    : YUV HTNA])G  
Chroma subsampling             : 4:2:0 O]_={%   
Bit depth                      : 8 bits TNsg pJ?\  
Scan type                      : Progressive Qv!rUiXq  
Bits/(Pixel*Frame)             : 0.116  sL ~,  
Stream size                    : 3.52 GiB (97%) "'aqb~j^  
Title                          : VideoByEZMediaEditor ?'LM7RE$X6  
Writing library                : x264()-core 129 - H.264/MPEG-4 c% yh(g  
sN@j5p^jc  
p2a?9R  
Audio ] zIfC>@R  
ID                             : 2 yA0Y 14\*  
Format                         : AAC [J:zE&aj  
Format/Info                    : Advanced Audio Codec ]-rc zl|o  
Format profile                 : LC Ps|QW  
Codec ID                       : 40 #mTMt;x  
Duration                       : 1h 26mn <[FS%2,0mb  
Bit rate mode                  : Variable r'PE5xqF  
Bit rate                       : 192 Kbps 7(5]Ry:  
Maximum bit rate               : 198 Kbps ZK!4>OuH`  
Channel(s)                     : 2 channels m^Rd Iy)  
Channel positions              : Front: L R .Wh6(LDY(  
Sampling rate                  : 44.1 KHz 2}|vWKej{  
Compression mode               : Lossy 'iGMn_&  
Stream size                    : 117 MiB (3%) y,1S& k  
Title                          : Audio1- ;\q<zO@x  
Encoded date                   : UTC 2016-08-17 05:55:36 @Z,qu2~|!  
Tagged date                    : UTC 2016-08-17 05:55:37 LP8o7%sv!  
UzN8G$92qF  
@eA %(C  
e$x4Ux7*"  
恐怖爱情故事之死亡公路.Horror.Love.Story.Wrong.Way.2016.1080p.WEB-DL.x264.AAC-Se.torrent (21 K) 下载次数:104