切换到宽版
  • 629阅读
  • 0回复

恐怖爱情故事之死亡公路.Horror.Love.Story.Wrong.Way.2016.1080p.WEB-DL.x264.AAC-SeeHD [复制链接]

上一主题 下一主题
 

只看楼主 倒序阅读 使用道具 0 发表于: 2016-09-15
]]`+aF0  
◎译  名  恐怖爱情故事之死亡公路     -,4_ &V  
◎片  名  Horror Love Story Wrong Way 4r5,kOFWb  
◎年  代  2016 AA05wpu8  
◎国  家  中国大陆 2d1'!B zDA  
◎类  别  悬疑/恐怖/犯罪 p=405~  
◎语  言  普通话   2'pxA:  
◎字  幕  简体中文   IOmIkx&`GP  
◎IMDb评分  N/A s0nihX1 Z-  
◎IMDb链接  N/A $X\BO&   
◎文件格式  x264 + AAC y8<,>  
◎视频尺寸  1920 x 1080 Tmw :w~  
◎文件大小  3.63 GiB \sRRLDj%  
◎片  长  1h 26mn b0KorUr  
◎导  演  鸿水 Hong Shui vDB nWA  
◎主  演  冯可 Ke Feng f-{ [ushj  
                 牟雨晨  Yu-chen Mu ~i  &K,  
                 高名扬  Ming-yang Gap b]Z@zS<8  
                 魏鹏  Peng Wei N!Y'W)i16  
                 张溯哲   Su-zhe Zhang Uf\*u$78  
                 陈圆媛  Yuan-yuan Chen 5T8!5EcS*  
                 郑沛琳  Pei-lin Zheng *dKA/.g  
                 孙成程 Cheng-cheng Sun  |u$AzI  
                 李感  Gan Li WO}JIExy  
   Z;n}*^U  
     <o]tW4\(R  
◎简   介 4Y)3<=kDG  
   D#k>.)g  
   nFB;!r  
        单雨(牟雨晨 饰)劈腿高大帅气的新欢乐侃(张尧 饰),闺蜜阻止未果;当单雨独自来到乐侃在山中的林中小屋时,却看到他正和一陌生女子翻云覆雨;单雨大怒,雨夜独自离开,不料各种匪夷所思的事件频发,乐侃和陌生女惨遭不幸,送单雨的黑车司机再次出现,把单雨带到荒郊野地后伸出魔爪;这一切都被一个人看在眼里…… :'rXu6c-  
ucA6s:!={  
        而当单雨走投无路时,遇到计然(魏鹏 饰)和他的女朋友井水(陈圆媛 饰),结果他们都成了另一个人的追击目标。于是,在山间、在公路上,一场生死博弈和人性较量就此展开…… H-rf?R2  
MRJdQCBV  
General H} }t ) H  
Format                         : MPEG-4 , g6.d#c  
Format profile                 : Base Media H$[--_dI{  
Codec ID                       : isom chiQ+  
File size                      : 3.63 GiB >2v_fw  
Duration                       : 1h 26mn >c1mwZS ;  
Overall bit rate mode          : Variable =)bZSb"<"  
Overall bit rate               : 6 031 Kbps G A7  
Encoded date                   : UTC 2016-08-17 05:55:26 rgP$\xn-  
Tagged date                    : UTC 2016-08-17 05:55:26 hrXN 38-  
Copyright                      : PPTV-2.4.0.(20,20)[1] [6-l6W  
->j9(76"  
Video ^iI^)  
ID                             : 1 Ik}*7D  
Format                         : AVC a.Mp1W  
Format/Info                    : Advanced Video Codec 60p1.;' /a  
Format profile                 : High@L4 t^7R6y  
Format settings, CABAC         : Yes r] ]Ke_s!  
Format settings, ReFrames      : 4 frames -({\eL$n  
Codec ID                       : avc1 B@s\>QMm  
Codec ID/Info                  : Advanced Video Coding F.\]Hqq  
Duration                       : 1h 26mn oF*Y$OEu?c  
Bit rate                       : 6 000 Kbps Vl'=92t  
Maximum bit rate               : 14.8 Mbps l'o}4am  
Width                          : 1 920 pixels ,:v}gS?Uq  
Height                         : 1 080 pixels -(59F  
Display aspect ratio           : 16:9 dIf Jr}ih  
Frame rate mode                : Constant vw(};)8  
Frame rate                     : 25.000 fps Bf-&[ 5N}  
Color space                    : YUV AG9U2x  
Chroma subsampling             : 4:2:0 U ^,ld`  
Bit depth                      : 8 bits MDB}G '  
Scan type                      : Progressive  GN>T }  
Bits/(Pixel*Frame)             : 0.116 R]r~TJ o  
Stream size                    : 3.52 GiB (97%) cKxJeM07  
Title                          : VideoByEZMediaEditor M.128J+xfS  
Writing library                : x264()-core 129 - H.264/MPEG-4 *i n_Z t3  
$]T7Iwk  
?(|!VLu  
Audio P_?1Rwm-45  
ID                             : 2 bX9}G#+U  
Format                         : AAC +}1]8:>cq  
Format/Info                    : Advanced Audio Codec uUJ2d84tV  
Format profile                 : LC c '(]n]a%  
Codec ID                       : 40 >a0;|;hp  
Duration                       : 1h 26mn &3^40s/+  
Bit rate mode                  : Variable =]^* -f}J9  
Bit rate                       : 192 Kbps :*8@Mj Z4  
Maximum bit rate               : 198 Kbps H ,?MG  
Channel(s)                     : 2 channels b&e? 6h^G  
Channel positions              : Front: L R 7O{\^Jz1  
Sampling rate                  : 44.1 KHz ` Y ut 1N  
Compression mode               : Lossy _&:o"""Wf  
Stream size                    : 117 MiB (3%) '1mygplW  
Title                          : Audio1- "w A8J%:  
Encoded date                   : UTC 2016-08-17 05:55:36 &zm5s*yNt  
Tagged date                    : UTC 2016-08-17 05:55:37 +FJ o!~1  
CHLMY}O0  
"W1q}4_  
YnNei 7R  
恐怖爱情故事之死亡公路.Horror.Love.Story.Wrong.Way.2016.1080p.WEB-DL.x264.AAC-Se.torrent (21 K) 下载次数:82