切换到宽版
  • 919阅读
  • 0回复

恐怖爱情故事之死亡公路.Horror.Love.Story.Wrong.Way.2016.1080p.WEB-DL.x264.AAC-SeeHD [复制链接]

上一主题 下一主题
 

只看楼主 倒序阅读 使用道具 0 发表于: 2016-09-15
Khd,|pM  
◎译  名  恐怖爱情故事之死亡公路     V3UGx'@^y  
◎片  名  Horror Love Story Wrong Way Z"T(8>c;g  
◎年  代  2016 uelTsn  
◎国  家  中国大陆 2MeavTr  
◎类  别  悬疑/恐怖/犯罪 M3`A&*\;  
◎语  言  普通话   %;?3A#  
◎字  幕  简体中文   HE'8  
◎IMDb评分  N/A 5~0;R`D  
◎IMDb链接  N/A ji=po;g=E  
◎文件格式  x264 + AAC bOKNWI   
◎视频尺寸  1920 x 1080 B(dL`]@Xm  
◎文件大小  3.63 GiB 9%6`ZS~3  
◎片  长  1h 26mn j-|0&X1C  
◎导  演  鸿水 Hong Shui axOy~%% c  
◎主  演  冯可 Ke Feng ! YHu  
                 牟雨晨  Yu-chen Mu _,~zy9{,  
                 高名扬  Ming-yang Gap !{;RtUPz*  
                 魏鹏  Peng Wei s'4p+eJ  
                 张溯哲   Su-zhe Zhang  Hm*#HT%#  
                 陈圆媛  Yuan-yuan Chen a| cD{d  
                 郑沛琳  Pei-lin Zheng ,cEcMaJ  
                 孙成程 Cheng-cheng Sun $0t %}DE  
                 李感  Gan Li v%[mt` I  
   KW<CU'  
     -Ma"V  
◎简   介 RoZV6U~  
   M czWg  
   m Y0C7i  
        单雨(牟雨晨 饰)劈腿高大帅气的新欢乐侃(张尧 饰),闺蜜阻止未果;当单雨独自来到乐侃在山中的林中小屋时,却看到他正和一陌生女子翻云覆雨;单雨大怒,雨夜独自离开,不料各种匪夷所思的事件频发,乐侃和陌生女惨遭不幸,送单雨的黑车司机再次出现,把单雨带到荒郊野地后伸出魔爪;这一切都被一个人看在眼里…… 06$9Uz9  
9n7d "XD2  
        而当单雨走投无路时,遇到计然(魏鹏 饰)和他的女朋友井水(陈圆媛 饰),结果他们都成了另一个人的追击目标。于是,在山间、在公路上,一场生死博弈和人性较量就此展开…… y"ck;OQD  
sTz*tSwQv  
General gK CIfxM  
Format                         : MPEG-4 r N7"%dx  
Format profile                 : Base Media V^i3 :'  
Codec ID                       : isom <~OyV5:6  
File size                      : 3.63 GiB ?da3Azp  
Duration                       : 1h 26mn !:5n  
Overall bit rate mode          : Variable VUb*,/hxa  
Overall bit rate               : 6 031 Kbps cw\a,>]H  
Encoded date                   : UTC 2016-08-17 05:55:26 #UQ[8e  
Tagged date                    : UTC 2016-08-17 05:55:26 X'm2 uOEj  
Copyright                      : PPTV-2.4.0.(20,20)[1] e+[J9;g  
G w[&P%  
Video A-FwNo2"%  
ID                             : 1 Y$^\D' .k  
Format                         : AVC wah`  
Format/Info                    : Advanced Video Codec Up&q#vqIj  
Format profile                 : High@L4 k s}o9[D3  
Format settings, CABAC         : Yes O]>`B{  
Format settings, ReFrames      : 4 frames j*{bM{~T<  
Codec ID                       : avc1 >. Y ~F(  
Codec ID/Info                  : Advanced Video Coding V_* ^2c)  
Duration                       : 1h 26mn +,lD_{}_  
Bit rate                       : 6 000 Kbps FQyiIT6  
Maximum bit rate               : 14.8 Mbps zjmc>++<t  
Width                          : 1 920 pixels UL/>t}AG  
Height                         : 1 080 pixels H &JKja}`  
Display aspect ratio           : 16:9 LsXYvX  
Frame rate mode                : Constant d:D2[  
Frame rate                     : 25.000 fps ,#G@ri:B  
Color space                    : YUV N5\<w>  
Chroma subsampling             : 4:2:0 &BgaFx**  
Bit depth                      : 8 bits d,77L  
Scan type                      : Progressive hk I$ow(  
Bits/(Pixel*Frame)             : 0.116 <T wq{kt  
Stream size                    : 3.52 GiB (97%) gT.-Cf{  
Title                          : VideoByEZMediaEditor 5+UiAc$  
Writing library                : x264()-core 129 - H.264/MPEG-4 RY'y%6Z]ZO  
Ut+mm\7  
fHigLL0B  
Audio fh~&&f}6  
ID                             : 2 I I91Ia  
Format                         : AAC ,J|};s+  
Format/Info                    : Advanced Audio Codec H2]I__t/u  
Format profile                 : LC ?vVkZsU  
Codec ID                       : 40 W.a/k7 p  
Duration                       : 1h 26mn Y%faf.$/9  
Bit rate mode                  : Variable UZ1 lI>  
Bit rate                       : 192 Kbps n'ro5D  
Maximum bit rate               : 198 Kbps `&_qK~&/X  
Channel(s)                     : 2 channels 4Q d g t*  
Channel positions              : Front: L R 4Z_.Jdu w  
Sampling rate                  : 44.1 KHz (:\hor%  
Compression mode               : Lossy a5'QL(IX  
Stream size                    : 117 MiB (3%) g@QpqrT  
Title                          : Audio1- v% 1#y5  
Encoded date                   : UTC 2016-08-17 05:55:36 6"DvdJ0MB  
Tagged date                    : UTC 2016-08-17 05:55:37 r#XDgZtI  
cZu:dwE  
?d %_o@  
NB^.$ 3 9n  
恐怖爱情故事之死亡公路.Horror.Love.Story.Wrong.Way.2016.1080p.WEB-DL.x264.AAC-Se.torrent (21 K) 下载次数:111