切换到宽版
  • 776阅读
  • 0回复

恐怖爱情故事之死亡公路.Horror.Love.Story.Wrong.Way.2016.1080p.WEB-DL.x264.AAC-SeeHD [复制链接]

上一主题 下一主题
 

只看楼主 倒序阅读 使用道具 0 发表于: 2016-09-15
~$<@:z{*  
◎译  名  恐怖爱情故事之死亡公路     ?g2K&  
◎片  名  Horror Love Story Wrong Way QaV*}W  
◎年  代  2016 mJHX  
◎国  家  中国大陆 3/ D fsv  
◎类  别  悬疑/恐怖/犯罪 ~ i,my31  
◎语  言  普通话   TzjZGs W[V  
◎字  幕  简体中文   Fwtwf{9I  
◎IMDb评分  N/A Z2r\aZ-d`  
◎IMDb链接  N/A v~SN2,h  
◎文件格式  x264 + AAC l"64w>,  
◎视频尺寸  1920 x 1080 HukHZ;5  
◎文件大小  3.63 GiB 0Pe.G0 #  
◎片  长  1h 26mn #& ^+hx|  
◎导  演  鸿水 Hong Shui gNJ\*]SY  
◎主  演  冯可 Ke Feng FM5$83Q  
                 牟雨晨  Yu-chen Mu Pj$a $C`Z  
                 高名扬  Ming-yang Gap fw5AZvE6$  
                 魏鹏  Peng Wei l[gL(p"W  
                 张溯哲   Su-zhe Zhang 'W)x<Iey1  
                 陈圆媛  Yuan-yuan Chen >2ct1_  
                 郑沛琳  Pei-lin Zheng !zeBxR$&o  
                 孙成程 Cheng-cheng Sun m&2m' =(  
                 李感  Gan Li m1TPy-|1  
   3Xy>kG}  
     B $HQFdTli  
◎简   介 Zhw _L  
   |Q$C%7  
   \.{?TB  
        单雨(牟雨晨 饰)劈腿高大帅气的新欢乐侃(张尧 饰),闺蜜阻止未果;当单雨独自来到乐侃在山中的林中小屋时,却看到他正和一陌生女子翻云覆雨;单雨大怒,雨夜独自离开,不料各种匪夷所思的事件频发,乐侃和陌生女惨遭不幸,送单雨的黑车司机再次出现,把单雨带到荒郊野地后伸出魔爪;这一切都被一个人看在眼里…… ;@sxE}`?g  
wH<S0vl   
        而当单雨走投无路时,遇到计然(魏鹏 饰)和他的女朋友井水(陈圆媛 饰),结果他们都成了另一个人的追击目标。于是,在山间、在公路上,一场生死博弈和人性较量就此展开…… Skx TgX5  
Z:'2pu U+?  
General P0W%30Dh  
Format                         : MPEG-4 v5&WW?IBQ  
Format profile                 : Base Media -WEi Y  
Codec ID                       : isom 9~N7hLT  
File size                      : 3.63 GiB KExfa4W 3{  
Duration                       : 1h 26mn EQg 6*V  
Overall bit rate mode          : Variable "|f;   
Overall bit rate               : 6 031 Kbps lG q;kIQ  
Encoded date                   : UTC 2016-08-17 05:55:26 X~lOFH;}q  
Tagged date                    : UTC 2016-08-17 05:55:26 7 0KZXgBy_  
Copyright                      : PPTV-2.4.0.(20,20)[1] N#|c2n +  
d ;ry!X  
Video x!S8'  
ID                             : 1 0\u_ \%[  
Format                         : AVC )00#Rrt 9  
Format/Info                    : Advanced Video Codec wtMS<$  
Format profile                 : High@L4 ?jy^WF`  
Format settings, CABAC         : Yes ]kc]YO7i%R  
Format settings, ReFrames      : 4 frames B f[D&O  
Codec ID                       : avc1 }K0.*+M  
Codec ID/Info                  : Advanced Video Coding =T;%R^@  
Duration                       : 1h 26mn ;sb0,2YyP  
Bit rate                       : 6 000 Kbps +HUI1@ql  
Maximum bit rate               : 14.8 Mbps CEt_wKz f  
Width                          : 1 920 pixels bMf +/n  
Height                         : 1 080 pixels LKztGfy  
Display aspect ratio           : 16:9 =v1s@5 ;~  
Frame rate mode                : Constant v ='7.A  
Frame rate                     : 25.000 fps [BmondOx  
Color space                    : YUV sg{>- KHM  
Chroma subsampling             : 4:2:0 `<q{8  
Bit depth                      : 8 bits 'N0d==aI  
Scan type                      : Progressive >lN{FJ  
Bits/(Pixel*Frame)             : 0.116 sm/l'e  
Stream size                    : 3.52 GiB (97%) kQwBrb 4  
Title                          : VideoByEZMediaEditor fGY. +W_  
Writing library                : x264()-core 129 - H.264/MPEG-4 / k(0}g=\  
"VB-=. A  
9kQ~)4#  
Audio 8xZN4ck_@  
ID                             : 2 }=az6cLE2  
Format                         : AAC i{ eDV  
Format/Info                    : Advanced Audio Codec J*A<F'^F1  
Format profile                 : LC '$UlJDZ  
Codec ID                       : 40  J$v0  
Duration                       : 1h 26mn b_z;^y~  
Bit rate mode                  : Variable r,EIOcz:  
Bit rate                       : 192 Kbps *3s4JK  
Maximum bit rate               : 198 Kbps Ud\Jc:DG  
Channel(s)                     : 2 channels Lg sQz(-  
Channel positions              : Front: L R ~NMal]Fwx  
Sampling rate                  : 44.1 KHz 0' @^PzX  
Compression mode               : Lossy 7eqax33f  
Stream size                    : 117 MiB (3%) bYYyXM  
Title                          : Audio1- S=n,unn#t  
Encoded date                   : UTC 2016-08-17 05:55:36 \8'fy\  
Tagged date                    : UTC 2016-08-17 05:55:37 [kDjht|$>  
:lcZ )6&S  
k+f!)7_  
?H#]+SpOcv  
恐怖爱情故事之死亡公路.Horror.Love.Story.Wrong.Way.2016.1080p.WEB-DL.x264.AAC-Se.torrent (21 K) 下载次数:99