切换到宽版
  • 513阅读
  • 0回复

恐怖爱情故事之死亡公路.Horror.Love.Story.Wrong.Way.2016.1080p.WEB-DL.x264.AAC-SeeHD [复制链接]

上一主题 下一主题
 

只看楼主 倒序阅读 使用道具 0 发表于: 2016-09-15
Q) Y&h'.(  
◎译  名  恐怖爱情故事之死亡公路     ZN-5W|' O  
◎片  名  Horror Love Story Wrong Way br7_P1ep  
◎年  代  2016 B{-+1f4  
◎国  家  中国大陆 ]tO9<  
◎类  别  悬疑/恐怖/犯罪 H^0`YQJ3  
◎语  言  普通话   |p @,]c z  
◎字  幕  简体中文    u9,ZY >  
◎IMDb评分  N/A m|cT)-  
◎IMDb链接  N/A >Wr  
◎文件格式  x264 + AAC XjV,wsZ=  
◎视频尺寸  1920 x 1080 I DtGtkF  
◎文件大小  3.63 GiB jBnvu@K"  
◎片  长  1h 26mn cT,5xp"a  
◎导  演  鸿水 Hong Shui bhc .UmH  
◎主  演  冯可 Ke Feng 1F58 2 l  
                 牟雨晨  Yu-chen Mu h]#bPb  
                 高名扬  Ming-yang Gap A]CO Ysc  
                 魏鹏  Peng Wei S !wY6z  
                 张溯哲   Su-zhe Zhang B;mt11M  
                 陈圆媛  Yuan-yuan Chen kpt 0spp  
                 郑沛琳  Pei-lin Zheng d!]fou  
                 孙成程 Cheng-cheng Sun y |E {]  
                 李感  Gan Li p?+*R@O  
   iPoDesp  
     #.z`clK#  
◎简   介 +:fr(s!OE  
   7L\kna<  
   Z )f\^  
        单雨(牟雨晨 饰)劈腿高大帅气的新欢乐侃(张尧 饰),闺蜜阻止未果;当单雨独自来到乐侃在山中的林中小屋时,却看到他正和一陌生女子翻云覆雨;单雨大怒,雨夜独自离开,不料各种匪夷所思的事件频发,乐侃和陌生女惨遭不幸,送单雨的黑车司机再次出现,把单雨带到荒郊野地后伸出魔爪;这一切都被一个人看在眼里…… %T:7I[f  
Sx%vJYH0  
        而当单雨走投无路时,遇到计然(魏鹏 饰)和他的女朋友井水(陈圆媛 饰),结果他们都成了另一个人的追击目标。于是,在山间、在公路上,一场生死博弈和人性较量就此展开…… 4,pSC  
= 7WE   
General I%<,JRAV  
Format                         : MPEG-4 ntT~_Ba8;u  
Format profile                 : Base Media umD[4aP~;  
Codec ID                       : isom ~J:"sUR  
File size                      : 3.63 GiB /K./k!'z  
Duration                       : 1h 26mn LVj62&,-  
Overall bit rate mode          : Variable `*nK@:  
Overall bit rate               : 6 031 Kbps x>yeF,q1  
Encoded date                   : UTC 2016-08-17 05:55:26 j 4B|ktf  
Tagged date                    : UTC 2016-08-17 05:55:26 "T_OLeg dK  
Copyright                      : PPTV-2.4.0.(20,20)[1] @Yy:MdREA  
-bHfo%"^TT  
Video Dx-G0 KIG  
ID                             : 1 m8|&z{  
Format                         : AVC '0!IF&p'  
Format/Info                    : Advanced Video Codec 1JU1X Qi  
Format profile                 : High@L4 8'(|1  
Format settings, CABAC         : Yes !PfIe94{`  
Format settings, ReFrames      : 4 frames D* oJ z3[  
Codec ID                       : avc1 W_zAAIY_Y  
Codec ID/Info                  : Advanced Video Coding j aj."v  
Duration                       : 1h 26mn r"MKkS EM  
Bit rate                       : 6 000 Kbps *WQ}ucE^#  
Maximum bit rate               : 14.8 Mbps k-( hJ}N  
Width                          : 1 920 pixels @42!\1YT  
Height                         : 1 080 pixels A@wRP8<GKj  
Display aspect ratio           : 16:9 @'Er&[P  
Frame rate mode                : Constant aeESS;JxJj  
Frame rate                     : 25.000 fps .g7ebh6D  
Color space                    : YUV $h Is ab_  
Chroma subsampling             : 4:2:0 _J51 :pi  
Bit depth                      : 8 bits R,hX *yVq  
Scan type                      : Progressive SR#%gR_SC  
Bits/(Pixel*Frame)             : 0.116 (YjY=F  
Stream size                    : 3.52 GiB (97%) ")U`Wgx  
Title                          : VideoByEZMediaEditor VY'#>k} }  
Writing library                : x264()-core 129 - H.264/MPEG-4 ]FLuiC  
`A\ !Gn?   
3ySP*J5  
Audio wovWEtVBU  
ID                             : 2 `@{qnCNQ  
Format                         : AAC BZqb o`9  
Format/Info                    : Advanced Audio Codec {Ex0mw)T  
Format profile                 : LC _4z>I/R>Z  
Codec ID                       : 40 _Gy*";E  
Duration                       : 1h 26mn B@]( ,  
Bit rate mode                  : Variable Vkex&?>v$  
Bit rate                       : 192 Kbps a%f5dj+  
Maximum bit rate               : 198 Kbps (jkjj7a  
Channel(s)                     : 2 channels !+cRtCaA::  
Channel positions              : Front: L R &^th KXEC  
Sampling rate                  : 44.1 KHz 0[0</"K%1m  
Compression mode               : Lossy &adKK YN  
Stream size                    : 117 MiB (3%) Gq;0j:?CC  
Title                          : Audio1- knypSgk_  
Encoded date                   : UTC 2016-08-17 05:55:36 oZ%t!Fl1  
Tagged date                    : UTC 2016-08-17 05:55:37 "P< drz<  
3Nw9o6`U  
w IT`OT6Q  
BZsw(l4/0'  
恐怖爱情故事之死亡公路.Horror.Love.Story.Wrong.Way.2016.1080p.WEB-DL.x264.AAC-Se.torrent (21 K) 下载次数:75