切换到宽版
  • 880阅读
  • 0回复

恐怖爱情故事之死亡公路.Horror.Love.Story.Wrong.Way.2016.1080p.WEB-DL.x264.AAC-SeeHD [复制链接]

上一主题 下一主题
 

只看楼主 倒序阅读 使用道具 0 发表于: 2016-09-15
w1c w1xX*  
◎译  名  恐怖爱情故事之死亡公路     YQ+^  
◎片  名  Horror Love Story Wrong Way .x>HA^4  
◎年  代  2016 [1Uz_HY["3  
◎国  家  中国大陆 <$Ztik1  
◎类  别  悬疑/恐怖/犯罪 aTG[=)x L  
◎语  言  普通话   y #69|G  
◎字  幕  简体中文   \@8*TS  
◎IMDb评分  N/A }s(C^0x  
◎IMDb链接  N/A 9{$8\E9*nd  
◎文件格式  x264 + AAC >gnF]<  
◎视频尺寸  1920 x 1080 /h7.oD8CU  
◎文件大小  3.63 GiB ydB$4ZB3[  
◎片  长  1h 26mn *Wso3 6an  
◎导  演  鸿水 Hong Shui ^EuW( "  
◎主  演  冯可 Ke Feng Li]k7w?H  
                 牟雨晨  Yu-chen Mu Ch7Egz l7?  
                 高名扬  Ming-yang Gap `zY!`G  
                 魏鹏  Peng Wei nc&Jm o7  
                 张溯哲   Su-zhe Zhang Qm; BUG]  
                 陈圆媛  Yuan-yuan Chen gJk[Ja  
                 郑沛琳  Pei-lin Zheng S~> 5INud  
                 孙成程 Cheng-cheng Sun P:^=m*d  
                 李感  Gan Li nEyI t&> 9  
   =LK}9ViH  
     L1{T ?aII  
◎简   介 M J\r 4n  
   7`dY1.rq  
   as#J qE  
        单雨(牟雨晨 饰)劈腿高大帅气的新欢乐侃(张尧 饰),闺蜜阻止未果;当单雨独自来到乐侃在山中的林中小屋时,却看到他正和一陌生女子翻云覆雨;单雨大怒,雨夜独自离开,不料各种匪夷所思的事件频发,乐侃和陌生女惨遭不幸,送单雨的黑车司机再次出现,把单雨带到荒郊野地后伸出魔爪;这一切都被一个人看在眼里…… t!0dJ ud  
C\A49q  
        而当单雨走投无路时,遇到计然(魏鹏 饰)和他的女朋友井水(陈圆媛 饰),结果他们都成了另一个人的追击目标。于是,在山间、在公路上,一场生死博弈和人性较量就此展开…… ??(Kwtx{  
&[~[~m|  
General V^2-_V]8  
Format                         : MPEG-4 M~p=#V1D  
Format profile                 : Base Media OXCQfT@\  
Codec ID                       : isom Z2bUs!0  
File size                      : 3.63 GiB 0;<OYbm3<  
Duration                       : 1h 26mn i-.c= M  
Overall bit rate mode          : Variable S=PJhAF  
Overall bit rate               : 6 031 Kbps s!de 2z  
Encoded date                   : UTC 2016-08-17 05:55:26 <xqba4O  
Tagged date                    : UTC 2016-08-17 05:55:26 >0T Za  
Copyright                      : PPTV-2.4.0.(20,20)[1] H(&Z:{L  
6v>z h  
Video ^/ a*.cu  
ID                             : 1 ?ZX!7^7  
Format                         : AVC )8'jxiGs  
Format/Info                    : Advanced Video Codec `)tA YH  
Format profile                 : High@L4 Ag6uR(uI  
Format settings, CABAC         : Yes ?(D}5`Nfu  
Format settings, ReFrames      : 4 frames "-0;#&!  
Codec ID                       : avc1 v|&s4x?D  
Codec ID/Info                  : Advanced Video Coding D:m#d.m  
Duration                       : 1h 26mn uA%Ts*aN  
Bit rate                       : 6 000 Kbps #8UseK  
Maximum bit rate               : 14.8 Mbps C0(sAF@  
Width                          : 1 920 pixels iaRR5D-  
Height                         : 1 080 pixels t3>$|}O]t  
Display aspect ratio           : 16:9 L$hc,  
Frame rate mode                : Constant rJV?) =Z  
Frame rate                     : 25.000 fps -)RJ\V^{9  
Color space                    : YUV xiCN qk3  
Chroma subsampling             : 4:2:0 ?0z)EPQ|  
Bit depth                      : 8 bits <\ETPL,<  
Scan type                      : Progressive Nb1J ~v  
Bits/(Pixel*Frame)             : 0.116 jb 3.W  
Stream size                    : 3.52 GiB (97%) L|J~9FM  
Title                          : VideoByEZMediaEditor Sn ^Aud  
Writing library                : x264()-core 129 - H.264/MPEG-4 \ 3G*j`  
]1}h8/  
VVLIeJ(*XT  
Audio Azn:_4O  
ID                             : 2 ,CKvTxz0  
Format                         : AAC f3t. T=S  
Format/Info                    : Advanced Audio Codec (#z;(EN0t  
Format profile                 : LC }4vjKSV  
Codec ID                       : 40 4#h ?Wga  
Duration                       : 1h 26mn ZpWu,1  
Bit rate mode                  : Variable @'gl~J7  
Bit rate                       : 192 Kbps j{ "[Ec  
Maximum bit rate               : 198 Kbps J#(,0h  
Channel(s)                     : 2 channels [TEcg^  
Channel positions              : Front: L R 4|F#gK5E  
Sampling rate                  : 44.1 KHz 4 l1 i>_R  
Compression mode               : Lossy Y }/c N\  
Stream size                    : 117 MiB (3%) =)*JbwQ   
Title                          : Audio1- *]2R.u  
Encoded date                   : UTC 2016-08-17 05:55:36 x< S\D&  
Tagged date                    : UTC 2016-08-17 05:55:37 /x/4Ne D  
-ek1$y9)  
?@3&dk~ni  
ZOn_dYjC  
恐怖爱情故事之死亡公路.Horror.Love.Story.Wrong.Way.2016.1080p.WEB-DL.x264.AAC-Se.torrent (21 K) 下载次数:106