切换到宽版
  • 816阅读
  • 0回复

恐怖爱情故事之死亡公路.Horror.Love.Story.Wrong.Way.2016.1080p.WEB-DL.x264.AAC-SeeHD [复制链接]

上一主题 下一主题
 

只看楼主 倒序阅读 使用道具 0 发表于: 2016-09-15
Gnt!!1_8L  
◎译  名  恐怖爱情故事之死亡公路     p&mtKLv  
◎片  名  Horror Love Story Wrong Way Y`?X Fy:  
◎年  代  2016 ]?`p_G3O  
◎国  家  中国大陆 PZJ 4: h  
◎类  别  悬疑/恐怖/犯罪 z44~5J]  
◎语  言  普通话   ^(*O$N*#  
◎字  幕  简体中文   9 /(c cj  
◎IMDb评分  N/A ( v:ek_  
◎IMDb链接  N/A f94jMzH9z  
◎文件格式  x264 + AAC :&)/v q  
◎视频尺寸  1920 x 1080 >1G*ya)  
◎文件大小  3.63 GiB =Fy8rTdk6r  
◎片  长  1h 26mn B~z g"  
◎导  演  鸿水 Hong Shui 8 {]Gh 0+  
◎主  演  冯可 Ke Feng {WeXURp&nF  
                 牟雨晨  Yu-chen Mu ko2j|*D6@~  
                 高名扬  Ming-yang Gap ZCFf@2&z8  
                 魏鹏  Peng Wei xe vP2pYG:  
                 张溯哲   Su-zhe Zhang fbTw6Fde$  
                 陈圆媛  Yuan-yuan Chen YQdX>k  
                 郑沛琳  Pei-lin Zheng H&Y{jqua  
                 孙成程 Cheng-cheng Sun lN>C#e<]  
                 李感  Gan Li e)dWa'2<  
   poYAiq_3T  
     2qMsa>~  
◎简   介 L2.`1Aag  
   RrdtU7i 3  
   g)?g7{&?>?  
        单雨(牟雨晨 饰)劈腿高大帅气的新欢乐侃(张尧 饰),闺蜜阻止未果;当单雨独自来到乐侃在山中的林中小屋时,却看到他正和一陌生女子翻云覆雨;单雨大怒,雨夜独自离开,不料各种匪夷所思的事件频发,乐侃和陌生女惨遭不幸,送单雨的黑车司机再次出现,把单雨带到荒郊野地后伸出魔爪;这一切都被一个人看在眼里…… 6.h   
<-B"|u  
        而当单雨走投无路时,遇到计然(魏鹏 饰)和他的女朋友井水(陈圆媛 饰),结果他们都成了另一个人的追击目标。于是,在山间、在公路上,一场生死博弈和人性较量就此展开…… kefv=n*]l  
<!}l~Ln15  
General S50x0$%<W  
Format                         : MPEG-4 Wo9psv7.  
Format profile                 : Base Media _ c ]3nzIr  
Codec ID                       : isom 0$L0fhw.  
File size                      : 3.63 GiB @U3foL2\  
Duration                       : 1h 26mn 1~5q:X  
Overall bit rate mode          : Variable wEnuUC4j  
Overall bit rate               : 6 031 Kbps WCmNibj  
Encoded date                   : UTC 2016-08-17 05:55:26 ' q<EZ {  
Tagged date                    : UTC 2016-08-17 05:55:26 +}1hU :qW  
Copyright                      : PPTV-2.4.0.(20,20)[1] `o8{qU,*]N  
hQ}7Z&O  
Video cP@F #!2  
ID                             : 1 '*N9"C  
Format                         : AVC mDF"&.(j  
Format/Info                    : Advanced Video Codec (ND5CKCR^  
Format profile                 : High@L4 fQW_YQsb  
Format settings, CABAC         : Yes &xBK\  
Format settings, ReFrames      : 4 frames 2'<=H76  
Codec ID                       : avc1 &H4uvJ_<  
Codec ID/Info                  : Advanced Video Coding !q$&JZY  
Duration                       : 1h 26mn {nQ)4.e6  
Bit rate                       : 6 000 Kbps )0U3w#,JQ  
Maximum bit rate               : 14.8 Mbps MzR1<W{ O  
Width                          : 1 920 pixels A!ioji+{[  
Height                         : 1 080 pixels D,d HP-v  
Display aspect ratio           : 16:9 tSb? ]J  
Frame rate mode                : Constant <cDKGd  
Frame rate                     : 25.000 fps G=C5T(  
Color space                    : YUV xv$)u<Ve  
Chroma subsampling             : 4:2:0 Z[k#AgC)  
Bit depth                      : 8 bits 6/[Z178m  
Scan type                      : Progressive S?Bc~y  
Bits/(Pixel*Frame)             : 0.116 Cv>yAt.3  
Stream size                    : 3.52 GiB (97%) 4FIV  
Title                          : VideoByEZMediaEditor bvip bf[m<  
Writing library                : x264()-core 129 - H.264/MPEG-4 1C0Y0{6,  
r*6"'W>c6  
>,>;)B@J  
Audio }{&l n  
ID                             : 2 oNuPP5d[]  
Format                         : AAC &0+x2e)7g  
Format/Info                    : Advanced Audio Codec 9u ?)vR[@e  
Format profile                 : LC &r'{(O8$N  
Codec ID                       : 40 CJ9cCtA  
Duration                       : 1h 26mn <H5n>3#pH  
Bit rate mode                  : Variable g>~cs_N@  
Bit rate                       : 192 Kbps ]~ !X iCqu  
Maximum bit rate               : 198 Kbps 3:[!t%Yb  
Channel(s)                     : 2 channels v)@,:u)  
Channel positions              : Front: L R w0Fwd  
Sampling rate                  : 44.1 KHz ~Law F_]6  
Compression mode               : Lossy RDs,sj/Y9?  
Stream size                    : 117 MiB (3%) .vv5 t  
Title                          : Audio1- ~@T+mHny  
Encoded date                   : UTC 2016-08-17 05:55:36 8pYyG |\  
Tagged date                    : UTC 2016-08-17 05:55:37 m<FF$pTT  
LkJ$aW/  
brg" :V1a  
eM?rc55|  
恐怖爱情故事之死亡公路.Horror.Love.Story.Wrong.Way.2016.1080p.WEB-DL.x264.AAC-Se.torrent (21 K) 下载次数:100