切换到宽版
  • 1087阅读
  • 0回复

恐怖爱情故事之死亡公路.Horror.Love.Story.Wrong.Way.2016.1080p.WEB-DL.x264.AAC-SeeHD [复制链接]

上一主题 下一主题
 

只看楼主 倒序阅读 使用道具 0 发表于: 2016-09-15
{p2!|A&a  
◎译  名  恐怖爱情故事之死亡公路     Da*?x8sSL  
◎片  名  Horror Love Story Wrong Way g&L!1<, p  
◎年  代  2016 +Ze} B*0  
◎国  家  中国大陆 : $1?i)  
◎类  别  悬疑/恐怖/犯罪 G[PtkPSJ  
◎语  言  普通话   SO/c}vnBB  
◎字  幕  简体中文   'ms-*c&  
◎IMDb评分  N/A C[cbbp  
◎IMDb链接  N/A , >a&"V^k  
◎文件格式  x264 + AAC jVe1b1rt~3  
◎视频尺寸  1920 x 1080 K-)] 1BG  
◎文件大小  3.63 GiB ),%%$G\  
◎片  长  1h 26mn fUWG*o9  
◎导  演  鸿水 Hong Shui ,L2ZinU:  
◎主  演  冯可 Ke Feng n` _{9R  
                 牟雨晨  Yu-chen Mu 5Pc;5 o0C  
                 高名扬  Ming-yang Gap XT%nbh&y  
                 魏鹏  Peng Wei g{)dP!}  
                 张溯哲   Su-zhe Zhang ?FZ HrA  
                 陈圆媛  Yuan-yuan Chen a=_g*OK}D  
                 郑沛琳  Pei-lin Zheng QE+g j8  
                 孙成程 Cheng-cheng Sun Evq IcZ  
                 李感  Gan Li =j_4S<  
   |*xA 8&/  
     n+9=1Oo"  
◎简   介 x;KOqfawv  
   df+l%9@  
   4"(Bu/24  
        单雨(牟雨晨 饰)劈腿高大帅气的新欢乐侃(张尧 饰),闺蜜阻止未果;当单雨独自来到乐侃在山中的林中小屋时,却看到他正和一陌生女子翻云覆雨;单雨大怒,雨夜独自离开,不料各种匪夷所思的事件频发,乐侃和陌生女惨遭不幸,送单雨的黑车司机再次出现,把单雨带到荒郊野地后伸出魔爪;这一切都被一个人看在眼里…… }-{H  Y  
@gEUm_#HTs  
        而当单雨走投无路时,遇到计然(魏鹏 饰)和他的女朋友井水(陈圆媛 饰),结果他们都成了另一个人的追击目标。于是,在山间、在公路上,一场生死博弈和人性较量就此展开…… x8B}ZIbT9  
G$"h&Xy1c  
General ;4\ 2.* s  
Format                         : MPEG-4 a5^] 20Fa  
Format profile                 : Base Media ~vhE|f  
Codec ID                       : isom `$IK`O  
File size                      : 3.63 GiB ?p{Nwl#  
Duration                       : 1h 26mn wW P}C D  
Overall bit rate mode          : Variable h2A <"w  
Overall bit rate               : 6 031 Kbps pU}(@oy  
Encoded date                   : UTC 2016-08-17 05:55:26 NiEUW.0  
Tagged date                    : UTC 2016-08-17 05:55:26 :RTC!spy  
Copyright                      : PPTV-2.4.0.(20,20)[1] \:'/'^=#|  
M/'sl;  
Video B]wk+8SMY.  
ID                             : 1 2wg5#i  
Format                         : AVC xt* 3'v  
Format/Info                    : Advanced Video Codec -Cpl?Io`r5  
Format profile                 : High@L4 e]"W!K cD9  
Format settings, CABAC         : Yes OZF rtc+  
Format settings, ReFrames      : 4 frames =o(5_S.u;  
Codec ID                       : avc1 XEp{VC@=  
Codec ID/Info                  : Advanced Video Coding !Pvf;rNI1T  
Duration                       : 1h 26mn 4B1v4g 8}  
Bit rate                       : 6 000 Kbps gCS<iBT(7  
Maximum bit rate               : 14.8 Mbps uBKgcpvTs  
Width                          : 1 920 pixels t9`.bx8  
Height                         : 1 080 pixels ZF8 yw(z   
Display aspect ratio           : 16:9 N)|yu1S  
Frame rate mode                : Constant ~ 'cmSiz-  
Frame rate                     : 25.000 fps 7kLz[N6Ll  
Color space                    : YUV KP^V>9q  
Chroma subsampling             : 4:2:0 jD]~ AwRJ  
Bit depth                      : 8 bits H5B:;g@  
Scan type                      : Progressive .GXBc  
Bits/(Pixel*Frame)             : 0.116 wk D^r(hiH  
Stream size                    : 3.52 GiB (97%) L#?Ek-  
Title                          : VideoByEZMediaEditor LgU_LcoM*  
Writing library                : x264()-core 129 - H.264/MPEG-4 dr}`H,X"3  
6dt]`zv/  
l`{\"#4  
Audio &j`}vg  
ID                             : 2 &X ):4  
Format                         : AAC ;-lXU0}&  
Format/Info                    : Advanced Audio Codec faX#**r  
Format profile                 : LC T^t#  c  
Codec ID                       : 40 DB|Y  
Duration                       : 1h 26mn ~9]hV7y5C  
Bit rate mode                  : Variable 3?9IJ5p  
Bit rate                       : 192 Kbps rig,mv  
Maximum bit rate               : 198 Kbps NjScc%@y  
Channel(s)                     : 2 channels 0B/,/KX  
Channel positions              : Front: L R ~O0 $Suv  
Sampling rate                  : 44.1 KHz  hoUD;3  
Compression mode               : Lossy x%m%_2%Z  
Stream size                    : 117 MiB (3%) "Mn6U-  
Title                          : Audio1- SiRaFj4s"  
Encoded date                   : UTC 2016-08-17 05:55:36 4<Utmr  
Tagged date                    : UTC 2016-08-17 05:55:37 ?k&Vy  
,t?B+$E  
Xll}x+'uZK  
C.yQ=\U2  
恐怖爱情故事之死亡公路.Horror.Love.Story.Wrong.Way.2016.1080p.WEB-DL.x264.AAC-Se.torrent (21 K) 下载次数:121