切换到宽版
  • 1028阅读
  • 0回复

恐怖爱情故事之死亡公路.Horror.Love.Story.Wrong.Way.2016.1080p.WEB-DL.x264.AAC-SeeHD [复制链接]

上一主题 下一主题
 

只看楼主 倒序阅读 使用道具 0 发表于: 2016-09-15
{@2+oOuYfN  
◎译  名  恐怖爱情故事之死亡公路     4w+AOWjd  
◎片  名  Horror Love Story Wrong Way E 3 % ~!ZC  
◎年  代  2016 ,ciX *F"  
◎国  家  中国大陆 iZG-ca  
◎类  别  悬疑/恐怖/犯罪 ~Eg]Auk7  
◎语  言  普通话   U,!qNi}  
◎字  幕  简体中文   q0 }u%Yz  
◎IMDb评分  N/A z I2DQ] 9  
◎IMDb链接  N/A vD8pVR+  
◎文件格式  x264 + AAC .F,l>wUNe  
◎视频尺寸  1920 x 1080 (9`dLw5  
◎文件大小  3.63 GiB lG-B) F  
◎片  长  1h 26mn ]$drBk86bh  
◎导  演  鸿水 Hong Shui RNc:qV<H  
◎主  演  冯可 Ke Feng ;h1hz^Wq  
                 牟雨晨  Yu-chen Mu Fj`k3~tUw  
                 高名扬  Ming-yang Gap QqQhQGV  
                 魏鹏  Peng Wei oJD]h/fQs  
                 张溯哲   Su-zhe Zhang CF>&mXg\  
                 陈圆媛  Yuan-yuan Chen /wEl\Kx  
                 郑沛琳  Pei-lin Zheng q;#AlquY@  
                 孙成程 Cheng-cheng Sun aB6/-T+ u  
                 李感  Gan Li @2T8H  
   &?y@`',a0{  
     B:X%k/{  
◎简   介 MB;rxUbhe3  
   wb9(aS4  
   :|9vMM^$  
        单雨(牟雨晨 饰)劈腿高大帅气的新欢乐侃(张尧 饰),闺蜜阻止未果;当单雨独自来到乐侃在山中的林中小屋时,却看到他正和一陌生女子翻云覆雨;单雨大怒,雨夜独自离开,不料各种匪夷所思的事件频发,乐侃和陌生女惨遭不幸,送单雨的黑车司机再次出现,把单雨带到荒郊野地后伸出魔爪;这一切都被一个人看在眼里…… I=dn]}b#P  
a+HK fK  
        而当单雨走投无路时,遇到计然(魏鹏 饰)和他的女朋友井水(陈圆媛 饰),结果他们都成了另一个人的追击目标。于是,在山间、在公路上,一场生死博弈和人性较量就此展开…… yf&_l^!  
S!PG7hK2  
General j_5&w Znq  
Format                         : MPEG-4 ?5CE<[  
Format profile                 : Base Media %~:\f#6  
Codec ID                       : isom d-b<_k{p  
File size                      : 3.63 GiB iT:i '\~  
Duration                       : 1h 26mn {J)%6eL?  
Overall bit rate mode          : Variable adu6`2 *$  
Overall bit rate               : 6 031 Kbps C&Q t*V#,  
Encoded date                   : UTC 2016-08-17 05:55:26 ~~|Iw=:  
Tagged date                    : UTC 2016-08-17 05:55:26 R`]@.i4tt  
Copyright                      : PPTV-2.4.0.(20,20)[1] c BqbbZyUk  
L{VnsY V  
Video qqo#H O  
ID                             : 1 $gnrd~v4e  
Format                         : AVC ]d[e  
Format/Info                    : Advanced Video Codec !U:&8Le  
Format profile                 : High@L4 Ms+ ekY)  
Format settings, CABAC         : Yes QuEX|h,F  
Format settings, ReFrames      : 4 frames ;%d<Uk?  
Codec ID                       : avc1 `uMc.:5\  
Codec ID/Info                  : Advanced Video Coding Io*H}$Gf  
Duration                       : 1h 26mn *lA+ -gkK*  
Bit rate                       : 6 000 Kbps ;6 W[%{  
Maximum bit rate               : 14.8 Mbps C-S>'\ |8  
Width                          : 1 920 pixels Uhr2"Nuuy  
Height                         : 1 080 pixels [K,P)V>K  
Display aspect ratio           : 16:9 S'^ q  
Frame rate mode                : Constant st* sv}  
Frame rate                     : 25.000 fps 5.ab/uk;M  
Color space                    : YUV 'm`}XGUBS  
Chroma subsampling             : 4:2:0 ,9d]-CuP;  
Bit depth                      : 8 bits uvJHkAi  
Scan type                      : Progressive 5qH*"i+|s  
Bits/(Pixel*Frame)             : 0.116 _BA; H+M  
Stream size                    : 3.52 GiB (97%) Wcc4/:`Hu  
Title                          : VideoByEZMediaEditor 5- GS@fY  
Writing library                : x264()-core 129 - H.264/MPEG-4 L3HC-  
#<==7X#  
O >+=c g  
Audio YFS6YA  
ID                             : 2 9tv,,I;iU  
Format                         : AAC , @UOj=  
Format/Info                    : Advanced Audio Codec RHBQgD$  
Format profile                 : LC $365VTh"  
Codec ID                       : 40 q=->) &D%  
Duration                       : 1h 26mn sM MtU@<x  
Bit rate mode                  : Variable 9vyf9QE;  
Bit rate                       : 192 Kbps 2? yo  
Maximum bit rate               : 198 Kbps ^CLQs;zXE  
Channel(s)                     : 2 channels b MD|  
Channel positions              : Front: L R w>9d^kU'  
Sampling rate                  : 44.1 KHz XX /s@C  
Compression mode               : Lossy d/yF}%0QI  
Stream size                    : 117 MiB (3%) ^wWbW&<Tg  
Title                          : Audio1- W;=Ae~  
Encoded date                   : UTC 2016-08-17 05:55:36 2<B'PR-??y  
Tagged date                    : UTC 2016-08-17 05:55:37 >Y8\f:KQ  
oDu6W9+  
hZHM5J~  
bKmwXDv'  
恐怖爱情故事之死亡公路.Horror.Love.Story.Wrong.Way.2016.1080p.WEB-DL.x264.AAC-Se.torrent (21 K) 下载次数:115