切换到宽版
  • 981阅读
  • 0回复

恐怖爱情故事之死亡公路.Horror.Love.Story.Wrong.Way.2016.1080p.WEB-DL.x264.AAC-SeeHD [复制链接]

上一主题 下一主题
 

只看楼主 倒序阅读 使用道具 0 发表于: 2016-09-15
Q+*o-  
◎译  名  恐怖爱情故事之死亡公路     ~9#\+[ d_  
◎片  名  Horror Love Story Wrong Way zjs@7LN  
◎年  代  2016 )zkk%mE/IM  
◎国  家  中国大陆 ]xBQ7Xqf|  
◎类  别  悬疑/恐怖/犯罪 n a])bBn  
◎语  言  普通话   ]i3 2-8%  
◎字  幕  简体中文   KGS=(z  
◎IMDb评分  N/A I9h?Z&n5  
◎IMDb链接  N/A -)(HG)3  
◎文件格式  x264 + AAC #>g]CRN  
◎视频尺寸  1920 x 1080 r4D*$H-rR  
◎文件大小  3.63 GiB  s de|t  
◎片  长  1h 26mn d\WnuQR[  
◎导  演  鸿水 Hong Shui xV @X%E  
◎主  演  冯可 Ke Feng "15mOW(!+  
                 牟雨晨  Yu-chen Mu i=#<0!m  
                 高名扬  Ming-yang Gap .-T^ S"`d|  
                 魏鹏  Peng Wei =ltT6of@o  
                 张溯哲   Su-zhe Zhang W6_/FkO  
                 陈圆媛  Yuan-yuan Chen /KFCq|;7s,  
                 郑沛琳  Pei-lin Zheng _[zO?Div[  
                 孙成程 Cheng-cheng Sun ' \Z54$  
                 李感  Gan Li fn>MOD!l  
   SE&J)Sj]  
     TXD\i Dq  
◎简   介 >y#<WB$i  
   (dvCejc^p  
   {.v-  
        单雨(牟雨晨 饰)劈腿高大帅气的新欢乐侃(张尧 饰),闺蜜阻止未果;当单雨独自来到乐侃在山中的林中小屋时,却看到他正和一陌生女子翻云覆雨;单雨大怒,雨夜独自离开,不料各种匪夷所思的事件频发,乐侃和陌生女惨遭不幸,送单雨的黑车司机再次出现,把单雨带到荒郊野地后伸出魔爪;这一切都被一个人看在眼里…… ,d'x]&a  
48nZ H=(Eh  
        而当单雨走投无路时,遇到计然(魏鹏 饰)和他的女朋友井水(陈圆媛 饰),结果他们都成了另一个人的追击目标。于是,在山间、在公路上,一场生死博弈和人性较量就此展开…… v@TP_Ka  
=t\HtAXn[  
General v>CA A"LH  
Format                         : MPEG-4 @JVax-N  
Format profile                 : Base Media hdJW#,xq  
Codec ID                       : isom #Y`GWT1==  
File size                      : 3.63 GiB Vi[* a  
Duration                       : 1h 26mn 422d4Zu  
Overall bit rate mode          : Variable NCbn< ojb  
Overall bit rate               : 6 031 Kbps DyIuM{Owj  
Encoded date                   : UTC 2016-08-17 05:55:26 #9uNJla  
Tagged date                    : UTC 2016-08-17 05:55:26 JJ[.K*dO  
Copyright                      : PPTV-2.4.0.(20,20)[1] FWcE\;%yVg  
me"}1REa  
Video gZF-zhnC  
ID                             : 1 BWV)> -V  
Format                         : AVC *J,VvO 9  
Format/Info                    : Advanced Video Codec J@ZIW%5  
Format profile                 : High@L4 ?G%C}8a  
Format settings, CABAC         : Yes E Mq P  
Format settings, ReFrames      : 4 frames >J,Rx!fq3  
Codec ID                       : avc1 RuSKJ,T:9  
Codec ID/Info                  : Advanced Video Coding ]JF>a_2wG  
Duration                       : 1h 26mn f-&4x_5  
Bit rate                       : 6 000 Kbps \7o&'zEw  
Maximum bit rate               : 14.8 Mbps S)ZcH  
Width                          : 1 920 pixels PLlad\  
Height                         : 1 080 pixels hF|N81T  
Display aspect ratio           : 16:9 #m [R1G#  
Frame rate mode                : Constant yXyL,R  
Frame rate                     : 25.000 fps 6wK>SW)#&j  
Color space                    : YUV w ;+x g  
Chroma subsampling             : 4:2:0 U7i WYdt$  
Bit depth                      : 8 bits DtLga[M  
Scan type                      : Progressive 5'=\$Ob  
Bits/(Pixel*Frame)             : 0.116 w@,Yj#_9cx  
Stream size                    : 3.52 GiB (97%) vJTdZ p  
Title                          : VideoByEZMediaEditor yh~*Kt]9Ya  
Writing library                : x264()-core 129 - H.264/MPEG-4 %i[G6+-  
%<c2jvn+k  
[H ^ ktF  
Audio ;>YLL}]j  
ID                             : 2 ,`kag~bZ  
Format                         : AAC OI:G~Wg  
Format/Info                    : Advanced Audio Codec g:&YSjO>G  
Format profile                 : LC KU:RS+,e;  
Codec ID                       : 40 ((OQs.  
Duration                       : 1h 26mn &GMBvmP  
Bit rate mode                  : Variable ;nS.t_UW.  
Bit rate                       : 192 Kbps I|&<!{Rq  
Maximum bit rate               : 198 Kbps o3C7JG  
Channel(s)                     : 2 channels C]/]ot0%t  
Channel positions              : Front: L R 0m8mHJ<&  
Sampling rate                  : 44.1 KHz y~eQVnH5W  
Compression mode               : Lossy ktE~)G  
Stream size                    : 117 MiB (3%) .T;:6/??1  
Title                          : Audio1- UYOveQ;  
Encoded date                   : UTC 2016-08-17 05:55:36 rBY)rUDd4  
Tagged date                    : UTC 2016-08-17 05:55:37 -lICoRO#  
3(?V!y{@  
LdAWCBLS  
&|6 A 8,  
恐怖爱情故事之死亡公路.Horror.Love.Story.Wrong.Way.2016.1080p.WEB-DL.x264.AAC-Se.torrent (21 K) 下载次数:109