切换到宽版
  • 519阅读
  • 0回复

恐怖爱情故事之死亡公路.Horror.Love.Story.Wrong.Way.2016.1080p.WEB-DL.x264.AAC-SeeHD [复制链接]

上一主题 下一主题
 

只看楼主 倒序阅读 使用道具 0 发表于: 2016-09-15
^~1<f1(  
◎译  名  恐怖爱情故事之死亡公路     Ur3m[07H  
◎片  名  Horror Love Story Wrong Way 2hq\n<  
◎年  代  2016 p$XKlg&  
◎国  家  中国大陆 ? JXa~.dA  
◎类  别  悬疑/恐怖/犯罪 9 <\`nm  
◎语  言  普通话   5k$vlC#[H  
◎字  幕  简体中文   N'?u1P4G  
◎IMDb评分  N/A 8@eOTzm  
◎IMDb链接  N/A # {PmNx%M  
◎文件格式  x264 + AAC \Y5W!.(%w  
◎视频尺寸  1920 x 1080 n>FY?  
◎文件大小  3.63 GiB _A'{la~k  
◎片  长  1h 26mn ea9oakF  
◎导  演  鸿水 Hong Shui Dl,`\b@Fw3  
◎主  演  冯可 Ke Feng orfp>B) 0  
                 牟雨晨  Yu-chen Mu 4XJiI a?  
                 高名扬  Ming-yang Gap : ]II-$/8  
                 魏鹏  Peng Wei /nQ`&q  
                 张溯哲   Su-zhe Zhang m;,xmEp  
                 陈圆媛  Yuan-yuan Chen ~ ?^/u8  
                 郑沛琳  Pei-lin Zheng 1[PMDS_X  
                 孙成程 Cheng-cheng Sun ^}$O|t  
                 李感  Gan Li ^jSsa  
   jndGiMA  
     3z8C  
◎简   介 zP)~a  
   'Jj=RAV`  
   "484 n/D  
        单雨(牟雨晨 饰)劈腿高大帅气的新欢乐侃(张尧 饰),闺蜜阻止未果;当单雨独自来到乐侃在山中的林中小屋时,却看到他正和一陌生女子翻云覆雨;单雨大怒,雨夜独自离开,不料各种匪夷所思的事件频发,乐侃和陌生女惨遭不幸,送单雨的黑车司机再次出现,把单雨带到荒郊野地后伸出魔爪;这一切都被一个人看在眼里…… I'!/[\_  
|ys0`Vb=$  
        而当单雨走投无路时,遇到计然(魏鹏 饰)和他的女朋友井水(陈圆媛 饰),结果他们都成了另一个人的追击目标。于是,在山间、在公路上,一场生死博弈和人性较量就此展开…… <L0#O(L  
>U!*y4  
General m$2<`C =  
Format                         : MPEG-4 nsuX*C7  
Format profile                 : Base Media  zGlZ!t:  
Codec ID                       : isom |U' I/A  
File size                      : 3.63 GiB m`A% p  
Duration                       : 1h 26mn iCQ>@P]nE  
Overall bit rate mode          : Variable AC- )BM';  
Overall bit rate               : 6 031 Kbps 6 ,b"  
Encoded date                   : UTC 2016-08-17 05:55:26 l.=p8-/$'7  
Tagged date                    : UTC 2016-08-17 05:55:26 lCT{v@pp  
Copyright                      : PPTV-2.4.0.(20,20)[1] 1Y j~fb(  
V-yUJ#f8[  
Video mI1H!  
ID                             : 1 E8[T   
Format                         : AVC HLK@xKD<  
Format/Info                    : Advanced Video Codec >bo'Y9C  
Format profile                 : High@L4 $iw%(H  
Format settings, CABAC         : Yes % ZU/x d  
Format settings, ReFrames      : 4 frames s][24)99  
Codec ID                       : avc1 -7qIToO.  
Codec ID/Info                  : Advanced Video Coding SX0_v_%M  
Duration                       : 1h 26mn \3YO<E!t  
Bit rate                       : 6 000 Kbps )X+mV  
Maximum bit rate               : 14.8 Mbps #/S {6c  
Width                          : 1 920 pixels *?p|F&J  
Height                         : 1 080 pixels \_6OCVil  
Display aspect ratio           : 16:9 YUWn;#  
Frame rate mode                : Constant u ,. 3  
Frame rate                     : 25.000 fps #o`Ny4sq/  
Color space                    : YUV <c N~jv-w$  
Chroma subsampling             : 4:2:0 A#wEuX=[  
Bit depth                      : 8 bits jH;Du2w  
Scan type                      : Progressive 8T[ 6J{|C  
Bits/(Pixel*Frame)             : 0.116 gk0.zz([  
Stream size                    : 3.52 GiB (97%) m!n/U-^  
Title                          : VideoByEZMediaEditor ~EiH-z4U  
Writing library                : x264()-core 129 - H.264/MPEG-4 k`KGB  
w*7|dZk{  
Rfb?f} j  
Audio \ gwXH  
ID                             : 2 IXLO>>`  
Format                         : AAC :fcM:w&  
Format/Info                    : Advanced Audio Codec :Sg&0Wj+#j  
Format profile                 : LC -;(Q1)&  
Codec ID                       : 40 f7urJ'!V  
Duration                       : 1h 26mn j-@kW'K  
Bit rate mode                  : Variable RSfM]w}Hq#  
Bit rate                       : 192 Kbps <Cpp?DW_  
Maximum bit rate               : 198 Kbps Fe&qwq"  
Channel(s)                     : 2 channels +Lm4kA+aE5  
Channel positions              : Front: L R }l0&a!C  
Sampling rate                  : 44.1 KHz kfb/n)b'  
Compression mode               : Lossy :t$aN|>y  
Stream size                    : 117 MiB (3%)  v9RW5  
Title                          : Audio1- 7v}x?I  
Encoded date                   : UTC 2016-08-17 05:55:36 hn)a@  
Tagged date                    : UTC 2016-08-17 05:55:37 $P o}  
`iKj  
oP?YA-#nc  
zJlQ_U-!  
恐怖爱情故事之死亡公路.Horror.Love.Story.Wrong.Way.2016.1080p.WEB-DL.x264.AAC-Se.torrent (21 K) 下载次数:75