切换到宽版
  • 942阅读
  • 0回复

快手枪手快枪手/烧云/快手·枪手·快枪手/龙城计中计.For A Few Bullets 2016 1080p WEB-DL x264 AAC-SeeHD [复制链接]

上一主题 下一主题
 

只看楼主 倒序阅读 使用道具 0 发表于: 2016-08-21
7"F29\  
◎译  名 快手枪手快枪手/烧云/快手·枪手·快枪手/龙城计中计 4fL`.n1^  
◎片  名 For A Few Bullets %/ctt_p0x  
◎年  代 2016 d^f rKPB  
◎国  家  中国大陆 T.jCF~%7F  
◎类  别  喜剧/动作 S9{A}+"K  
◎语  言  普通话 PW82 Vp.  
◎字  幕  简体中文/英文 )N*Jc @Y@  
◎IMDb评分  5.3/10 from 8 users   MT7B'hd  
◎IMDb链接  http://www.imdb.com/title/tt5882704/ QIg'js$W  
◎文件格式  x264 + AAC w {"1V7|  
◎视频尺寸  1920 x 1080 &36SX<vZ  
◎文件大小  4.94 GiB 5 5m\, UG7  
◎片  长  1h 55mn g+5c"Yk+u~  
◎导  演 潘安子 Anzi Pan NJ]3qH  
◎主  演 林更新 kenny Lin   小庄 XT4Gz|k  
      张静初  Jingchu Zhang   李若云 lj UdsUw  
      腾格尔  Tenggeer   石佛 [h 8s0  
      刘晓庆  Xiaoqing Liu   金三娘 Ij$C@hH  
      锦荣  Vivian Dawson   宋静之 *AYq :n6  
      曾江  Kenneth Tsang ;1s+1G}_z  
      韩朴俊  Piao-jun Han 6i2%EC9  
      韩秋池  Qiuchi Han loO"[8i.k  
      施予斐  Yufei Shi 1`YU9?  
      郭冬冬  Dongdong Guo Dz Q  
     JhfVm*,  
     AYgXqmH~+  
◎简     介 Yj#tF}nPC  
8;V9 %h`P>  
     市井骗子小庄(林更新 饰)机智却爱耍小聪明,以一双“快手”行走江湖,赌局中被“枪手”李若云(张静初 饰)威胁,踏上找回传国玉玺的寻宝之路。途中二人默契配合,与老顽童石佛(腾格尔 饰)、金三娘(刘晓庆 饰)夫妻二人组成“夺宝者联盟”,与觊觎国宝的宋静之(锦荣 饰)等斗智斗勇,夺宝途中一段段故事让人啼笑皆非…… -(t7 >s  
K)BQ0v.:[  
i'7+ ?YL  
General 2o zh!8aL  
Format                         : MPEG-4 T!8^R|!a6  
Format profile                 : Base Media  UXs)$  
Codec ID                       : isom wWy;dma#  
File size                      : 4.94 GiB }!AS?  
Duration                       : 1h 55mn KWZhCS?[(  
Overall bit rate mode          : Variable G$>QH-p  
Overall bit rate               : 6 142 Kbps  }:Gs ,  
Encoded date                   : UTC 2016-08-12 11:22:36 USEb} M`  
Tagged date                    : UTC 2016-08-12 11:22:36 ?%h$deJ  
Copyright                      : PPTV-2.4.0.(20,20)[1] d<6F'F^w.7  
D]]wJQU2  
Video @kqxN\DE  
ID                             : 1 y=Kqv^  
Format                         : AVC kIVQ2hmv  
Format/Info                    : Advanced Video Codec 4P&2Z0  
Format profile                 : High@L4 !g9k9 l  
Format settings, CABAC         : Yes MQQm3VaKS  
Format settings, ReFrames      : 4 frames Lr:Qc#2  
Codec ID                       : avc1 y %Q. (  
Codec ID/Info                  : Advanced Video Coding  Zgo~"G  
Duration                       : 1h 55mn `8ac;b  
Bit rate                       : 6 000 Kbps ~w+I2oS$  
Maximum bit rate               : 13.7 Mbps ];OvV ,*  
Width                          : 1 920 pixels ;:fW]5"R  
Height                         : 1 080 pixels (4T0U5jgT  
Display aspect ratio           : 16:9 ( Jk& U8y  
Frame rate mode                : Constant AJbCC  
Frame rate                     : 25.000 fps sD:o 2(G*  
Color space                    : YUV nt#9j',6Rn  
Chroma subsampling             : 4:2:0 U`%t&7)  
Bit depth                      : 8 bits H OR8Jwf:  
Scan type                      : Progressive "XR=P> xk  
Bits/(Pixel*Frame)             : 0.116  X0VS a{  
Stream size                    : 4.78 GiB (97%) 3m1(l?fp  
Title                          : VideoByEZMediaEditor #i[:oC6m:  
Writing library                : x264()-core 129 - H.264/MPEG-4 kAQ(8xV  
Encoding settings              : cabac=1 / ref=4 / deblock=1:0:0 / analyse=0x3:0x133 / me=umh / subme=9 / psy=1 / psy_rd=0.00:0.00 / mixed_ref=1 / me_range=24 / chroma_me=1 / trellis=2 / 8x8dct=1 / cqm=0 / deadzone=21,11 / fast_pskip=0 / chroma_qp_offset=0 / threads=40 / lookahead_threads=6 / sliced_threads=0 / nr=0 / decimate=1 / interlaced=0 / bluray_compat=0 / constrained_intra=0 / bframes=4 / b_pyramid=2 / b_adapt=0 / b_bias=0 / direct=3 / weightb=1 / open_gop=0 / weightp=2 / keyint=250 / keyint_min=25 / scenecut=40 / intra_refresh=0 / rc_lookahead=60 / rc=abr / mbtree=1 / bitrate=6000 / ratetol=1.0 / qcomp=0.60 / qpmin=0 / qpmax=69 / qpstep=4 / vbv_maxrate=12000 / vbv_bufsize=6000 / nal_hrd=none / ip_ratio=1.40 / aq=1:1.00 R}ki%i5|  
Encoded date                   : UTC 2016-08-12 11:22:36 Io1j%T#ZT  
Tagged date                    : UTC 2016-08-12 11:23:21 m2c'r3UEu  
jYHnJ}<  
Audio YYv0cV{E  
ID                             : 2 s;BMj^x  
Format                         : AAC 2.D2 o  
Format/Info                    : Advanced Audio Codec c ZYy+  
Format profile                 : LC K(EJ`2]:r  
Codec ID                       : 40 b=,B Le\  
Duration                       : 1h 55mn f#0HiE!  
Bit rate mode                  : Variable  U?*zb  
Bit rate                       : 192 Kbps 7q ?ZieR  
Maximum bit rate               : 199 Kbps  }QFL  
Channel(s)                     : 2 channels hdPGqJE  
Channel positions              : Front: L R r#sg5aS7O|  
Sampling rate                  : 44.1 KHz q Gk.7wf%  
Compression mode               : Lossy jHFjd'  
Stream size                    : 156 MiB (3%) )|~& (+Q?]  
Title                          : Audio1- AxH;psj  
Encoded date                   : UTC 2016-08-12 11:23:19 (a[BvJf  
Tagged date                    : UTC 2016-08-12 11:23:21 -9b=-K.y  
7Qd4L.  
Kxsd@^E  
x{1 v(n8+=  
快手枪手快枪手 烧云 快手·枪手·快枪手 龙城计中计.For A Few Bullets 2016 1080p W.torrent (27 K) 下载次数:96