切换到宽版
  • 726阅读
  • 0回复

快手枪手快枪手/烧云/快手·枪手·快枪手/龙城计中计.For A Few Bullets 2016 1080p WEB-DL x264 AAC-SeeHD [复制链接]

上一主题 下一主题
 

只看楼主 倒序阅读 使用道具 0 发表于: 2016-08-21
d v4~CW%Td  
◎译  名 快手枪手快枪手/烧云/快手·枪手·快枪手/龙城计中计 \hBzQ%0  
◎片  名 For A Few Bullets gDJ} <^  
◎年  代 2016  zv"NbN  
◎国  家  中国大陆 V}`ri~  
◎类  别  喜剧/动作 M4|ION  
◎语  言  普通话 NVQ.;"2w  
◎字  幕  简体中文/英文 $J<WFDn9  
◎IMDb评分  5.3/10 from 8 users   \>9^(N  
◎IMDb链接  http://www.imdb.com/title/tt5882704/ ~[F7M{LS  
◎文件格式  x264 + AAC h}tC +_"D  
◎视频尺寸  1920 x 1080 e2fv  %  
◎文件大小  4.94 GiB nWc@ufY  
◎片  长  1h 55mn 7m%12=Im5  
◎导  演 潘安子 Anzi Pan o; 6^:  
◎主  演 林更新 kenny Lin   小庄 P B-x_D  
      张静初  Jingchu Zhang   李若云 +tt!xfy  
      腾格尔  Tenggeer   石佛 '5Kj "aD%  
      刘晓庆  Xiaoqing Liu   金三娘 \ -Xtb m  
      锦荣  Vivian Dawson   宋静之 *qYw  
      曾江  Kenneth Tsang o&M.9V?~~  
      韩朴俊  Piao-jun Han UlNiH  
      韩秋池  Qiuchi Han >\~Er@  
      施予斐  Yufei Shi ,o0Kevz  
      郭冬冬  Dongdong Guo a* }>yad  
     y8C8~-&OK  
     U8gj \G\`  
◎简     介 #Muh|P]%\  
Xf"< >M  
     市井骗子小庄(林更新 饰)机智却爱耍小聪明,以一双“快手”行走江湖,赌局中被“枪手”李若云(张静初 饰)威胁,踏上找回传国玉玺的寻宝之路。途中二人默契配合,与老顽童石佛(腾格尔 饰)、金三娘(刘晓庆 饰)夫妻二人组成“夺宝者联盟”,与觊觎国宝的宋静之(锦荣 饰)等斗智斗勇,夺宝途中一段段故事让人啼笑皆非…… v>nBdpjXh  
SmvMjZ+7Y  
6WIs*$T2*  
General d@$bPQQ$,  
Format                         : MPEG-4 o~CEja &(  
Format profile                 : Base Media G; exH$y  
Codec ID                       : isom (GGosXU-v  
File size                      : 4.94 GiB >z /.8!#Q  
Duration                       : 1h 55mn IG\Cj7{K^  
Overall bit rate mode          : Variable ? F!c"+C  
Overall bit rate               : 6 142 Kbps 4M]l~9;A  
Encoded date                   : UTC 2016-08-12 11:22:36 A)j!Wgs^z  
Tagged date                    : UTC 2016-08-12 11:22:36 tux0}|[^'  
Copyright                      : PPTV-2.4.0.(20,20)[1] (C uM*-  
G9am}qr  
Video ~:0w%  
ID                             : 1 SYf1dbc..u  
Format                         : AVC E y9rH_  
Format/Info                    : Advanced Video Codec NOkgG0Z  
Format profile                 : High@L4 &%@O V:C  
Format settings, CABAC         : Yes %{ 3q=9ii  
Format settings, ReFrames      : 4 frames I S'Uuuz7g  
Codec ID                       : avc1 .L;e:cvx  
Codec ID/Info                  : Advanced Video Coding 7hu7rWY`E  
Duration                       : 1h 55mn D*PEIsV  
Bit rate                       : 6 000 Kbps 2P^qZDG 8I  
Maximum bit rate               : 13.7 Mbps 7Nk|9t  
Width                          : 1 920 pixels u3,O)[qV  
Height                         : 1 080 pixels |#SZd Xg  
Display aspect ratio           : 16:9 -/Wf iE  
Frame rate mode                : Constant h9}*_qc&kV  
Frame rate                     : 25.000 fps U~"Y8g#qgy  
Color space                    : YUV WK7?~R%rq  
Chroma subsampling             : 4:2:0 g3{UP]Z71  
Bit depth                      : 8 bits :{lP9%J-  
Scan type                      : Progressive )i[Vq|n  
Bits/(Pixel*Frame)             : 0.116 to,\n"$~!  
Stream size                    : 4.78 GiB (97%) <LXx_{=:  
Title                          : VideoByEZMediaEditor v3X M-+Z4  
Writing library                : x264()-core 129 - H.264/MPEG-4 ,5ZQPICF  
Encoding settings              : cabac=1 / ref=4 / deblock=1:0:0 / analyse=0x3:0x133 / me=umh / subme=9 / psy=1 / psy_rd=0.00:0.00 / mixed_ref=1 / me_range=24 / chroma_me=1 / trellis=2 / 8x8dct=1 / cqm=0 / deadzone=21,11 / fast_pskip=0 / chroma_qp_offset=0 / threads=40 / lookahead_threads=6 / sliced_threads=0 / nr=0 / decimate=1 / interlaced=0 / bluray_compat=0 / constrained_intra=0 / bframes=4 / b_pyramid=2 / b_adapt=0 / b_bias=0 / direct=3 / weightb=1 / open_gop=0 / weightp=2 / keyint=250 / keyint_min=25 / scenecut=40 / intra_refresh=0 / rc_lookahead=60 / rc=abr / mbtree=1 / bitrate=6000 / ratetol=1.0 / qcomp=0.60 / qpmin=0 / qpmax=69 / qpstep=4 / vbv_maxrate=12000 / vbv_bufsize=6000 / nal_hrd=none / ip_ratio=1.40 / aq=1:1.00 3b]M\ F9  
Encoded date                   : UTC 2016-08-12 11:22:36 Z(Y:  
Tagged date                    : UTC 2016-08-12 11:23:21 C&*1H`n  
'x"(OdM:[  
Audio Ov?J"B'F  
ID                             : 2 +Y~5197V  
Format                         : AAC &{+0a[rN  
Format/Info                    : Advanced Audio Codec 4G&dB H  
Format profile                 : LC $YcB=l  
Codec ID                       : 40 9`Fw}yAt  
Duration                       : 1h 55mn Rc1k_fZ}  
Bit rate mode                  : Variable S 593wfc  
Bit rate                       : 192 Kbps Rq[d\BN0.d  
Maximum bit rate               : 199 Kbps hEsi AbTyF  
Channel(s)                     : 2 channels GfEWms8z  
Channel positions              : Front: L R ) =29Hm"  
Sampling rate                  : 44.1 KHz 6b'.WB]-  
Compression mode               : Lossy 7>F{.\Z  
Stream size                    : 156 MiB (3%) p`c_5!H  
Title                          : Audio1- 6:Z8d%Z  
Encoded date                   : UTC 2016-08-12 11:23:19 3Ioe#*5\  
Tagged date                    : UTC 2016-08-12 11:23:21 +?m.uY(  
[p`5$\e  
(A6~mi r!  
ozRTY9S _;  
快手枪手快枪手 烧云 快手·枪手·快枪手 龙城计中计.For A Few Bullets 2016 1080p W.torrent (27 K) 下载次数:71