切换到宽版
  • 802阅读
  • 0回复

快手枪手快枪手/烧云/快手·枪手·快枪手/龙城计中计.For A Few Bullets 2016 1080p WEB-DL x264 AAC-SeeHD [复制链接]

上一主题 下一主题
 

只看楼主 倒序阅读 使用道具 0 发表于: 2016-08-21
f[z#=zv  
◎译  名 快手枪手快枪手/烧云/快手·枪手·快枪手/龙城计中计 =e4,)Wd9&  
◎片  名 For A Few Bullets :gR`rc!  
◎年  代 2016 'r-a:8:t^  
◎国  家  中国大陆 OtC/) sX  
◎类  别  喜剧/动作 * "E]^wCn  
◎语  言  普通话 0wc+<CUW  
◎字  幕  简体中文/英文 O[ N{&\$  
◎IMDb评分  5.3/10 from 8 users   ! |}>Y  
◎IMDb链接  http://www.imdb.com/title/tt5882704/ 9eV@v  
◎文件格式  x264 + AAC Obw uyhjQ  
◎视频尺寸  1920 x 1080 Yu8WmX,[  
◎文件大小  4.94 GiB ZGS=;jM  
◎片  长  1h 55mn EswM#D 9(4  
◎导  演 潘安子 Anzi Pan \Q#F&q0  
◎主  演 林更新 kenny Lin   小庄 {}.c.W+  
      张静初  Jingchu Zhang   李若云 KLoHjBq  
      腾格尔  Tenggeer   石佛 pE=wP/#  
      刘晓庆  Xiaoqing Liu   金三娘 |#S!qnXB  
      锦荣  Vivian Dawson   宋静之 \Oc3rJ(  
      曾江  Kenneth Tsang l5aQDkp}  
      韩朴俊  Piao-jun Han l lQ<x  
      韩秋池  Qiuchi Han wi&m(f(~  
      施予斐  Yufei Shi `]fY9ZDKs  
      郭冬冬  Dongdong Guo 'vh:(-  
     (g   
     DB?[h<^m  
◎简     介 n9)/( =)>*  
WJ mj|$D  
     市井骗子小庄(林更新 饰)机智却爱耍小聪明,以一双“快手”行走江湖,赌局中被“枪手”李若云(张静初 饰)威胁,踏上找回传国玉玺的寻宝之路。途中二人默契配合,与老顽童石佛(腾格尔 饰)、金三娘(刘晓庆 饰)夫妻二人组成“夺宝者联盟”,与觊觎国宝的宋静之(锦荣 饰)等斗智斗勇,夺宝途中一段段故事让人啼笑皆非…… JNZKzyJ9K  
Q:%gJ6pa  
wD*_S}]  
General `B^?Za,xN  
Format                         : MPEG-4 yvVs9"|0  
Format profile                 : Base Media ^^v\ T  
Codec ID                       : isom a1s=t_wT  
File size                      : 4.94 GiB zRu}lJ1#W$  
Duration                       : 1h 55mn p[W8XX  
Overall bit rate mode          : Variable 9g>ay-W[(  
Overall bit rate               : 6 142 Kbps Um*{~=;u  
Encoded date                   : UTC 2016-08-12 11:22:36 m+1MoeR  
Tagged date                    : UTC 2016-08-12 11:22:36 G66vzwO   
Copyright                      : PPTV-2.4.0.(20,20)[1] mvYr"6f8  
MF=@PE][  
Video rJR"[TTJ  
ID                             : 1 l'$AmuGj  
Format                         : AVC > Y LwWU<X  
Format/Info                    : Advanced Video Codec FCOSgEU  
Format profile                 : High@L4 ]x ~H"<V  
Format settings, CABAC         : Yes V}3.K\7  
Format settings, ReFrames      : 4 frames "&7v.-Y k(  
Codec ID                       : avc1 (3W<yAM+  
Codec ID/Info                  : Advanced Video Coding {GZHD^C e  
Duration                       : 1h 55mn J#bEAK^L,l  
Bit rate                       : 6 000 Kbps HSyohP87  
Maximum bit rate               : 13.7 Mbps qA&N6`  
Width                          : 1 920 pixels ]W]Vkkg]  
Height                         : 1 080 pixels fU$zG"a_  
Display aspect ratio           : 16:9 ZSHc@r*>  
Frame rate mode                : Constant ?. CA9!|   
Frame rate                     : 25.000 fps Z1*y$=D?3[  
Color space                    : YUV o D^],  
Chroma subsampling             : 4:2:0 C  <]rY  
Bit depth                      : 8 bits 1P&c:n  
Scan type                      : Progressive hCc I >[H5  
Bits/(Pixel*Frame)             : 0.116 O /aC%%  
Stream size                    : 4.78 GiB (97%) k4s >sd3 5  
Title                          : VideoByEZMediaEditor fMd]P:B  
Writing library                : x264()-core 129 - H.264/MPEG-4 L1M]ya!l  
Encoding settings              : cabac=1 / ref=4 / deblock=1:0:0 / analyse=0x3:0x133 / me=umh / subme=9 / psy=1 / psy_rd=0.00:0.00 / mixed_ref=1 / me_range=24 / chroma_me=1 / trellis=2 / 8x8dct=1 / cqm=0 / deadzone=21,11 / fast_pskip=0 / chroma_qp_offset=0 / threads=40 / lookahead_threads=6 / sliced_threads=0 / nr=0 / decimate=1 / interlaced=0 / bluray_compat=0 / constrained_intra=0 / bframes=4 / b_pyramid=2 / b_adapt=0 / b_bias=0 / direct=3 / weightb=1 / open_gop=0 / weightp=2 / keyint=250 / keyint_min=25 / scenecut=40 / intra_refresh=0 / rc_lookahead=60 / rc=abr / mbtree=1 / bitrate=6000 / ratetol=1.0 / qcomp=0.60 / qpmin=0 / qpmax=69 / qpstep=4 / vbv_maxrate=12000 / vbv_bufsize=6000 / nal_hrd=none / ip_ratio=1.40 / aq=1:1.00 / [:@j+n\  
Encoded date                   : UTC 2016-08-12 11:22:36 _ 4pBJOJQ6  
Tagged date                    : UTC 2016-08-12 11:23:21 R )ejIKtY  
<?QY\wyikz  
Audio |fq1Mn8  
ID                             : 2 ' ^n2]<  
Format                         : AAC uB0/H=<H  
Format/Info                    : Advanced Audio Codec J?u",a]|H"  
Format profile                 : LC IZniRd;  
Codec ID                       : 40 vY6eg IO  
Duration                       : 1h 55mn A'p"FYlCW  
Bit rate mode                  : Variable 5fM/y3QPsZ  
Bit rate                       : 192 Kbps lB.P   
Maximum bit rate               : 199 Kbps 7[^:[OEE  
Channel(s)                     : 2 channels w=y!|F  
Channel positions              : Front: L R 5c`DkWne%  
Sampling rate                  : 44.1 KHz 8kX3.X`  
Compression mode               : Lossy ^=}~   
Stream size                    : 156 MiB (3%) hPP+lqY[  
Title                          : Audio1- 9kWyO:a_(  
Encoded date                   : UTC 2016-08-12 11:23:19 3U d&B  
Tagged date                    : UTC 2016-08-12 11:23:21 s>E4.0[I%  
XBdC/DM[  
!nC Z,  
L*Xn!d%  
快手枪手快枪手 烧云 快手·枪手·快枪手 龙城计中计.For A Few Bullets 2016 1080p W.torrent (27 K) 下载次数:95