切换到宽版
  • 769阅读
  • 0回复

快手枪手快枪手/烧云/快手·枪手·快枪手/龙城计中计.For A Few Bullets 2016 1080p WEB-DL x264 AAC-SeeHD [复制链接]

上一主题 下一主题
 

只看楼主 倒序阅读 使用道具 0 发表于: 2016-08-21
*gKr1}M  
◎译  名 快手枪手快枪手/烧云/快手·枪手·快枪手/龙城计中计 ;<Q_4 V  
◎片  名 For A Few Bullets &0blHDMj{#  
◎年  代 2016 uSbg*OA  
◎国  家  中国大陆 Y`RfE  
◎类  别  喜剧/动作 >.A:6  
◎语  言  普通话 tt91)^GdYa  
◎字  幕  简体中文/英文 XP1_{\  
◎IMDb评分  5.3/10 from 8 users   :H 7 "W<  
◎IMDb链接  http://www.imdb.com/title/tt5882704/ 43fA;Uc{Y`  
◎文件格式  x264 + AAC ]+S QS^4  
◎视频尺寸  1920 x 1080 IVKE dwA  
◎文件大小  4.94 GiB y-> iv%  
◎片  长  1h 55mn [J#(k`@  
◎导  演 潘安子 Anzi Pan Rx<F^J  
◎主  演 林更新 kenny Lin   小庄 P$yJA7]j;%  
      张静初  Jingchu Zhang   李若云 >sk S`/6  
      腾格尔  Tenggeer   石佛 /+7L`KPD  
      刘晓庆  Xiaoqing Liu   金三娘 ' ga2C\)  
      锦荣  Vivian Dawson   宋静之 YG|T;/-  
      曾江  Kenneth Tsang iE5^Xik ,  
      韩朴俊  Piao-jun Han _!D$Aj  
      韩秋池  Qiuchi Han  Q.yoxq  
      施予斐  Yufei Shi `XP Tf#9j  
      郭冬冬  Dongdong Guo Wov_jVdN\  
     K} @:>;* 9  
     l+,rc*-j0  
◎简     介 Z5K,y19/~  
$+j )  
     市井骗子小庄(林更新 饰)机智却爱耍小聪明,以一双“快手”行走江湖,赌局中被“枪手”李若云(张静初 饰)威胁,踏上找回传国玉玺的寻宝之路。途中二人默契配合,与老顽童石佛(腾格尔 饰)、金三娘(刘晓庆 饰)夫妻二人组成“夺宝者联盟”,与觊觎国宝的宋静之(锦荣 饰)等斗智斗勇,夺宝途中一段段故事让人啼笑皆非…… N3)EG6vE*  
`pr,lL  
#c_ZU\" h"  
General aDESO5  
Format                         : MPEG-4 {s]eXc]K}  
Format profile                 : Base Media e$Ej7_.#;  
Codec ID                       : isom >?tpGEZ\  
File size                      : 4.94 GiB UF tTt`N2  
Duration                       : 1h 55mn xe' *%3-v)  
Overall bit rate mode          : Variable 2 Qy&V/E ?  
Overall bit rate               : 6 142 Kbps uU0'y4=  
Encoded date                   : UTC 2016-08-12 11:22:36 KAGq\7  
Tagged date                    : UTC 2016-08-12 11:22:36 ek<U2C_ u#  
Copyright                      : PPTV-2.4.0.(20,20)[1] 1?;s!6=  
|ONOF  
Video uWSG+  
ID                             : 1 fsu'W]f  
Format                         : AVC Zx6BK=4G  
Format/Info                    : Advanced Video Codec |dO1w.x/  
Format profile                 : High@L4 LdcP0G\"VG  
Format settings, CABAC         : Yes !#QD;,SE+  
Format settings, ReFrames      : 4 frames c8'?Dd  
Codec ID                       : avc1 % rkUy?=vu  
Codec ID/Info                  : Advanced Video Coding H3JWf MlW  
Duration                       : 1h 55mn pdM|dGq^  
Bit rate                       : 6 000 Kbps q;+qIV&.:  
Maximum bit rate               : 13.7 Mbps TAP /gN'  
Width                          : 1 920 pixels V'8 (}(s/  
Height                         : 1 080 pixels B; ~T|exu  
Display aspect ratio           : 16:9 ~b e&T:7.  
Frame rate mode                : Constant aDs[\ '  
Frame rate                     : 25.000 fps 4&tY5m>  
Color space                    : YUV x9a0J1Nb-h  
Chroma subsampling             : 4:2:0 3=z'Ih`  
Bit depth                      : 8 bits 8I*fPf  
Scan type                      : Progressive lPjgBp{/  
Bits/(Pixel*Frame)             : 0.116 % nR:Rc!  
Stream size                    : 4.78 GiB (97%) l#Iof)@#  
Title                          : VideoByEZMediaEditor U^.$k-|k  
Writing library                : x264()-core 129 - H.264/MPEG-4 L_/.b%0)  
Encoding settings              : cabac=1 / ref=4 / deblock=1:0:0 / analyse=0x3:0x133 / me=umh / subme=9 / psy=1 / psy_rd=0.00:0.00 / mixed_ref=1 / me_range=24 / chroma_me=1 / trellis=2 / 8x8dct=1 / cqm=0 / deadzone=21,11 / fast_pskip=0 / chroma_qp_offset=0 / threads=40 / lookahead_threads=6 / sliced_threads=0 / nr=0 / decimate=1 / interlaced=0 / bluray_compat=0 / constrained_intra=0 / bframes=4 / b_pyramid=2 / b_adapt=0 / b_bias=0 / direct=3 / weightb=1 / open_gop=0 / weightp=2 / keyint=250 / keyint_min=25 / scenecut=40 / intra_refresh=0 / rc_lookahead=60 / rc=abr / mbtree=1 / bitrate=6000 / ratetol=1.0 / qcomp=0.60 / qpmin=0 / qpmax=69 / qpstep=4 / vbv_maxrate=12000 / vbv_bufsize=6000 / nal_hrd=none / ip_ratio=1.40 / aq=1:1.00 Upf1*$p  
Encoded date                   : UTC 2016-08-12 11:22:36 ^7=yjD`  
Tagged date                    : UTC 2016-08-12 11:23:21 K}6}Opr,Tt  
x\)-4w<P  
Audio >LLFe~9`g  
ID                             : 2 s:M:Ff  
Format                         : AAC zg]9~i8  
Format/Info                    : Advanced Audio Codec XMpPG~XdN  
Format profile                 : LC #;+GNF}0mG  
Codec ID                       : 40 )x]/b=m  
Duration                       : 1h 55mn *5 wb8 [  
Bit rate mode                  : Variable gq/q]Fm\  
Bit rate                       : 192 Kbps VEJ Tw  
Maximum bit rate               : 199 Kbps L,n'G%  
Channel(s)                     : 2 channels Bp9 u6R  
Channel positions              : Front: L R ! @|"84  
Sampling rate                  : 44.1 KHz 4W6gKY  
Compression mode               : Lossy `g3H; E  
Stream size                    : 156 MiB (3%) ~u.CY  
Title                          : Audio1- /:l>yKI+~  
Encoded date                   : UTC 2016-08-12 11:23:19 @N34 Q-l  
Tagged date                    : UTC 2016-08-12 11:23:21 Y'58 .8hl  
Ymx/N+Jl  
G3m+E ;o1  
!Vy/-N  
快手枪手快枪手 烧云 快手·枪手·快枪手 龙城计中计.For A Few Bullets 2016 1080p W.torrent (27 K) 下载次数:91