切换到宽版
  • 526阅读
  • 0回复

快手枪手快枪手/烧云/快手·枪手·快枪手/龙城计中计.For A Few Bullets 2016 1080p WEB-DL x264 AAC-SeeHD [复制链接]

上一主题 下一主题
 

只看楼主 倒序阅读 使用道具 0 发表于: 2016-08-21
|Wg!> g!  
◎译  名 快手枪手快枪手/烧云/快手·枪手·快枪手/龙城计中计 w7%.EA{N  
◎片  名 For A Few Bullets 5$?)f&M  
◎年  代 2016 2CF5qn}T  
◎国  家  中国大陆 B'v~0Kau  
◎类  别  喜剧/动作 |V&E q>G  
◎语  言  普通话 R*`=Bk0+  
◎字  幕  简体中文/英文 h J H  
◎IMDb评分  5.3/10 from 8 users   #z5 $_z?_  
◎IMDb链接  http://www.imdb.com/title/tt5882704/ xFzaVjjP  
◎文件格式  x264 + AAC i*)BFV_-  
◎视频尺寸  1920 x 1080 j0~ dJ#  
◎文件大小  4.94 GiB b:Tv Ta  
◎片  长  1h 55mn 5 D <  
◎导  演 潘安子 Anzi Pan *AG01# ZF  
◎主  演 林更新 kenny Lin   小庄 =lmelo#m&  
      张静初  Jingchu Zhang   李若云 r`Bm" xI  
      腾格尔  Tenggeer   石佛 EEP&Y?  
      刘晓庆  Xiaoqing Liu   金三娘 'x,6t66*"l  
      锦荣  Vivian Dawson   宋静之  (,R\6  
      曾江  Kenneth Tsang 2t;3_C  
      韩朴俊  Piao-jun Han J6mUU3F9f  
      韩秋池  Qiuchi Han wWVB'MRXB,  
      施予斐  Yufei Shi (7C$'T-ZK  
      郭冬冬  Dongdong Guo +fN2%aC  
     z .+J\  
     &],O\TAul  
◎简     介 d~KTUgH'<  
@o6!  
     市井骗子小庄(林更新 饰)机智却爱耍小聪明,以一双“快手”行走江湖,赌局中被“枪手”李若云(张静初 饰)威胁,踏上找回传国玉玺的寻宝之路。途中二人默契配合,与老顽童石佛(腾格尔 饰)、金三娘(刘晓庆 饰)夫妻二人组成“夺宝者联盟”,与觊觎国宝的宋静之(锦荣 饰)等斗智斗勇,夺宝途中一段段故事让人啼笑皆非…… w>4( hGO  
bD=R/yA  
{S`Rr/E|%  
General P6)d#M  
Format                         : MPEG-4 l%qfaU2  
Format profile                 : Base Media O&Y22mu  
Codec ID                       : isom 8l<~zIoO  
File size                      : 4.94 GiB 0x # V   
Duration                       : 1h 55mn g&\;62lV%  
Overall bit rate mode          : Variable ypNeTR$4  
Overall bit rate               : 6 142 Kbps 9hgIQl  
Encoded date                   : UTC 2016-08-12 11:22:36 E)]emeG d  
Tagged date                    : UTC 2016-08-12 11:22:36 Z ZT2c0AK  
Copyright                      : PPTV-2.4.0.(20,20)[1] 1pqYB]*u_  
ppu<k N  
Video UMH~Q`"  
ID                             : 1 'cY @Dqg1  
Format                         : AVC ^y~oXS(  
Format/Info                    : Advanced Video Codec 7'5/T]Z  
Format profile                 : High@L4 mo]>Um'F  
Format settings, CABAC         : Yes #+^l3h MK  
Format settings, ReFrames      : 4 frames V3_qqz}`r  
Codec ID                       : avc1 Y5TBWcGU%  
Codec ID/Info                  : Advanced Video Coding _X)]/A%@  
Duration                       : 1h 55mn R!WeSgKCs  
Bit rate                       : 6 000 Kbps AI .2os*  
Maximum bit rate               : 13.7 Mbps UHDcheeRD  
Width                          : 1 920 pixels (; Zl  
Height                         : 1 080 pixels 'IER9%V$  
Display aspect ratio           : 16:9 R xWD>:  
Frame rate mode                : Constant !Tu.A@  
Frame rate                     : 25.000 fps XB%`5wwd  
Color space                    : YUV lqKwjJ tX  
Chroma subsampling             : 4:2:0 hy:K) _  
Bit depth                      : 8 bits  *8 ]  
Scan type                      : Progressive cH7D@p}  
Bits/(Pixel*Frame)             : 0.116 #p=Wt&2  
Stream size                    : 4.78 GiB (97%) ||?wRMV  
Title                          : VideoByEZMediaEditor Rh7=,=u  
Writing library                : x264()-core 129 - H.264/MPEG-4 I3?:KVa  
Encoding settings              : cabac=1 / ref=4 / deblock=1:0:0 / analyse=0x3:0x133 / me=umh / subme=9 / psy=1 / psy_rd=0.00:0.00 / mixed_ref=1 / me_range=24 / chroma_me=1 / trellis=2 / 8x8dct=1 / cqm=0 / deadzone=21,11 / fast_pskip=0 / chroma_qp_offset=0 / threads=40 / lookahead_threads=6 / sliced_threads=0 / nr=0 / decimate=1 / interlaced=0 / bluray_compat=0 / constrained_intra=0 / bframes=4 / b_pyramid=2 / b_adapt=0 / b_bias=0 / direct=3 / weightb=1 / open_gop=0 / weightp=2 / keyint=250 / keyint_min=25 / scenecut=40 / intra_refresh=0 / rc_lookahead=60 / rc=abr / mbtree=1 / bitrate=6000 / ratetol=1.0 / qcomp=0.60 / qpmin=0 / qpmax=69 / qpstep=4 / vbv_maxrate=12000 / vbv_bufsize=6000 / nal_hrd=none / ip_ratio=1.40 / aq=1:1.00 5?|PC.  
Encoded date                   : UTC 2016-08-12 11:22:36 \y/+H  
Tagged date                    : UTC 2016-08-12 11:23:21 O0"&wvR+5  
B Zw#ACU  
Audio 1'* {Vm M  
ID                             : 2 NPR{g!tK%  
Format                         : AAC )^'wcBod,  
Format/Info                    : Advanced Audio Codec dkbKnY&  
Format profile                 : LC __||cQ  
Codec ID                       : 40 'w7{8^Z2  
Duration                       : 1h 55mn |m7`:~ow  
Bit rate mode                  : Variable }(XvI^K[^  
Bit rate                       : 192 Kbps %x7l`.) N  
Maximum bit rate               : 199 Kbps  XC{(O:EG  
Channel(s)                     : 2 channels Sq==)$G  
Channel positions              : Front: L R VbX$i!>8  
Sampling rate                  : 44.1 KHz Dy^4^ J5+  
Compression mode               : Lossy ^q$vyY   
Stream size                    : 156 MiB (3%) w02HSQ  
Title                          : Audio1- ArU>./)Q  
Encoded date                   : UTC 2016-08-12 11:23:19 osX23T~-  
Tagged date                    : UTC 2016-08-12 11:23:21 Sb[rSczS~  
6YU2  !x  
o-Idr{  
aLXA9?  
快手枪手快枪手 烧云 快手·枪手·快枪手 龙城计中计.For A Few Bullets 2016 1080p W.torrent (27 K) 下载次数:65