切换到宽版
  • 990阅读
  • 0回复

快手枪手快枪手/烧云/快手·枪手·快枪手/龙城计中计.For A Few Bullets 2016 1080p WEB-DL x264 AAC-SeeHD [复制链接]

上一主题 下一主题
 

只看楼主 倒序阅读 使用道具 0 发表于: 2016-08-21
Tap.5jHL  
◎译  名 快手枪手快枪手/烧云/快手·枪手·快枪手/龙城计中计 De(Hw& IV  
◎片  名 For A Few Bullets YS*9t Q{  
◎年  代 2016 S_IUV)  
◎国  家  中国大陆 1BpiV-]=  
◎类  别  喜剧/动作 RpD=]y!5_  
◎语  言  普通话 /VN f{p  
◎字  幕  简体中文/英文 @dPT k"P  
◎IMDb评分  5.3/10 from 8 users   v63"^%LX  
◎IMDb链接  http://www.imdb.com/title/tt5882704/ h * u  
◎文件格式  x264 + AAC m~-K[+ya`D  
◎视频尺寸  1920 x 1080 5Ezw ~hn  
◎文件大小  4.94 GiB qtQ6cq Ld  
◎片  长  1h 55mn W1|0Yd ;P  
◎导  演 潘安子 Anzi Pan rcC<Zat,|  
◎主  演 林更新 kenny Lin   小庄 /*X2c6<d  
      张静初  Jingchu Zhang   李若云 xY^ %&n  
      腾格尔  Tenggeer   石佛 f m)pulz  
      刘晓庆  Xiaoqing Liu   金三娘 UZJCvfi  
      锦荣  Vivian Dawson   宋静之 Yd=>K HVD  
      曾江  Kenneth Tsang t?  yz  
      韩朴俊  Piao-jun Han \(^nSy&N  
      韩秋池  Qiuchi Han [8=vv7wS  
      施予斐  Yufei Shi P;ci9vk  
      郭冬冬  Dongdong Guo SfaQvstN  
     %~2YE  
     ~^r29'3  
◎简     介 ~5CBEIF(NS  
:<bB?N(  
     市井骗子小庄(林更新 饰)机智却爱耍小聪明,以一双“快手”行走江湖,赌局中被“枪手”李若云(张静初 饰)威胁,踏上找回传国玉玺的寻宝之路。途中二人默契配合,与老顽童石佛(腾格尔 饰)、金三娘(刘晓庆 饰)夫妻二人组成“夺宝者联盟”,与觊觎国宝的宋静之(锦荣 饰)等斗智斗勇,夺宝途中一段段故事让人啼笑皆非…… 5n9B?T8C  
P;qN(2L/=<  
(2^gVz=j  
General #/Vh|UeX  
Format                         : MPEG-4 "2)H'<  
Format profile                 : Base Media R|(q  
Codec ID                       : isom CkoL TY  
File size                      : 4.94 GiB C(#u[8  
Duration                       : 1h 55mn O Hb[qX\  
Overall bit rate mode          : Variable 8TLgNQP  
Overall bit rate               : 6 142 Kbps Af'" 6BS  
Encoded date                   : UTC 2016-08-12 11:22:36 y)W@{@{kl  
Tagged date                    : UTC 2016-08-12 11:22:36 pEIRh1  
Copyright                      : PPTV-2.4.0.(20,20)[1] 5 ft`zf  
|yQZt/*SOZ  
Video w~"KA6^  
ID                             : 1 > dI LF  
Format                         : AVC )ttUWy$w  
Format/Info                    : Advanced Video Codec HUv/ ~^<  
Format profile                 : High@L4 W;'!gpa  
Format settings, CABAC         : Yes M42 Ssn)  
Format settings, ReFrames      : 4 frames X.f>'0i  
Codec ID                       : avc1 ,!Z *5  
Codec ID/Info                  : Advanced Video Coding 'E/^8md>  
Duration                       : 1h 55mn X[PZg{   
Bit rate                       : 6 000 Kbps QgU8 s'e  
Maximum bit rate               : 13.7 Mbps Y&d00  
Width                          : 1 920 pixels Ay 5i+)MD  
Height                         : 1 080 pixels |Lf"6^@yh  
Display aspect ratio           : 16:9 $c:ynjL|P-  
Frame rate mode                : Constant `.FF!P:{C*  
Frame rate                     : 25.000 fps OwH81#   
Color space                    : YUV [z`31F  
Chroma subsampling             : 4:2:0 x7:s]<kE  
Bit depth                      : 8 bits GT}F9F~  
Scan type                      : Progressive pb ~u E  
Bits/(Pixel*Frame)             : 0.116 }L+L"l&  
Stream size                    : 4.78 GiB (97%) m'6&9Ja k  
Title                          : VideoByEZMediaEditor T>x&T9  
Writing library                : x264()-core 129 - H.264/MPEG-4 _wkVwPr  
Encoding settings              : cabac=1 / ref=4 / deblock=1:0:0 / analyse=0x3:0x133 / me=umh / subme=9 / psy=1 / psy_rd=0.00:0.00 / mixed_ref=1 / me_range=24 / chroma_me=1 / trellis=2 / 8x8dct=1 / cqm=0 / deadzone=21,11 / fast_pskip=0 / chroma_qp_offset=0 / threads=40 / lookahead_threads=6 / sliced_threads=0 / nr=0 / decimate=1 / interlaced=0 / bluray_compat=0 / constrained_intra=0 / bframes=4 / b_pyramid=2 / b_adapt=0 / b_bias=0 / direct=3 / weightb=1 / open_gop=0 / weightp=2 / keyint=250 / keyint_min=25 / scenecut=40 / intra_refresh=0 / rc_lookahead=60 / rc=abr / mbtree=1 / bitrate=6000 / ratetol=1.0 / qcomp=0.60 / qpmin=0 / qpmax=69 / qpstep=4 / vbv_maxrate=12000 / vbv_bufsize=6000 / nal_hrd=none / ip_ratio=1.40 / aq=1:1.00 k.vBj~xU  
Encoded date                   : UTC 2016-08-12 11:22:36 )Ch2E|C?=8  
Tagged date                    : UTC 2016-08-12 11:23:21 njScz"L~  
&,c``z  
Audio '_w=k 4  
ID                             : 2 vY  }A  
Format                         : AAC bx{$Y_L+p  
Format/Info                    : Advanced Audio Codec \? 0&0;5  
Format profile                 : LC aqRhh=iS  
Codec ID                       : 40 e;Ti&o}  
Duration                       : 1h 55mn h|VeG3H  
Bit rate mode                  : Variable [ sN EHf  
Bit rate                       : 192 Kbps x(etb<!jd  
Maximum bit rate               : 199 Kbps )Dw,q~xgg0  
Channel(s)                     : 2 channels e vrXo"3  
Channel positions              : Front: L R hxVKV?Fl  
Sampling rate                  : 44.1 KHz ,2j&ko1  
Compression mode               : Lossy TcjEcMw,  
Stream size                    : 156 MiB (3%) &]e'KdXF  
Title                          : Audio1- cZB7fmq%  
Encoded date                   : UTC 2016-08-12 11:23:19 66/3|83Z  
Tagged date                    : UTC 2016-08-12 11:23:21 (l-tvk4Ln  
NdtB1b  
iop2L51eJ  
PP;}e  
快手枪手快枪手 烧云 快手·枪手·快枪手 龙城计中计.For A Few Bullets 2016 1080p W.torrent (27 K) 下载次数:104