切换到宽版
  • 1052阅读
  • 0回复

快手枪手快枪手/烧云/快手·枪手·快枪手/龙城计中计.For A Few Bullets 2016 1080p WEB-DL x264 AAC-SeeHD [复制链接]

上一主题 下一主题
 

只看楼主 倒序阅读 使用道具 0 发表于: 2016-08-21
H6oU Ne  
◎译  名 快手枪手快枪手/烧云/快手·枪手·快枪手/龙城计中计 SDbR(oV  
◎片  名 For A Few Bullets 2?}5U)Hg  
◎年  代 2016 2uEvu  
◎国  家  中国大陆 AZ7m=Q97  
◎类  别  喜剧/动作 J$>9UC k7B  
◎语  言  普通话 6rll0c~  
◎字  幕  简体中文/英文 lP;X=X>  
◎IMDb评分  5.3/10 from 8 users   B)`@E4i  
◎IMDb链接  http://www.imdb.com/title/tt5882704/ JVe!(L4H  
◎文件格式  x264 + AAC v1`*}.#  
◎视频尺寸  1920 x 1080 DkA@KS1Dq  
◎文件大小  4.94 GiB 1w$X;q"  
◎片  长  1h 55mn GF/!@N  
◎导  演 潘安子 Anzi Pan ytyX:e"  
◎主  演 林更新 kenny Lin   小庄 ?l/+*/AR;  
      张静初  Jingchu Zhang   李若云 ;%<R>gDWv  
      腾格尔  Tenggeer   石佛 (Do](C  
      刘晓庆  Xiaoqing Liu   金三娘 ?.~hex#M@  
      锦荣  Vivian Dawson   宋静之 GE!fh1[[u  
      曾江  Kenneth Tsang it)!-[:bm  
      韩朴俊  Piao-jun Han 7Ap==J{a  
      韩秋池  Qiuchi Han Q13>z%Rge  
      施予斐  Yufei Shi [rO TWN  
      郭冬冬  Dongdong Guo ]w5j?h"b  
     sKniqWi  
     + d289"  
◎简     介 rk)h_zN  
y3Q2d7G  
     市井骗子小庄(林更新 饰)机智却爱耍小聪明,以一双“快手”行走江湖,赌局中被“枪手”李若云(张静初 饰)威胁,踏上找回传国玉玺的寻宝之路。途中二人默契配合,与老顽童石佛(腾格尔 饰)、金三娘(刘晓庆 饰)夫妻二人组成“夺宝者联盟”,与觊觎国宝的宋静之(锦荣 饰)等斗智斗勇,夺宝途中一段段故事让人啼笑皆非…… \1f&D !F]b  
2S@aG%-)  
><DXT nt'x  
General tg"NWp6  
Format                         : MPEG-4 ZQN%!2  
Format profile                 : Base Media _!C  M  
Codec ID                       : isom [eLU}4v{  
File size                      : 4.94 GiB ^77X?nDz=h  
Duration                       : 1h 55mn @#1T-*  
Overall bit rate mode          : Variable di|5|bn7  
Overall bit rate               : 6 142 Kbps 3cB=9Y{<  
Encoded date                   : UTC 2016-08-12 11:22:36 E%e2$KfD  
Tagged date                    : UTC 2016-08-12 11:22:36 +AkMU|6  
Copyright                      : PPTV-2.4.0.(20,20)[1] ^b&U0k$R  
\Pt_5.bTs[  
Video @q++eGm\Q  
ID                             : 1 9*CJWS;  
Format                         : AVC \ ~uY);  
Format/Info                    : Advanced Video Codec Scz/2v Ni`  
Format profile                 : High@L4 vcz?;lg  
Format settings, CABAC         : Yes ?L(y8b}F(  
Format settings, ReFrames      : 4 frames Xd@_:ds  
Codec ID                       : avc1 0`~#H1TK  
Codec ID/Info                  : Advanced Video Coding "jA?s9  
Duration                       : 1h 55mn 2&KM&NX~  
Bit rate                       : 6 000 Kbps cIB[D.  
Maximum bit rate               : 13.7 Mbps Tq,xW  
Width                          : 1 920 pixels o?((FW5.;  
Height                         : 1 080 pixels 0oNy  
Display aspect ratio           : 16:9 %WO4uOi:@  
Frame rate mode                : Constant b6ui&Y8z  
Frame rate                     : 25.000 fps ]`T*}$|  
Color space                    : YUV 0s o27k  
Chroma subsampling             : 4:2:0 bc% N !d  
Bit depth                      : 8 bits -XMWN$Ah  
Scan type                      : Progressive %=<Kb\  
Bits/(Pixel*Frame)             : 0.116 Ek,$XH  
Stream size                    : 4.78 GiB (97%) Xb\de_8!  
Title                          : VideoByEZMediaEditor D\ kd6  
Writing library                : x264()-core 129 - H.264/MPEG-4 Og/@w&  
Encoding settings              : cabac=1 / ref=4 / deblock=1:0:0 / analyse=0x3:0x133 / me=umh / subme=9 / psy=1 / psy_rd=0.00:0.00 / mixed_ref=1 / me_range=24 / chroma_me=1 / trellis=2 / 8x8dct=1 / cqm=0 / deadzone=21,11 / fast_pskip=0 / chroma_qp_offset=0 / threads=40 / lookahead_threads=6 / sliced_threads=0 / nr=0 / decimate=1 / interlaced=0 / bluray_compat=0 / constrained_intra=0 / bframes=4 / b_pyramid=2 / b_adapt=0 / b_bias=0 / direct=3 / weightb=1 / open_gop=0 / weightp=2 / keyint=250 / keyint_min=25 / scenecut=40 / intra_refresh=0 / rc_lookahead=60 / rc=abr / mbtree=1 / bitrate=6000 / ratetol=1.0 / qcomp=0.60 / qpmin=0 / qpmax=69 / qpstep=4 / vbv_maxrate=12000 / vbv_bufsize=6000 / nal_hrd=none / ip_ratio=1.40 / aq=1:1.00 mb#&yK(h  
Encoded date                   : UTC 2016-08-12 11:22:36 Mx_O'D  
Tagged date                    : UTC 2016-08-12 11:23:21 i_ z4;%#?  
AB[#   
Audio *sYvV,  
ID                             : 2 p$!Q?&AV/  
Format                         : AAC 8%#pv}  
Format/Info                    : Advanced Audio Codec g$9EI\a  
Format profile                 : LC 9Pjw< xt  
Codec ID                       : 40 bO6LBSZx]  
Duration                       : 1h 55mn Q zq3{%^x_  
Bit rate mode                  : Variable Q%.F Mf  
Bit rate                       : 192 Kbps WLA LXJ7  
Maximum bit rate               : 199 Kbps _6Qb 3tl  
Channel(s)                     : 2 channels ||o :A  
Channel positions              : Front: L R jQ&82X%m  
Sampling rate                  : 44.1 KHz tEjT$`6hp  
Compression mode               : Lossy ,); -v4$  
Stream size                    : 156 MiB (3%) T.GB *  
Title                          : Audio1- Jt|W %`X>D  
Encoded date                   : UTC 2016-08-12 11:23:19 |]+PDc%  
Tagged date                    : UTC 2016-08-12 11:23:21 z=pGu_`2  
_h0hl]rf  
3JXKp k?   
`ZZq Sc4  
快手枪手快枪手 烧云 快手·枪手·快枪手 龙城计中计.For A Few Bullets 2016 1080p W.torrent (27 K) 下载次数:110