切换到宽版
  • 865阅读
  • 0回复

快手枪手快枪手/烧云/快手·枪手·快枪手/龙城计中计.For A Few Bullets 2016 1080p WEB-DL x264 AAC-SeeHD [复制链接]

上一主题 下一主题
 

只看楼主 倒序阅读 使用道具 0 发表于: 2016-08-21
tR# OjkvX  
◎译  名 快手枪手快枪手/烧云/快手·枪手·快枪手/龙城计中计 *I B4[6  
◎片  名 For A Few Bullets ]_)yIi"  
◎年  代 2016 ?e%ZOI  
◎国  家  中国大陆 #NQMy:JHD)  
◎类  别  喜剧/动作 b!+hH Hv:  
◎语  言  普通话 atj(eg  
◎字  幕  简体中文/英文 4VHn  \  
◎IMDb评分  5.3/10 from 8 users   !hm]fh_j  
◎IMDb链接  http://www.imdb.com/title/tt5882704/ T~-ycVc  
◎文件格式  x264 + AAC pJ>P[  
◎视频尺寸  1920 x 1080 49eD1h3'X[  
◎文件大小  4.94 GiB  \__i  
◎片  长  1h 55mn W<'m:dq  
◎导  演 潘安子 Anzi Pan zOJ%}  
◎主  演 林更新 kenny Lin   小庄 QRw"H 8nW  
      张静初  Jingchu Zhang   李若云 ."g`3tVK  
      腾格尔  Tenggeer   石佛 aHD]k8 m z  
      刘晓庆  Xiaoqing Liu   金三娘 <3n Mx^  
      锦荣  Vivian Dawson   宋静之 6W/`07 '  
      曾江  Kenneth Tsang -oGdk|Yn  
      韩朴俊  Piao-jun Han { $oj.V 4  
      韩秋池  Qiuchi Han YqscZ(L:y  
      施予斐  Yufei Shi _T60;ZI+^  
      郭冬冬  Dongdong Guo )+#` CIv  
     Y_liA  
     GC-5X`Sq  
◎简     介 cTifC1Pf  
hDDn,uzpd  
     市井骗子小庄(林更新 饰)机智却爱耍小聪明,以一双“快手”行走江湖,赌局中被“枪手”李若云(张静初 饰)威胁,踏上找回传国玉玺的寻宝之路。途中二人默契配合,与老顽童石佛(腾格尔 饰)、金三娘(刘晓庆 饰)夫妻二人组成“夺宝者联盟”,与觊觎国宝的宋静之(锦荣 饰)等斗智斗勇,夺宝途中一段段故事让人啼笑皆非…… 9+|$$)  
U4'#T%*  
poE0{HOU  
General b1I]>\  
Format                         : MPEG-4 =nHUs1rKn  
Format profile                 : Base Media i$Ul(?  
Codec ID                       : isom ,~U>'&M ;  
File size                      : 4.94 GiB -OV&Md:~  
Duration                       : 1h 55mn Ov@gh kr  
Overall bit rate mode          : Variable /|}EL%a  
Overall bit rate               : 6 142 Kbps 9 ql~q  
Encoded date                   : UTC 2016-08-12 11:22:36  m!!/Za  
Tagged date                    : UTC 2016-08-12 11:22:36 w7L{_aom  
Copyright                      : PPTV-2.4.0.(20,20)[1] )$2QZ qX  
-_g0C^:<,  
Video iI T;K@&  
ID                             : 1 2k~l$p>CN!  
Format                         : AVC s S+MqBh&I  
Format/Info                    : Advanced Video Codec gT. sj d  
Format profile                 : High@L4 b=C*W,Q_#  
Format settings, CABAC         : Yes ~12EQacOT  
Format settings, ReFrames      : 4 frames  fgTg7 m  
Codec ID                       : avc1 B`)BZ,#p  
Codec ID/Info                  : Advanced Video Coding K-)] 1BG  
Duration                       : 1h 55mn Oi.C(@^(  
Bit rate                       : 6 000 Kbps !/b>sN}  
Maximum bit rate               : 13.7 Mbps 5Pc;5 o0C  
Width                          : 1 920 pixels n&4N[Qlv,  
Height                         : 1 080 pixels ZDJ`qJ8V  
Display aspect ratio           : 16:9 KfEx"94  
Frame rate mode                : Constant &J]K3w1p  
Frame rate                     : 25.000 fps y-b%T|p9  
Color space                    : YUV 9.M4o[  
Chroma subsampling             : 4:2:0 F~vuM$+d  
Bit depth                      : 8 bits eb\K "ec"  
Scan type                      : Progressive >h9I M$2  
Bits/(Pixel*Frame)             : 0.116 s]0{a.Cpv  
Stream size                    : 4.78 GiB (97%) W+c<2?d:  
Title                          : VideoByEZMediaEditor _yx>TE2e  
Writing library                : x264()-core 129 - H.264/MPEG-4 $99n&t$Y  
Encoding settings              : cabac=1 / ref=4 / deblock=1:0:0 / analyse=0x3:0x133 / me=umh / subme=9 / psy=1 / psy_rd=0.00:0.00 / mixed_ref=1 / me_range=24 / chroma_me=1 / trellis=2 / 8x8dct=1 / cqm=0 / deadzone=21,11 / fast_pskip=0 / chroma_qp_offset=0 / threads=40 / lookahead_threads=6 / sliced_threads=0 / nr=0 / decimate=1 / interlaced=0 / bluray_compat=0 / constrained_intra=0 / bframes=4 / b_pyramid=2 / b_adapt=0 / b_bias=0 / direct=3 / weightb=1 / open_gop=0 / weightp=2 / keyint=250 / keyint_min=25 / scenecut=40 / intra_refresh=0 / rc_lookahead=60 / rc=abr / mbtree=1 / bitrate=6000 / ratetol=1.0 / qcomp=0.60 / qpmin=0 / qpmax=69 / qpstep=4 / vbv_maxrate=12000 / vbv_bufsize=6000 / nal_hrd=none / ip_ratio=1.40 / aq=1:1.00 }"H,h)T  
Encoded date                   : UTC 2016-08-12 11:22:36 .hb:s,0mP  
Tagged date                    : UTC 2016-08-12 11:23:21 net@j#}j-  
Qy<P463A(l  
Audio ?zMHP#i  
ID                             : 2  7aRi5  
Format                         : AAC _.Nbt(mz  
Format/Info                    : Advanced Audio Codec x_}:D *aI  
Format profile                 : LC &BLJT9Frx  
Codec ID                       : 40 (8DC}kckE  
Duration                       : 1h 55mn k"%~"9  
Bit rate mode                  : Variable Ta0|+IYk<  
Bit rate                       : 192 Kbps ,-LwtePJ0  
Maximum bit rate               : 199 Kbps tS5hv@9cWx  
Channel(s)                     : 2 channels r +i($ jMs  
Channel positions              : Front: L R wmL'F:UP  
Sampling rate                  : 44.1 KHz jOunWv|  
Compression mode               : Lossy 8'[7 )I=  
Stream size                    : 156 MiB (3%) {]!mrAjD  
Title                          : Audio1- mDABH@ R  
Encoded date                   : UTC 2016-08-12 11:23:19 pj{`'; :g  
Tagged date                    : UTC 2016-08-12 11:23:21 [!uG1GJ>  
0S_~\t  
LmrfN?5  
'F3f+YD  
快手枪手快枪手 烧云 快手·枪手·快枪手 龙城计中计.For A Few Bullets 2016 1080p W.torrent (27 K) 下载次数:108