切换到宽版
  • 1087阅读
  • 0回复

快手枪手快枪手/烧云/快手·枪手·快枪手/龙城计中计.For A Few Bullets 2016 1080p WEB-DL x264 AAC-SeeHD [复制链接]

上一主题 下一主题
 

只看楼主 倒序阅读 使用道具 0 发表于: 2016-08-21
N@*wi"Q  
◎译  名 快手枪手快枪手/烧云/快手·枪手·快枪手/龙城计中计 Eu/y">;v#  
◎片  名 For A Few Bullets ,r 2VP\hLh  
◎年  代 2016 vk)0 n=  
◎国  家  中国大陆 =Xy`"i{`(  
◎类  别  喜剧/动作 PIEW\i  
◎语  言  普通话 i<wU.JX&h  
◎字  幕  简体中文/英文 w"a 9'r  
◎IMDb评分  5.3/10 from 8 users   +*_fN ]M  
◎IMDb链接  http://www.imdb.com/title/tt5882704/ 5+bFy.UW  
◎文件格式  x264 + AAC }or2 $\>m  
◎视频尺寸  1920 x 1080 2#b<d?"  
◎文件大小  4.94 GiB N$%61GiulT  
◎片  长  1h 55mn n4WS V  
◎导  演 潘安子 Anzi Pan 0ck&kpL:9  
◎主  演 林更新 kenny Lin   小庄 ~)wwX:;B_  
      张静初  Jingchu Zhang   李若云 4\1wyN /}M  
      腾格尔  Tenggeer   石佛 E5*-;>2c  
      刘晓庆  Xiaoqing Liu   金三娘 G }P)vfcH  
      锦荣  Vivian Dawson   宋静之 #juGD 9e  
      曾江  Kenneth Tsang 6; 5)/q  
      韩朴俊  Piao-jun Han 5 6Sh  
      韩秋池  Qiuchi Han J[}gku?C;  
      施予斐  Yufei Shi Ql~#((K  
      郭冬冬  Dongdong Guo [i(Cl}  
     |?x^8e<*  
     MV0<^/p|  
◎简     介 |h^K M  
YO@hE>  
     市井骗子小庄(林更新 饰)机智却爱耍小聪明,以一双“快手”行走江湖,赌局中被“枪手”李若云(张静初 饰)威胁,踏上找回传国玉玺的寻宝之路。途中二人默契配合,与老顽童石佛(腾格尔 饰)、金三娘(刘晓庆 饰)夫妻二人组成“夺宝者联盟”,与觊觎国宝的宋静之(锦荣 饰)等斗智斗勇,夺宝途中一段段故事让人啼笑皆非…… F~z_>1lpP&  
@+?+6sS  
$Hp.{jw  
General cy1\u2x_`  
Format                         : MPEG-4 lir &e 9I+  
Format profile                 : Base Media =LXvlt'Q34  
Codec ID                       : isom d@-wi%,^  
File size                      : 4.94 GiB `Uz s+k-]  
Duration                       : 1h 55mn o*%3[HmV  
Overall bit rate mode          : Variable \4OK!6LkI  
Overall bit rate               : 6 142 Kbps )*!1bgXQ  
Encoded date                   : UTC 2016-08-12 11:22:36 cICHRp&&  
Tagged date                    : UTC 2016-08-12 11:22:36 c`-YIz)W  
Copyright                      : PPTV-2.4.0.(20,20)[1] IK8%Q(.c  
Qqp)@uM^  
Video }g}6qCv7  
ID                             : 1 mDZ=Due1  
Format                         : AVC `Gf{z%/  
Format/Info                    : Advanced Video Codec ll_}& a0G  
Format profile                 : High@L4 B9wp*:.  
Format settings, CABAC         : Yes -eUV`&[4  
Format settings, ReFrames      : 4 frames %Hh3u$Y,  
Codec ID                       : avc1 > 9o{(j  
Codec ID/Info                  : Advanced Video Coding ja?s@Y}-9s  
Duration                       : 1h 55mn kr#I{gF  
Bit rate                       : 6 000 Kbps C}9Kx }q  
Maximum bit rate               : 13.7 Mbps 97!H`|u <  
Width                          : 1 920 pixels uw_H:-J  
Height                         : 1 080 pixels ]s _@n!  
Display aspect ratio           : 16:9 A9t8`|1"%H  
Frame rate mode                : Constant ^eobp.U  
Frame rate                     : 25.000 fps 0#<WOns1   
Color space                    : YUV 8|6~o.B.G  
Chroma subsampling             : 4:2:0 XwtAF3oz  
Bit depth                      : 8 bits ly[lrD0Kn.  
Scan type                      : Progressive >d97l&W  
Bits/(Pixel*Frame)             : 0.116 W]zwghxH  
Stream size                    : 4.78 GiB (97%) lr0M<5d=p  
Title                          : VideoByEZMediaEditor TywK\hH  
Writing library                : x264()-core 129 - H.264/MPEG-4 dkpQ ZXi9%  
Encoding settings              : cabac=1 / ref=4 / deblock=1:0:0 / analyse=0x3:0x133 / me=umh / subme=9 / psy=1 / psy_rd=0.00:0.00 / mixed_ref=1 / me_range=24 / chroma_me=1 / trellis=2 / 8x8dct=1 / cqm=0 / deadzone=21,11 / fast_pskip=0 / chroma_qp_offset=0 / threads=40 / lookahead_threads=6 / sliced_threads=0 / nr=0 / decimate=1 / interlaced=0 / bluray_compat=0 / constrained_intra=0 / bframes=4 / b_pyramid=2 / b_adapt=0 / b_bias=0 / direct=3 / weightb=1 / open_gop=0 / weightp=2 / keyint=250 / keyint_min=25 / scenecut=40 / intra_refresh=0 / rc_lookahead=60 / rc=abr / mbtree=1 / bitrate=6000 / ratetol=1.0 / qcomp=0.60 / qpmin=0 / qpmax=69 / qpstep=4 / vbv_maxrate=12000 / vbv_bufsize=6000 / nal_hrd=none / ip_ratio=1.40 / aq=1:1.00 j-QGOuvW  
Encoded date                   : UTC 2016-08-12 11:22:36 SetX#e?q~  
Tagged date                    : UTC 2016-08-12 11:23:21 QAi1,+y]7w  
jccOsG9;_  
Audio K_Re}\D  
ID                             : 2 %XR<isn  
Format                         : AAC tJAnuhX  
Format/Info                    : Advanced Audio Codec kf'=%]9#_T  
Format profile                 : LC /e(W8aszi  
Codec ID                       : 40 9*DEv0}a^  
Duration                       : 1h 55mn v1h.pbz`w  
Bit rate mode                  : Variable F )7j@h^  
Bit rate                       : 192 Kbps }2=hd..  
Maximum bit rate               : 199 Kbps },s_nJR:8  
Channel(s)                     : 2 channels E<k ^S{  
Channel positions              : Front: L R h;nQxmJ9  
Sampling rate                  : 44.1 KHz `,P >mp)uU  
Compression mode               : Lossy +|0 t  
Stream size                    : 156 MiB (3%) b`zET^F  
Title                          : Audio1- x 'mF&^  
Encoded date                   : UTC 2016-08-12 11:23:19 o}  {-j  
Tagged date                    : UTC 2016-08-12 11:23:21 -;/ Y  
^cn@?k((A  
6n,xH!7  
^ vaL8+  
快手枪手快枪手 烧云 快手·枪手·快枪手 龙城计中计.For A Few Bullets 2016 1080p W.torrent (27 K) 下载次数:111