切换到宽版
  • 972阅读
  • 0回复

快手枪手快枪手/烧云/快手·枪手·快枪手/龙城计中计.For A Few Bullets 2016 1080p WEB-DL x264 AAC-SeeHD [复制链接]

上一主题 下一主题
 

只看楼主 倒序阅读 使用道具 0 发表于: 2016-08-21
fu{.Ir  
◎译  名 快手枪手快枪手/烧云/快手·枪手·快枪手/龙城计中计 2-_d~~O1N  
◎片  名 For A Few Bullets N.?)s.D(  
◎年  代 2016 6HRr 4NDcj  
◎国  家  中国大陆 o$k9$H>Na  
◎类  别  喜剧/动作 NH;.!x q:  
◎语  言  普通话 vu`,:/|h  
◎字  幕  简体中文/英文 2)(ynrCe  
◎IMDb评分  5.3/10 from 8 users   D}]u9jS1  
◎IMDb链接  http://www.imdb.com/title/tt5882704/ aLO'.5 ~^  
◎文件格式  x264 + AAC T[eb<  
◎视频尺寸  1920 x 1080 |yVveJ  
◎文件大小  4.94 GiB st wxF?\NS  
◎片  长  1h 55mn L(DDyA{bA  
◎导  演 潘安子 Anzi Pan j S<."a/n  
◎主  演 林更新 kenny Lin   小庄 -gVsOX0  
      张静初  Jingchu Zhang   李若云 ]OLe&VRix  
      腾格尔  Tenggeer   石佛 _ cm^Fi 5  
      刘晓庆  Xiaoqing Liu   金三娘 G }U'?p  
      锦荣  Vivian Dawson   宋静之 IRIYj(J  
      曾江  Kenneth Tsang h9I vuv'  
      韩朴俊  Piao-jun Han rvp#[RAaS}  
      韩秋池  Qiuchi Han 8 EUc 6  
      施予斐  Yufei Shi DgODTxiX  
      郭冬冬  Dongdong Guo eWWfUNBSLX  
     'yNS(Bg=  
     Qgxp q{y  
◎简     介 UHFI4{Wz  
Q<T+t0G\O-  
     市井骗子小庄(林更新 饰)机智却爱耍小聪明,以一双“快手”行走江湖,赌局中被“枪手”李若云(张静初 饰)威胁,踏上找回传国玉玺的寻宝之路。途中二人默契配合,与老顽童石佛(腾格尔 饰)、金三娘(刘晓庆 饰)夫妻二人组成“夺宝者联盟”,与觊觎国宝的宋静之(锦荣 饰)等斗智斗勇,夺宝途中一段段故事让人啼笑皆非…… BTDUT%Yfg  
VQ^}f/A  
l9#@4Os  
General WnL7 A:sZ  
Format                         : MPEG-4 N ^%7  
Format profile                 : Base Media ayr CLv  
Codec ID                       : isom [(m+Ejzi%  
File size                      : 4.94 GiB 2JL\1=k;  
Duration                       : 1h 55mn n>W*y|UJ  
Overall bit rate mode          : Variable =pd#U  
Overall bit rate               : 6 142 Kbps GEtzLaq<  
Encoded date                   : UTC 2016-08-12 11:22:36 xL$7bw5fY  
Tagged date                    : UTC 2016-08-12 11:22:36 XB;C~:  
Copyright                      : PPTV-2.4.0.(20,20)[1] ?<STl-]&  
{3eg4j.Z  
Video "I0F"nQ  
ID                             : 1 #H.DnW  
Format                         : AVC Y>Fh<"A|$  
Format/Info                    : Advanced Video Codec Eal*){"<,?  
Format profile                 : High@L4 T _Cj=>L  
Format settings, CABAC         : Yes IIO -Jr  
Format settings, ReFrames      : 4 frames l$ufW|  
Codec ID                       : avc1 lw=!v%L  
Codec ID/Info                  : Advanced Video Coding >,a$) z  
Duration                       : 1h 55mn ^=[b] *V  
Bit rate                       : 6 000 Kbps qu%}b>  
Maximum bit rate               : 13.7 Mbps 'q\[aKEX=  
Width                          : 1 920 pixels Jsf"h-)P  
Height                         : 1 080 pixels h?P- :E  
Display aspect ratio           : 16:9 ";;Nc>-Y  
Frame rate mode                : Constant Q/`W[Et  
Frame rate                     : 25.000 fps W9:(P  
Color space                    : YUV ;VS$xnZ  
Chroma subsampling             : 4:2:0 2x!cblo  
Bit depth                      : 8 bits =XFyEt  
Scan type                      : Progressive = fK6P6'B  
Bits/(Pixel*Frame)             : 0.116 cf,^7,-`"  
Stream size                    : 4.78 GiB (97%) ]h%~'8g,  
Title                          : VideoByEZMediaEditor  w\y)  
Writing library                : x264()-core 129 - H.264/MPEG-4 T&^b~T(y  
Encoding settings              : cabac=1 / ref=4 / deblock=1:0:0 / analyse=0x3:0x133 / me=umh / subme=9 / psy=1 / psy_rd=0.00:0.00 / mixed_ref=1 / me_range=24 / chroma_me=1 / trellis=2 / 8x8dct=1 / cqm=0 / deadzone=21,11 / fast_pskip=0 / chroma_qp_offset=0 / threads=40 / lookahead_threads=6 / sliced_threads=0 / nr=0 / decimate=1 / interlaced=0 / bluray_compat=0 / constrained_intra=0 / bframes=4 / b_pyramid=2 / b_adapt=0 / b_bias=0 / direct=3 / weightb=1 / open_gop=0 / weightp=2 / keyint=250 / keyint_min=25 / scenecut=40 / intra_refresh=0 / rc_lookahead=60 / rc=abr / mbtree=1 / bitrate=6000 / ratetol=1.0 / qcomp=0.60 / qpmin=0 / qpmax=69 / qpstep=4 / vbv_maxrate=12000 / vbv_bufsize=6000 / nal_hrd=none / ip_ratio=1.40 / aq=1:1.00 r<5i  
Encoded date                   : UTC 2016-08-12 11:22:36 $7*@TMX  
Tagged date                    : UTC 2016-08-12 11:23:21 J~|:Q.Rt`  
Ru@ { b`  
Audio "Z)zKg  
ID                             : 2 ;k (M4?  
Format                         : AAC +g&M@8XO&  
Format/Info                    : Advanced Audio Codec rIeOli:<  
Format profile                 : LC [oOV@GE  
Codec ID                       : 40 #Wq@j1?  
Duration                       : 1h 55mn DLPg0>;jl  
Bit rate mode                  : Variable zg$NrI&  
Bit rate                       : 192 Kbps ]JH Int  
Maximum bit rate               : 199 Kbps FD/=uIXH2  
Channel(s)                     : 2 channels w^MiyX  
Channel positions              : Front: L R 5M\bH'1  
Sampling rate                  : 44.1 KHz `]F#j ]"  
Compression mode               : Lossy 1*?L>@Wdy  
Stream size                    : 156 MiB (3%) s[#_sR`y  
Title                          : Audio1- DFp">1@`PR  
Encoded date                   : UTC 2016-08-12 11:23:19 }aL&3[>>  
Tagged date                    : UTC 2016-08-12 11:23:21 $0*D7P^8  
7M<co,"  
~uu{ v')  
@3`Pq2<  
快手枪手快枪手 烧云 快手·枪手·快枪手 龙城计中计.For A Few Bullets 2016 1080p W.torrent (27 K) 下载次数:100