切换到宽版
  • 1017阅读
  • 0回复

快手枪手快枪手/烧云/快手·枪手·快枪手/龙城计中计.For A Few Bullets 2016 1080p WEB-DL x264 AAC-SeeHD [复制链接]

上一主题 下一主题
 

只看楼主 倒序阅读 使用道具 0 发表于: 2016-08-21
|FFz $'8)  
◎译  名 快手枪手快枪手/烧云/快手·枪手·快枪手/龙城计中计 yC ?p,Ci,  
◎片  名 For A Few Bullets 6yYjZ<  
◎年  代 2016 W*iTg%a\k  
◎国  家  中国大陆 /\Cf*cJ  
◎类  别  喜剧/动作 ;4dFL\KU  
◎语  言  普通话 zT}vaU 6  
◎字  幕  简体中文/英文 YXTV$A+lW  
◎IMDb评分  5.3/10 from 8 users   iN[6}V6Sm  
◎IMDb链接  http://www.imdb.com/title/tt5882704/ 6? lAbW  
◎文件格式  x264 + AAC `3? HQ2n  
◎视频尺寸  1920 x 1080 x?A<X2  
◎文件大小  4.94 GiB {tOf0W|  
◎片  长  1h 55mn vr"Pr4z4i  
◎导  演 潘安子 Anzi Pan {o^tSEN!-  
◎主  演 林更新 kenny Lin   小庄 o6w8Y/VPu  
      张静初  Jingchu Zhang   李若云 6jm?d"9  
      腾格尔  Tenggeer   石佛 rF}Q(<Y86  
      刘晓庆  Xiaoqing Liu   金三娘 GwXhn2  
      锦荣  Vivian Dawson   宋静之 {m3#1iV9  
      曾江  Kenneth Tsang Q)XH5C2X  
      韩朴俊  Piao-jun Han y( iq  
      韩秋池  Qiuchi Han uDJ;GD[yc  
      施予斐  Yufei Shi ^AI02`c.  
      郭冬冬  Dongdong Guo I *N v|HST  
     z{ M2tLNb  
     }M(xN6E  
◎简     介 ?Hdu=+ZV  
S W6oaa81  
     市井骗子小庄(林更新 饰)机智却爱耍小聪明,以一双“快手”行走江湖,赌局中被“枪手”李若云(张静初 饰)威胁,踏上找回传国玉玺的寻宝之路。途中二人默契配合,与老顽童石佛(腾格尔 饰)、金三娘(刘晓庆 饰)夫妻二人组成“夺宝者联盟”,与觊觎国宝的宋静之(锦荣 饰)等斗智斗勇,夺宝途中一段段故事让人啼笑皆非…… 9%SC#V'  
[f { qb\  
Vp1ct06^  
General jPo,mz&^  
Format                         : MPEG-4 Odw'Ua  
Format profile                 : Base Media 0=U|7%dOL  
Codec ID                       : isom ?zC{T*a  
File size                      : 4.94 GiB w\D !e  
Duration                       : 1h 55mn dg~lz80  
Overall bit rate mode          : Variable rqp]{?33  
Overall bit rate               : 6 142 Kbps `YwJ.E  
Encoded date                   : UTC 2016-08-12 11:22:36 CV=qcD  
Tagged date                    : UTC 2016-08-12 11:22:36 IUEpE9_  
Copyright                      : PPTV-2.4.0.(20,20)[1] u23_*W\  
Xm|~1 k_3  
Video {9{X\|  
ID                             : 1 4sO Rp^t'Q  
Format                         : AVC g5pFr=NV  
Format/Info                    : Advanced Video Codec JF~9efWe>  
Format profile                 : High@L4 oj{CNa  
Format settings, CABAC         : Yes uh.;Jj;  
Format settings, ReFrames      : 4 frames PCL ;Z  
Codec ID                       : avc1 ;a>u7rw  
Codec ID/Info                  : Advanced Video Coding {Ak 4GL  
Duration                       : 1h 55mn ^ Lc\{,m  
Bit rate                       : 6 000 Kbps KiI+ V;o  
Maximum bit rate               : 13.7 Mbps 5rbb ,*  
Width                          : 1 920 pixels *U%3 [6hm  
Height                         : 1 080 pixels VJTO:}Q  
Display aspect ratio           : 16:9 \X\f ~CB  
Frame rate mode                : Constant FP=27=  
Frame rate                     : 25.000 fps q1eMK'1  
Color space                    : YUV _A!Fp0}`  
Chroma subsampling             : 4:2:0 Z|x|8 !D  
Bit depth                      : 8 bits 6| B9kh}  
Scan type                      : Progressive pZ \7!rON  
Bits/(Pixel*Frame)             : 0.116 [PUu9rz#  
Stream size                    : 4.78 GiB (97%) E X'PRNB,  
Title                          : VideoByEZMediaEditor ToPjB vD  
Writing library                : x264()-core 129 - H.264/MPEG-4 LFW`ISY{  
Encoding settings              : cabac=1 / ref=4 / deblock=1:0:0 / analyse=0x3:0x133 / me=umh / subme=9 / psy=1 / psy_rd=0.00:0.00 / mixed_ref=1 / me_range=24 / chroma_me=1 / trellis=2 / 8x8dct=1 / cqm=0 / deadzone=21,11 / fast_pskip=0 / chroma_qp_offset=0 / threads=40 / lookahead_threads=6 / sliced_threads=0 / nr=0 / decimate=1 / interlaced=0 / bluray_compat=0 / constrained_intra=0 / bframes=4 / b_pyramid=2 / b_adapt=0 / b_bias=0 / direct=3 / weightb=1 / open_gop=0 / weightp=2 / keyint=250 / keyint_min=25 / scenecut=40 / intra_refresh=0 / rc_lookahead=60 / rc=abr / mbtree=1 / bitrate=6000 / ratetol=1.0 / qcomp=0.60 / qpmin=0 / qpmax=69 / qpstep=4 / vbv_maxrate=12000 / vbv_bufsize=6000 / nal_hrd=none / ip_ratio=1.40 / aq=1:1.00 Mth:V45G|  
Encoded date                   : UTC 2016-08-12 11:22:36 ojlyW})$%  
Tagged date                    : UTC 2016-08-12 11:23:21 2YKa <?_  
ej}S{/<*n  
Audio {]}94T~/k  
ID                             : 2 M+VWAh#uD  
Format                         : AAC M$Z2"F;  
Format/Info                    : Advanced Audio Codec p)iEwl}!j  
Format profile                 : LC 9-{=m+|b  
Codec ID                       : 40 Kd^.>T-   
Duration                       : 1h 55mn 7CuZ7!>$  
Bit rate mode                  : Variable :yD>Tn;1  
Bit rate                       : 192 Kbps P][jB  
Maximum bit rate               : 199 Kbps :p: C  
Channel(s)                     : 2 channels [F-GaaM  
Channel positions              : Front: L R 8v R_WHsL  
Sampling rate                  : 44.1 KHz \|{/.R  
Compression mode               : Lossy 1s.2z[B~  
Stream size                    : 156 MiB (3%)  ;mk[!  
Title                          : Audio1- Is7BJ f  
Encoded date                   : UTC 2016-08-12 11:23:19 2,q*[Kh1  
Tagged date                    : UTC 2016-08-12 11:23:21 ^ U mYW  
gd*Gn"  
w(6n  
(n*:LS=0  
快手枪手快枪手 烧云 快手·枪手·快枪手 龙城计中计.For A Few Bullets 2016 1080p W.torrent (27 K) 下载次数:108