切换到宽版
  • 531阅读
  • 0回复

快手枪手快枪手/烧云/快手·枪手·快枪手/龙城计中计.For A Few Bullets 2016 1080p WEB-DL x264 AAC-SeeHD [复制链接]

上一主题 下一主题
 

只看楼主 倒序阅读 使用道具 0 发表于: 2016-08-21
U3kyraj  
◎译  名 快手枪手快枪手/烧云/快手·枪手·快枪手/龙城计中计 5?L<N:;J_  
◎片  名 For A Few Bullets Nluoqo ac  
◎年  代 2016 iO[<1?  
◎国  家  中国大陆 tu?MYp;  
◎类  别  喜剧/动作 8V(pugJ  
◎语  言  普通话 njw|JnDv  
◎字  幕  简体中文/英文 y==CT Y@  
◎IMDb评分  5.3/10 from 8 users   pNIf=lA  
◎IMDb链接  http://www.imdb.com/title/tt5882704/ qFNes)_r  
◎文件格式  x264 + AAC $A` VYJtt#  
◎视频尺寸  1920 x 1080 N [yy M'C  
◎文件大小  4.94 GiB V> bCKtf&  
◎片  长  1h 55mn -(#iIgmP  
◎导  演 潘安子 Anzi Pan -gWZwW/lD  
◎主  演 林更新 kenny Lin   小庄 rbCAnwA2  
      张静初  Jingchu Zhang   李若云 rD>f|kA?L  
      腾格尔  Tenggeer   石佛 +]50DxflA  
      刘晓庆  Xiaoqing Liu   金三娘 'ah[(F<*@e  
      锦荣  Vivian Dawson   宋静之 m9A!D  
      曾江  Kenneth Tsang Y DFyX){  
      韩朴俊  Piao-jun Han 5^KWCS7@  
      韩秋池  Qiuchi Han 7`YEH2  
      施予斐  Yufei Shi EyLuO-5  
      郭冬冬  Dongdong Guo - R6)ROGl  
     (3&?wy_l  
     t.'!`5G  
◎简     介 _{Hj^}+$  
_]*>*XfF(  
     市井骗子小庄(林更新 饰)机智却爱耍小聪明,以一双“快手”行走江湖,赌局中被“枪手”李若云(张静初 饰)威胁,踏上找回传国玉玺的寻宝之路。途中二人默契配合,与老顽童石佛(腾格尔 饰)、金三娘(刘晓庆 饰)夫妻二人组成“夺宝者联盟”,与觊觎国宝的宋静之(锦荣 饰)等斗智斗勇,夺宝途中一段段故事让人啼笑皆非…… +&"zU GTIc  
T"}vAG( .O  
t!\tF[9e  
General f>Jr|#k  
Format                         : MPEG-4 6B ?twh)  
Format profile                 : Base Media "v4B5:bmqW  
Codec ID                       : isom g|Fn7]G  
File size                      : 4.94 GiB wIBO ^w\J  
Duration                       : 1h 55mn iRi-cQVy  
Overall bit rate mode          : Variable '-/xyAzS  
Overall bit rate               : 6 142 Kbps mju>>\9  
Encoded date                   : UTC 2016-08-12 11:22:36 D+7R z_=  
Tagged date                    : UTC 2016-08-12 11:22:36 U2~kJ  
Copyright                      : PPTV-2.4.0.(20,20)[1] Km6YP!i  
Y]u+\y~  
Video 3K/MvNI>  
ID                             : 1  "{Eta  
Format                         : AVC ,tJ" 5O3-  
Format/Info                    : Advanced Video Codec -n<pPau2  
Format profile                 : High@L4 ([LSsZ]sj  
Format settings, CABAC         : Yes 5=?\1`e1[  
Format settings, ReFrames      : 4 frames "E?2xf|.  
Codec ID                       : avc1 ,47Y9Kz9  
Codec ID/Info                  : Advanced Video Coding JOLaP@IPT  
Duration                       : 1h 55mn 'B0{_RaTb  
Bit rate                       : 6 000 Kbps P{+T< bk|  
Maximum bit rate               : 13.7 Mbps |(LZ9I  
Width                          : 1 920 pixels 8j % Tf;  
Height                         : 1 080 pixels O[)kboY  
Display aspect ratio           : 16:9 rOOT8nkR#  
Frame rate mode                : Constant 6@0OQb  
Frame rate                     : 25.000 fps 6WJ)by  
Color space                    : YUV C-MjJ6D<  
Chroma subsampling             : 4:2:0 T7u%^xm  
Bit depth                      : 8 bits ],a5)kV  
Scan type                      : Progressive 474SMx$  
Bits/(Pixel*Frame)             : 0.116 5ZK@`jkE  
Stream size                    : 4.78 GiB (97%) Y+*0~xm4  
Title                          : VideoByEZMediaEditor 9-DZU,`P  
Writing library                : x264()-core 129 - H.264/MPEG-4 ,\n&I(  
Encoding settings              : cabac=1 / ref=4 / deblock=1:0:0 / analyse=0x3:0x133 / me=umh / subme=9 / psy=1 / psy_rd=0.00:0.00 / mixed_ref=1 / me_range=24 / chroma_me=1 / trellis=2 / 8x8dct=1 / cqm=0 / deadzone=21,11 / fast_pskip=0 / chroma_qp_offset=0 / threads=40 / lookahead_threads=6 / sliced_threads=0 / nr=0 / decimate=1 / interlaced=0 / bluray_compat=0 / constrained_intra=0 / bframes=4 / b_pyramid=2 / b_adapt=0 / b_bias=0 / direct=3 / weightb=1 / open_gop=0 / weightp=2 / keyint=250 / keyint_min=25 / scenecut=40 / intra_refresh=0 / rc_lookahead=60 / rc=abr / mbtree=1 / bitrate=6000 / ratetol=1.0 / qcomp=0.60 / qpmin=0 / qpmax=69 / qpstep=4 / vbv_maxrate=12000 / vbv_bufsize=6000 / nal_hrd=none / ip_ratio=1.40 / aq=1:1.00 gSUcx9f]  
Encoded date                   : UTC 2016-08-12 11:22:36 "4+ WZR]  
Tagged date                    : UTC 2016-08-12 11:23:21 Te wb?:  
a\E:sPM'>  
Audio &6YIn|}  
ID                             : 2 '~&X wZ&  
Format                         : AAC 5^lxj~ F  
Format/Info                    : Advanced Audio Codec Hx*;jpy(2  
Format profile                 : LC S.m{eur!,E  
Codec ID                       : 40 .my0|4CQ#@  
Duration                       : 1h 55mn v ` 7RCg`  
Bit rate mode                  : Variable *ikc]wQr$  
Bit rate                       : 192 Kbps ws|;  `  
Maximum bit rate               : 199 Kbps m{uxI za  
Channel(s)                     : 2 channels g,95T Bc  
Channel positions              : Front: L R 9Hu/u=vB<  
Sampling rate                  : 44.1 KHz "4H +!r}  
Compression mode               : Lossy I'iGt~4$  
Stream size                    : 156 MiB (3%) /fT+^&  
Title                          : Audio1- SNE#0L' }  
Encoded date                   : UTC 2016-08-12 11:23:19 z3M6V}s4  
Tagged date                    : UTC 2016-08-12 11:23:21 MP 2~; T}~  
\z7SkZt,GT  
uVDa^+=  
UE ,t8j  
快手枪手快枪手 烧云 快手·枪手·快枪手 龙城计中计.For A Few Bullets 2016 1080p W.torrent (27 K) 下载次数:66