切换到宽版
  • 821阅读
  • 0回复

快手枪手快枪手/烧云/快手·枪手·快枪手/龙城计中计.For A Few Bullets 2016 1080p WEB-DL x264 AAC-SeeHD [复制链接]

上一主题 下一主题
 

只看楼主 倒序阅读 使用道具 0 发表于: 2016-08-21
8=sMmpB 7u  
◎译  名 快手枪手快枪手/烧云/快手·枪手·快枪手/龙城计中计 LTD;  
◎片  名 For A Few Bullets ~65lDFY/  
◎年  代 2016 '&xRb*  
◎国  家  中国大陆 yF&?gPh&  
◎类  别  喜剧/动作 ##NowO  
◎语  言  普通话 %} Ob~m>P  
◎字  幕  简体中文/英文 dI8y}EbE~  
◎IMDb评分  5.3/10 from 8 users   /0F <GBQ"v  
◎IMDb链接  http://www.imdb.com/title/tt5882704/ e-{4qt  
◎文件格式  x264 + AAC BtWm ZaKi  
◎视频尺寸  1920 x 1080 .3,Ow(3l  
◎文件大小  4.94 GiB 1T7;=<g`  
◎片  长  1h 55mn K* 0]*am|v  
◎导  演 潘安子 Anzi Pan obIY C  
◎主  演 林更新 kenny Lin   小庄 }"chm=b  
      张静初  Jingchu Zhang   李若云 G Q+g.{c  
      腾格尔  Tenggeer   石佛 3WdANR  
      刘晓庆  Xiaoqing Liu   金三娘 9_S>G$9D  
      锦荣  Vivian Dawson   宋静之 .We"j_ }  
      曾江  Kenneth Tsang x~O_v  
      韩朴俊  Piao-jun Han .7GAGMNS  
      韩秋池  Qiuchi Han (svd~he2  
      施予斐  Yufei Shi >*mLbp"  
      郭冬冬  Dongdong Guo u%Yr&u  
     m&#a M8:\  
     )wY bcH  
◎简     介 F{aM6I  
D3%`vq u&  
     市井骗子小庄(林更新 饰)机智却爱耍小聪明,以一双“快手”行走江湖,赌局中被“枪手”李若云(张静初 饰)威胁,踏上找回传国玉玺的寻宝之路。途中二人默契配合,与老顽童石佛(腾格尔 饰)、金三娘(刘晓庆 饰)夫妻二人组成“夺宝者联盟”,与觊觎国宝的宋静之(锦荣 饰)等斗智斗勇,夺宝途中一段段故事让人啼笑皆非…… jG3i )ALx  
76*5/J-  
eqE%ofW  
General vN4 g#,<  
Format                         : MPEG-4 BK:S:  
Format profile                 : Base Media S}*%l)vfR  
Codec ID                       : isom bMw)> 4  
File size                      : 4.94 GiB FP PGf!Eq  
Duration                       : 1h 55mn !Q5ip'L  
Overall bit rate mode          : Variable ^^Tu/YC9x  
Overall bit rate               : 6 142 Kbps MoP 0qNk  
Encoded date                   : UTC 2016-08-12 11:22:36 f)+fdc  
Tagged date                    : UTC 2016-08-12 11:22:36 &Qdd\h#  
Copyright                      : PPTV-2.4.0.(20,20)[1] VXAgp6  
/TgG^|  
Video l0$ +)FKd  
ID                             : 1 DNaU mz  
Format                         : AVC ;2;Kq)j_=  
Format/Info                    : Advanced Video Codec &H{KXX"X  
Format profile                 : High@L4 b1;80P/:D  
Format settings, CABAC         : Yes s],+]<qX  
Format settings, ReFrames      : 4 frames `QlChxd  
Codec ID                       : avc1 b|*A%?m  
Codec ID/Info                  : Advanced Video Coding >p 7e6%  
Duration                       : 1h 55mn 8Mq] V v  
Bit rate                       : 6 000 Kbps @`ttyI^1f  
Maximum bit rate               : 13.7 Mbps  jibrSz  
Width                          : 1 920 pixels ,wlh0;,  
Height                         : 1 080 pixels f&Bu_r  
Display aspect ratio           : 16:9 "rr,P0lgX  
Frame rate mode                : Constant 0Kjm:x9T  
Frame rate                     : 25.000 fps k]"Rg2>%  
Color space                    : YUV h30~2]hH  
Chroma subsampling             : 4:2:0 b&!7(Q[ sT  
Bit depth                      : 8 bits (6G5UwSt  
Scan type                      : Progressive z rt8ze=Su  
Bits/(Pixel*Frame)             : 0.116 e}e\*BL  
Stream size                    : 4.78 GiB (97%) j%KLp4J/e  
Title                          : VideoByEZMediaEditor '+ |{4-V  
Writing library                : x264()-core 129 - H.264/MPEG-4 &Fl^&&1C  
Encoding settings              : cabac=1 / ref=4 / deblock=1:0:0 / analyse=0x3:0x133 / me=umh / subme=9 / psy=1 / psy_rd=0.00:0.00 / mixed_ref=1 / me_range=24 / chroma_me=1 / trellis=2 / 8x8dct=1 / cqm=0 / deadzone=21,11 / fast_pskip=0 / chroma_qp_offset=0 / threads=40 / lookahead_threads=6 / sliced_threads=0 / nr=0 / decimate=1 / interlaced=0 / bluray_compat=0 / constrained_intra=0 / bframes=4 / b_pyramid=2 / b_adapt=0 / b_bias=0 / direct=3 / weightb=1 / open_gop=0 / weightp=2 / keyint=250 / keyint_min=25 / scenecut=40 / intra_refresh=0 / rc_lookahead=60 / rc=abr / mbtree=1 / bitrate=6000 / ratetol=1.0 / qcomp=0.60 / qpmin=0 / qpmax=69 / qpstep=4 / vbv_maxrate=12000 / vbv_bufsize=6000 / nal_hrd=none / ip_ratio=1.40 / aq=1:1.00 % ;2x.  
Encoded date                   : UTC 2016-08-12 11:22:36 y@G5I>v  
Tagged date                    : UTC 2016-08-12 11:23:21 *"Ipu"G5?  
t\]CdH`+  
Audio !G#3jh:kiY  
ID                             : 2 @M"h_Z1#  
Format                         : AAC r 8,6qP[  
Format/Info                    : Advanced Audio Codec Mnaoh:z  
Format profile                 : LC 8+uwzBNZ:  
Codec ID                       : 40 1k\1U  
Duration                       : 1h 55mn L;'+O u  
Bit rate mode                  : Variable xUzSS@ot^  
Bit rate                       : 192 Kbps [Qv%  
Maximum bit rate               : 199 Kbps N.u)Mbe   
Channel(s)                     : 2 channels H.Z:at5n  
Channel positions              : Front: L R >b |l6 #%  
Sampling rate                  : 44.1 KHz 5Y)!q?#H  
Compression mode               : Lossy _#e='~;  
Stream size                    : 156 MiB (3%) 1z$;>+g<  
Title                          : Audio1- rBkf@  
Encoded date                   : UTC 2016-08-12 11:23:19 ~-6Kl3Y  
Tagged date                    : UTC 2016-08-12 11:23:21 lvb0dOmY  
/H,!7!6>?  
d"nE+pgE  
TjlKy  
快手枪手快枪手 烧云 快手·枪手·快枪手 龙城计中计.For A Few Bullets 2016 1080p W.torrent (27 K) 下载次数:102