切换到宽版
  • 906阅读
  • 0回复

快手枪手快枪手/烧云/快手·枪手·快枪手/龙城计中计.For A Few Bullets 2016 1080p WEB-DL x264 AAC-SeeHD [复制链接]

上一主题 下一主题
 

只看楼主 倒序阅读 使用道具 0 发表于: 2016-08-21
"?Xb$V7  
◎译  名 快手枪手快枪手/烧云/快手·枪手·快枪手/龙城计中计 t+ O7dZt%r  
◎片  名 For A Few Bullets Z/= HQ8  
◎年  代 2016 2W=am_\0e.  
◎国  家  中国大陆 I=wA)Bli1p  
◎类  别  喜剧/动作 YDo,9  
◎语  言  普通话 mi$*,fz  
◎字  幕  简体中文/英文 Ke,$3Yx  
◎IMDb评分  5.3/10 from 8 users    GbbD)  
◎IMDb链接  http://www.imdb.com/title/tt5882704/ u7ER  
◎文件格式  x264 + AAC 4Nz]LK%@  
◎视频尺寸  1920 x 1080 @1G`d53N  
◎文件大小  4.94 GiB *heX[D &>)  
◎片  长  1h 55mn 'P<T,:z?  
◎导  演 潘安子 Anzi Pan p+d?k"WN?  
◎主  演 林更新 kenny Lin   小庄 9x[|75}l  
      张静初  Jingchu Zhang   李若云 +UC-  
      腾格尔  Tenggeer   石佛 MbeO(Q  
      刘晓庆  Xiaoqing Liu   金三娘 rJ}k!}G  
      锦荣  Vivian Dawson   宋静之 z2.ZxL"*  
      曾江  Kenneth Tsang yW)X asn  
      韩朴俊  Piao-jun Han f1UGDC<p9  
      韩秋池  Qiuchi Han S) [$F}  
      施予斐  Yufei Shi 60&4?<lR4  
      郭冬冬  Dongdong Guo "<I*ViZ  
     #-Nc1+gu   
     X7gtR|[  
◎简     介 Rt10:9Kz$  
8st~ O  
     市井骗子小庄(林更新 饰)机智却爱耍小聪明,以一双“快手”行走江湖,赌局中被“枪手”李若云(张静初 饰)威胁,踏上找回传国玉玺的寻宝之路。途中二人默契配合,与老顽童石佛(腾格尔 饰)、金三娘(刘晓庆 饰)夫妻二人组成“夺宝者联盟”,与觊觎国宝的宋静之(锦荣 饰)等斗智斗勇,夺宝途中一段段故事让人啼笑皆非…… -?&s6XA%#  
U:o(%dk  
t=$Hv  
General QUU'/e2^c  
Format                         : MPEG-4 "vG~2J  
Format profile                 : Base Media R-2V C  
Codec ID                       : isom W6[# q%o  
File size                      : 4.94 GiB b #[7A  
Duration                       : 1h 55mn -YHyJs-bU  
Overall bit rate mode          : Variable ~)&im.Q4  
Overall bit rate               : 6 142 Kbps RTR@p =ck  
Encoded date                   : UTC 2016-08-12 11:22:36 C7lBK<gQ  
Tagged date                    : UTC 2016-08-12 11:22:36 >k{KwFB^S  
Copyright                      : PPTV-2.4.0.(20,20)[1] oDEvh N T  
<X,0\U!lL  
Video )0W-S9e<  
ID                             : 1 #+,O  
Format                         : AVC 2gnmk TyF  
Format/Info                    : Advanced Video Codec @on\@~Ug  
Format profile                 : High@L4  M} {'kK  
Format settings, CABAC         : Yes XY1e eB-  
Format settings, ReFrames      : 4 frames $-:j'e:j  
Codec ID                       : avc1 /Sag_[i  
Codec ID/Info                  : Advanced Video Coding ?pJUbZ#J  
Duration                       : 1h 55mn };= 44E'7  
Bit rate                       : 6 000 Kbps )mVpJYt;  
Maximum bit rate               : 13.7 Mbps -I\Y m_)  
Width                          : 1 920 pixels $rG~0  
Height                         : 1 080 pixels {KO +t7'Q  
Display aspect ratio           : 16:9 V!94I2%#x  
Frame rate mode                : Constant x.OCE`  
Frame rate                     : 25.000 fps BRg(h3 ED  
Color space                    : YUV m|5yET  
Chroma subsampling             : 4:2:0 L93KsI  
Bit depth                      : 8 bits 7CKh?>  
Scan type                      : Progressive WKB8k-.]ww  
Bits/(Pixel*Frame)             : 0.116 ]VU a $$  
Stream size                    : 4.78 GiB (97%) C3p/|{TP  
Title                          : VideoByEZMediaEditor LT ZoO9O  
Writing library                : x264()-core 129 - H.264/MPEG-4 `>mT/Rmb@  
Encoding settings              : cabac=1 / ref=4 / deblock=1:0:0 / analyse=0x3:0x133 / me=umh / subme=9 / psy=1 / psy_rd=0.00:0.00 / mixed_ref=1 / me_range=24 / chroma_me=1 / trellis=2 / 8x8dct=1 / cqm=0 / deadzone=21,11 / fast_pskip=0 / chroma_qp_offset=0 / threads=40 / lookahead_threads=6 / sliced_threads=0 / nr=0 / decimate=1 / interlaced=0 / bluray_compat=0 / constrained_intra=0 / bframes=4 / b_pyramid=2 / b_adapt=0 / b_bias=0 / direct=3 / weightb=1 / open_gop=0 / weightp=2 / keyint=250 / keyint_min=25 / scenecut=40 / intra_refresh=0 / rc_lookahead=60 / rc=abr / mbtree=1 / bitrate=6000 / ratetol=1.0 / qcomp=0.60 / qpmin=0 / qpmax=69 / qpstep=4 / vbv_maxrate=12000 / vbv_bufsize=6000 / nal_hrd=none / ip_ratio=1.40 / aq=1:1.00 jg_##Oha  
Encoded date                   : UTC 2016-08-12 11:22:36 `Ko6;s#  
Tagged date                    : UTC 2016-08-12 11:23:21 Bco_\cpt]z  
*75?%l  
Audio >pV|c\  
ID                             : 2 [N-t6Z*  
Format                         : AAC ^l(Kj3gM  
Format/Info                    : Advanced Audio Codec rg^  
Format profile                 : LC Jt3]'Nr04@  
Codec ID                       : 40 `f9I#B  
Duration                       : 1h 55mn #l!Sz247  
Bit rate mode                  : Variable ?u`TX_OsB  
Bit rate                       : 192 Kbps 1~HR;cTv=  
Maximum bit rate               : 199 Kbps h* to%N  
Channel(s)                     : 2 channels *Hnk,?kPq  
Channel positions              : Front: L R Y GZX}-  
Sampling rate                  : 44.1 KHz '01ifA^  
Compression mode               : Lossy T@ [*V[  
Stream size                    : 156 MiB (3%) ) DzbJ}  
Title                          : Audio1- <L1;aNN  
Encoded date                   : UTC 2016-08-12 11:23:19 BmRk|b  
Tagged date                    : UTC 2016-08-12 11:23:21 g)<t=+a  
0t-!6  
J8T?=%?=  
lJfn3  
快手枪手快枪手 烧云 快手·枪手·快枪手 龙城计中计.For A Few Bullets 2016 1080p W.torrent (27 K) 下载次数:110