切换到宽版
  • 785阅读
  • 0回复

快手枪手快枪手/烧云/快手·枪手·快枪手/龙城计中计.For A Few Bullets 2016 1080p WEB-DL x264 AAC-SeeHD [复制链接]

上一主题 下一主题
 

只看楼主 倒序阅读 使用道具 0 发表于: 2016-08-21
~'%d]s+q  
◎译  名 快手枪手快枪手/烧云/快手·枪手·快枪手/龙城计中计  Kg';[G\  
◎片  名 For A Few Bullets THhxj)  
◎年  代 2016 m@XX2l9:9  
◎国  家  中国大陆 QIMd`c  
◎类  别  喜剧/动作 GKIzU^f  
◎语  言  普通话 C/Q20  
◎字  幕  简体中文/英文 UxNn5(:sM@  
◎IMDb评分  5.3/10 from 8 users   8%CznAO"?W  
◎IMDb链接  http://www.imdb.com/title/tt5882704/ \)/qCeiZ  
◎文件格式  x264 + AAC } d}gb`Du  
◎视频尺寸  1920 x 1080 39 }e }W"  
◎文件大小  4.94 GiB c  qCNk  
◎片  长  1h 55mn 2*V%S/cck  
◎导  演 潘安子 Anzi Pan ^WB[uFt-  
◎主  演 林更新 kenny Lin   小庄 O80Z7  
      张静初  Jingchu Zhang   李若云 DQY1oM)D !  
      腾格尔  Tenggeer   石佛 HjA~3l7  
      刘晓庆  Xiaoqing Liu   金三娘 I%r7L  
      锦荣  Vivian Dawson   宋静之 C{/U;Ie -b  
      曾江  Kenneth Tsang #a=]h}&1?  
      韩朴俊  Piao-jun Han A^,u l>!  
      韩秋池  Qiuchi Han zgjgEhnvU  
      施予斐  Yufei Shi M _< |n  
      郭冬冬  Dongdong Guo O~qRHYv  
     ra*|HcLD  
     ~$6` e:n  
◎简     介 $V 3If  
A x8>  
     市井骗子小庄(林更新 饰)机智却爱耍小聪明,以一双“快手”行走江湖,赌局中被“枪手”李若云(张静初 饰)威胁,踏上找回传国玉玺的寻宝之路。途中二人默契配合,与老顽童石佛(腾格尔 饰)、金三娘(刘晓庆 饰)夫妻二人组成“夺宝者联盟”,与觊觎国宝的宋静之(锦荣 饰)等斗智斗勇,夺宝途中一段段故事让人啼笑皆非…… u W,J5!  
\m|5Aqs  
B bmw[Qf\  
General t`Bk2Cc)+  
Format                         : MPEG-4 y/S3ZJY  
Format profile                 : Base Media VgXT4gO!  
Codec ID                       : isom E|;>!MMA;  
File size                      : 4.94 GiB Jf2JGTcm  
Duration                       : 1h 55mn w&H>`l06  
Overall bit rate mode          : Variable ,M`1 k  
Overall bit rate               : 6 142 Kbps ys[xR=nbD  
Encoded date                   : UTC 2016-08-12 11:22:36 .>;??BG}  
Tagged date                    : UTC 2016-08-12 11:22:36 ltNI+G  
Copyright                      : PPTV-2.4.0.(20,20)[1] )8^E{w^D}  
m&=Dy5  
Video k^d]E F  
ID                             : 1 00;SK!+$  
Format                         : AVC GCYXDovh  
Format/Info                    : Advanced Video Codec  spP[S"gI  
Format profile                 : High@L4 ROTKK8:+:  
Format settings, CABAC         : Yes <UO[*_,\  
Format settings, ReFrames      : 4 frames 3L==p`   
Codec ID                       : avc1 k 76<CX  
Codec ID/Info                  : Advanced Video Coding ILDO/>n  
Duration                       : 1h 55mn D6lzc f  
Bit rate                       : 6 000 Kbps |s/Kb]t  
Maximum bit rate               : 13.7 Mbps VTL_I^p  
Width                          : 1 920 pixels \1<aBgK i  
Height                         : 1 080 pixels ]/h$6mrL  
Display aspect ratio           : 16:9 fPTLPcPP  
Frame rate mode                : Constant wclj9&k  
Frame rate                     : 25.000 fps ? ;Sg,.J  
Color space                    : YUV uy2~<)  
Chroma subsampling             : 4:2:0 1:<n(?5JI  
Bit depth                      : 8 bits pvsY 0a@4  
Scan type                      : Progressive 56YqYu.  
Bits/(Pixel*Frame)             : 0.116 'J*'{  
Stream size                    : 4.78 GiB (97%) el$@^Wy&$  
Title                          : VideoByEZMediaEditor b' ^<0c  
Writing library                : x264()-core 129 - H.264/MPEG-4 U= GJuixy  
Encoding settings              : cabac=1 / ref=4 / deblock=1:0:0 / analyse=0x3:0x133 / me=umh / subme=9 / psy=1 / psy_rd=0.00:0.00 / mixed_ref=1 / me_range=24 / chroma_me=1 / trellis=2 / 8x8dct=1 / cqm=0 / deadzone=21,11 / fast_pskip=0 / chroma_qp_offset=0 / threads=40 / lookahead_threads=6 / sliced_threads=0 / nr=0 / decimate=1 / interlaced=0 / bluray_compat=0 / constrained_intra=0 / bframes=4 / b_pyramid=2 / b_adapt=0 / b_bias=0 / direct=3 / weightb=1 / open_gop=0 / weightp=2 / keyint=250 / keyint_min=25 / scenecut=40 / intra_refresh=0 / rc_lookahead=60 / rc=abr / mbtree=1 / bitrate=6000 / ratetol=1.0 / qcomp=0.60 / qpmin=0 / qpmax=69 / qpstep=4 / vbv_maxrate=12000 / vbv_bufsize=6000 / nal_hrd=none / ip_ratio=1.40 / aq=1:1.00 U4dfO=  
Encoded date                   : UTC 2016-08-12 11:22:36 5xKod0bA  
Tagged date                    : UTC 2016-08-12 11:23:21 Heqr1btK  
:KC]1_zqR  
Audio mW)kWuOO  
ID                             : 2 T*B`8P  
Format                         : AAC vt"bB  
Format/Info                    : Advanced Audio Codec _T.`+0UV  
Format profile                 : LC uUp>N^mmVH  
Codec ID                       : 40 4J'0k<5S  
Duration                       : 1h 55mn q@S \R 7R  
Bit rate mode                  : Variable a"4X7 D+  
Bit rate                       : 192 Kbps $[HCetaqV  
Maximum bit rate               : 199 Kbps IV1O/lGp  
Channel(s)                     : 2 channels #(}{*d R  
Channel positions              : Front: L R 66B,Krz1n  
Sampling rate                  : 44.1 KHz )X*_oH=  
Compression mode               : Lossy 'p!&&.%  
Stream size                    : 156 MiB (3%) qldm"Ul  
Title                          : Audio1- AWFq5YMSI  
Encoded date                   : UTC 2016-08-12 11:23:19  \v:Z;EbX  
Tagged date                    : UTC 2016-08-12 11:23:21 DI-&P3iGx  
?^:5`  
.+8#&Uy  
, DuyPBAms  
快手枪手快枪手 烧云 快手·枪手·快枪手 龙城计中计.For A Few Bullets 2016 1080p W.torrent (27 K) 下载次数:95