切换到宽版
  • 525阅读
  • 0回复

快手枪手快枪手/烧云/快手·枪手·快枪手/龙城计中计.For A Few Bullets 2016 1080p WEB-DL x264 AAC-SeeHD [复制链接]

上一主题 下一主题
 

只看楼主 倒序阅读 使用道具 0 发表于: 2016-08-21
|T6K?:U7  
◎译  名 快手枪手快枪手/烧云/快手·枪手·快枪手/龙城计中计 Q-w# !<L.  
◎片  名 For A Few Bullets WiytHuUF  
◎年  代 2016 0#8   
◎国  家  中国大陆 _p*9LsN$L  
◎类  别  喜剧/动作 S[F06.(1  
◎语  言  普通话 G]>yk_#/\U  
◎字  幕  简体中文/英文 XYo,5-  
◎IMDb评分  5.3/10 from 8 users   O=2|'L'h!  
◎IMDb链接  http://www.imdb.com/title/tt5882704/ 4f\NtQ)  
◎文件格式  x264 + AAC (L/>LZn|  
◎视频尺寸  1920 x 1080 zTg\\z;  
◎文件大小  4.94 GiB a!$kKOK  
◎片  长  1h 55mn pt <zyH3Z  
◎导  演 潘安子 Anzi Pan 1tNL)x"w  
◎主  演 林更新 kenny Lin   小庄 TwkT|Piw S  
      张静初  Jingchu Zhang   李若云 J9mK9{#q  
      腾格尔  Tenggeer   石佛 e#C v*i_<  
      刘晓庆  Xiaoqing Liu   金三娘 @N Yl4N  
      锦荣  Vivian Dawson   宋静之 Cb;6yE)!Z  
      曾江  Kenneth Tsang 1q7&WG  
      韩朴俊  Piao-jun Han D^6*Cwb  
      韩秋池  Qiuchi Han h]oUY.Pf  
      施予斐  Yufei Shi aS [[ AL  
      郭冬冬  Dongdong Guo G WIsT\J  
     E`fG9:6l]  
     ]M5~p^ RB  
◎简     介 [bh?p+V  
RCR= W6  
     市井骗子小庄(林更新 饰)机智却爱耍小聪明,以一双“快手”行走江湖,赌局中被“枪手”李若云(张静初 饰)威胁,踏上找回传国玉玺的寻宝之路。途中二人默契配合,与老顽童石佛(腾格尔 饰)、金三娘(刘晓庆 饰)夫妻二人组成“夺宝者联盟”,与觊觎国宝的宋静之(锦荣 饰)等斗智斗勇,夺宝途中一段段故事让人啼笑皆非…… k+h}HCzE  
+dCDk* /m  
Ugri _  
General V+`kB3GV  
Format                         : MPEG-4 9mi@PW}1  
Format profile                 : Base Media At.& $ t  
Codec ID                       : isom egq,)6>  
File size                      : 4.94 GiB rRe5Q  
Duration                       : 1h 55mn =0cTct6 \  
Overall bit rate mode          : Variable ,XT,t[w  
Overall bit rate               : 6 142 Kbps >+%#m'Y&&  
Encoded date                   : UTC 2016-08-12 11:22:36 1ubu~6  
Tagged date                    : UTC 2016-08-12 11:22:36 s 4`-mIa  
Copyright                      : PPTV-2.4.0.(20,20)[1] bsQ'kBD  
*Dp&;,b  
Video S F)$b  
ID                             : 1 wiN0|h>,  
Format                         : AVC oywiX@]~7  
Format/Info                    : Advanced Video Codec s$#64"F  
Format profile                 : High@L4 d'_q9uf'  
Format settings, CABAC         : Yes L2VwW  
Format settings, ReFrames      : 4 frames 0fqcPi  
Codec ID                       : avc1 c^W;p2^  
Codec ID/Info                  : Advanced Video Coding )w].m  
Duration                       : 1h 55mn 2* g2UP  
Bit rate                       : 6 000 Kbps B!&5*f}*  
Maximum bit rate               : 13.7 Mbps &kb~N-  
Width                          : 1 920 pixels H>+/k-n-  
Height                         : 1 080 pixels ':4ny]F  
Display aspect ratio           : 16:9 F+*E}QpM  
Frame rate mode                : Constant 5RLO}Vn]  
Frame rate                     : 25.000 fps  hlVC+%8  
Color space                    : YUV ?^|[Yzk  
Chroma subsampling             : 4:2:0 EP38Ho=[  
Bit depth                      : 8 bits 'ON/WKJr|W  
Scan type                      : Progressive Sj ovL@X  
Bits/(Pixel*Frame)             : 0.116 T.#_v# oM  
Stream size                    : 4.78 GiB (97%) />xEpR3_A  
Title                          : VideoByEZMediaEditor S[L@8z.Sj  
Writing library                : x264()-core 129 - H.264/MPEG-4 2[Bbdg[O  
Encoding settings              : cabac=1 / ref=4 / deblock=1:0:0 / analyse=0x3:0x133 / me=umh / subme=9 / psy=1 / psy_rd=0.00:0.00 / mixed_ref=1 / me_range=24 / chroma_me=1 / trellis=2 / 8x8dct=1 / cqm=0 / deadzone=21,11 / fast_pskip=0 / chroma_qp_offset=0 / threads=40 / lookahead_threads=6 / sliced_threads=0 / nr=0 / decimate=1 / interlaced=0 / bluray_compat=0 / constrained_intra=0 / bframes=4 / b_pyramid=2 / b_adapt=0 / b_bias=0 / direct=3 / weightb=1 / open_gop=0 / weightp=2 / keyint=250 / keyint_min=25 / scenecut=40 / intra_refresh=0 / rc_lookahead=60 / rc=abr / mbtree=1 / bitrate=6000 / ratetol=1.0 / qcomp=0.60 / qpmin=0 / qpmax=69 / qpstep=4 / vbv_maxrate=12000 / vbv_bufsize=6000 / nal_hrd=none / ip_ratio=1.40 / aq=1:1.00 cEHpa%_5  
Encoded date                   : UTC 2016-08-12 11:22:36 OG#^d5(  
Tagged date                    : UTC 2016-08-12 11:23:21 Hl$qmq  
i<S \x  
Audio W<<G  'Km  
ID                             : 2 U,b80%k:  
Format                         : AAC Cnpl0rV~5  
Format/Info                    : Advanced Audio Codec zDYJe_m ~  
Format profile                 : LC y6am(ugE  
Codec ID                       : 40 )-+tN>Bb  
Duration                       : 1h 55mn J|xXo  
Bit rate mode                  : Variable 8+!G /p  
Bit rate                       : 192 Kbps 70avr)OM  
Maximum bit rate               : 199 Kbps {X, -T&  
Channel(s)                     : 2 channels ~a=]w#-KD  
Channel positions              : Front: L R .dzw5R&  
Sampling rate                  : 44.1 KHz oItC ;T  
Compression mode               : Lossy :V8oWMY  
Stream size                    : 156 MiB (3%) 4-O.i\1q  
Title                          : Audio1- i_L u  
Encoded date                   : UTC 2016-08-12 11:23:19 }f> 81[^  
Tagged date                    : UTC 2016-08-12 11:23:21 H|s Iw:  
\ bNDeA&l  
fpNq  
= r=/L  
快手枪手快枪手 烧云 快手·枪手·快枪手 龙城计中计.For A Few Bullets 2016 1080p W.torrent (27 K) 下载次数:65