切换到宽版
  • 747阅读
  • 0回复

快手枪手快枪手/烧云/快手·枪手·快枪手/龙城计中计.For A Few Bullets 2016 1080p WEB-DL x264 AAC-SeeHD [复制链接]

上一主题 下一主题
 

只看楼主 倒序阅读 使用道具 0 发表于: 2016-08-21
lhy*h_>  
◎译  名 快手枪手快枪手/烧云/快手·枪手·快枪手/龙城计中计 8X[:j&@  
◎片  名 For A Few Bullets 37s0e;aF  
◎年  代 2016 'uBu6G  
◎国  家  中国大陆 'Gj3:-xqL  
◎类  别  喜剧/动作 M/b Sud?@%  
◎语  言  普通话 e|"W Q>  
◎字  幕  简体中文/英文 JRB9rSN^  
◎IMDb评分  5.3/10 from 8 users   `sn^ysp  
◎IMDb链接  http://www.imdb.com/title/tt5882704/ !LNayk's>  
◎文件格式  x264 + AAC Q'=x|K#xj  
◎视频尺寸  1920 x 1080 X% t1 T4  
◎文件大小  4.94 GiB |fK1/<sz#  
◎片  长  1h 55mn GS$ifv  
◎导  演 潘安子 Anzi Pan >;e~WF>+K  
◎主  演 林更新 kenny Lin   小庄 KcWN,!G  
      张静初  Jingchu Zhang   李若云 5?{ r  
      腾格尔  Tenggeer   石佛 geru=7  
      刘晓庆  Xiaoqing Liu   金三娘 Fs9!S a7v  
      锦荣  Vivian Dawson   宋静之 f6hnTbJ  
      曾江  Kenneth Tsang 0"<H;7K#W  
      韩朴俊  Piao-jun Han oB(?_No7  
      韩秋池  Qiuchi Han gb[5&> (#  
      施予斐  Yufei Shi f%][}NN)Xr  
      郭冬冬  Dongdong Guo 11 Q1AN  
     em%4Ap  
     +}Dw3;W}m  
◎简     介 5-:?&|JK;  
luh$2 \5B  
     市井骗子小庄(林更新 饰)机智却爱耍小聪明,以一双“快手”行走江湖,赌局中被“枪手”李若云(张静初 饰)威胁,踏上找回传国玉玺的寻宝之路。途中二人默契配合,与老顽童石佛(腾格尔 饰)、金三娘(刘晓庆 饰)夫妻二人组成“夺宝者联盟”,与觊觎国宝的宋静之(锦荣 饰)等斗智斗勇,夺宝途中一段段故事让人啼笑皆非…… ;17E(tl  
P) Jgs  
u-QB.iQ+s  
General *& BQTZ6  
Format                         : MPEG-4 BX`{73sw  
Format profile                 : Base Media R`NYEptJ  
Codec ID                       : isom *7uH-u"5d  
File size                      : 4.94 GiB g];!&R-  
Duration                       : 1h 55mn ^9v4OUG  
Overall bit rate mode          : Variable 01 }D,W`  
Overall bit rate               : 6 142 Kbps bV^rsJm  
Encoded date                   : UTC 2016-08-12 11:22:36 /CrSu  
Tagged date                    : UTC 2016-08-12 11:22:36 KjD/o?JUr  
Copyright                      : PPTV-2.4.0.(20,20)[1] 7`*h2 mgY  
R$R *'l  
Video m+ =] m_  
ID                             : 1 {5Q!Y&N.%  
Format                         : AVC sA+ }TNhq  
Format/Info                    : Advanced Video Codec 2=*H 8'k  
Format profile                 : High@L4 wW Lj?;bx  
Format settings, CABAC         : Yes  6fkRrD  
Format settings, ReFrames      : 4 frames )*$lp'~7N  
Codec ID                       : avc1 /J]5H  
Codec ID/Info                  : Advanced Video Coding P0;n9>g  
Duration                       : 1h 55mn /T"+KU*  
Bit rate                       : 6 000 Kbps ./\@Km?  
Maximum bit rate               : 13.7 Mbps 2R[:]-b  
Width                          : 1 920 pixels #$.;'#u'so  
Height                         : 1 080 pixels em y[k  
Display aspect ratio           : 16:9 Sh/08+@+L:  
Frame rate mode                : Constant 1y:-N6  
Frame rate                     : 25.000 fps ]}V<*f  
Color space                    : YUV Z3Og=XHR  
Chroma subsampling             : 4:2:0 x[cL Bc<  
Bit depth                      : 8 bits zrvF]|1UP  
Scan type                      : Progressive E fqX y>W  
Bits/(Pixel*Frame)             : 0.116 v_yw@  
Stream size                    : 4.78 GiB (97%) @="Pn5<]C  
Title                          : VideoByEZMediaEditor  \__i  
Writing library                : x264()-core 129 - H.264/MPEG-4 ~?l | [  
Encoding settings              : cabac=1 / ref=4 / deblock=1:0:0 / analyse=0x3:0x133 / me=umh / subme=9 / psy=1 / psy_rd=0.00:0.00 / mixed_ref=1 / me_range=24 / chroma_me=1 / trellis=2 / 8x8dct=1 / cqm=0 / deadzone=21,11 / fast_pskip=0 / chroma_qp_offset=0 / threads=40 / lookahead_threads=6 / sliced_threads=0 / nr=0 / decimate=1 / interlaced=0 / bluray_compat=0 / constrained_intra=0 / bframes=4 / b_pyramid=2 / b_adapt=0 / b_bias=0 / direct=3 / weightb=1 / open_gop=0 / weightp=2 / keyint=250 / keyint_min=25 / scenecut=40 / intra_refresh=0 / rc_lookahead=60 / rc=abr / mbtree=1 / bitrate=6000 / ratetol=1.0 / qcomp=0.60 / qpmin=0 / qpmax=69 / qpstep=4 / vbv_maxrate=12000 / vbv_bufsize=6000 / nal_hrd=none / ip_ratio=1.40 / aq=1:1.00 \UA[  
Encoded date                   : UTC 2016-08-12 11:22:36 Kf3"Wf^q   
Tagged date                    : UTC 2016-08-12 11:23:21 xH ]Ct~ md  
!n`fTK<$  
Audio Usvl}{L[  
ID                             : 2 jV i) Efy  
Format                         : AAC IYv`IS"  
Format/Info                    : Advanced Audio Codec _T60;ZI+^  
Format profile                 : LC ;[ZEDF5H  
Codec ID                       : 40 _O?`@g?i  
Duration                       : 1h 55mn e[1hz_ v  
Bit rate mode                  : Variable t5Sy V:fP  
Bit rate                       : 192 Kbps Q3'llOx  
Maximum bit rate               : 199 Kbps poE0{HOU  
Channel(s)                     : 2 channels 10Q ]67  
Channel positions              : Front: L R #mxPw  
Sampling rate                  : 44.1 KHz RU|Q ]Ymx  
Compression mode               : Lossy 4Z3su^XR  
Stream size                    : 156 MiB (3%) KYm0@O>;  
Title                          : Audio1- hE{K=Tz$  
Encoded date                   : UTC 2016-08-12 11:23:19 j^*dmX  
Tagged date                    : UTC 2016-08-12 11:23:21 )$2QZ qX  
hPkp;a #  
2k~l$p>CN!  
E:68?IJ  
快手枪手快枪手 烧云 快手·枪手·快枪手 龙城计中计.For A Few Bullets 2016 1080p W.torrent (27 K) 下载次数:80