切换到宽版
  • 1153阅读
  • 1回复

三人行(4K版).Three.2016.4K.2160p.WEB-DL.x264.AC3-SeeHD [复制链接]

上一主题 下一主题
 

只看楼主 倒序阅读 使用道具 0 发表于: 2016-07-27
Qy)+YhE  
◎译  名 三人行 [-Zp[  
◎片  名 Three *]ROUk@K=  
◎年  代 2016 9,?\hBEu  
◎国  家 中国/中国香港 `EV" /&`  
◎类  别 动作/犯罪 q P<n<  
◎语  言 普通话/粤语 /`M> 3 q[  
◎字  幕 简体中文(内嵌) D;f [7Cac  
◎IMDb评分  6.4/10 from 144 users R&w2 y$  
◎IMDB链接  http://www.imdb.com/title/tt4379728/ ?'xTSAn  
◎文件格式  x264+ AC3 IrAc&Ehul  
◎视频尺寸  3840x1 608 g$&uD  
◎文件大小  1CD 4.19GB r52X}Y  
◎片  长 1 h 28 min L{v^:  
◎导  演 杜琪峰 Johnnie To U6hT*126  
◎主  演 赵薇 Wei Zhao kmJ {(y)w  
      古天乐 Louis Koo  nI1DLVt  
      钟汉良 Wallace Chung (nhv#&Fd+  
      卢海鹏 Hoi-Pang Lo U'pm5Mc\q  
      林雪 Suet Lam o8 A]vaa  
      张兆辉 Siu-Fai Cheung 8 S'g%  
      谢天华 Michael Tse CgLS2  
      洪天明 Timmy Hung Tin-Ming xS~O Acxg  
      黄浩然 Raymond Wong Ho-Yin oo{5 :  
      龚慈恩 Mimi Kung ];bl;BP  
      王梓轩 Jonathan Wong Chee-hynn j@1rVOmK  
      欧锦棠 Stephen Au F&{RP>  
      何果轩 Guoxuan He l2DhFt$!=  
      詹秉熙 Bing Hei Chim +k!Y]_&(:f  
      菁玮 Luvin Ho RU>Hr5ebo  
Qm| Q0u   
◎简  介 }*!7 Vrep  
V?g@pnN"  
  影片讲述了六小时内,一个医生——佟倩(赵薇 饰)、一个悍匪——张礼信(钟汉良 饰)、一个警察——陈伟乐(古天乐 饰),三方在“生、老、病、死”轮回不断的医院发生的惊心动魄的交锋。生死一线,自我执念引发诸多隐瞒、利用与欺骗,三人越走越偏,危机一触即发…… -+1it  
RP]hW{:U  
花絮 9N9dQ}[:g  
4X2XSK4  
.钟汉良从开始就不断剃掉右边的头发以保持毒贩的造型。 &9CKI/K:  
B;M{v5s~]  
.本片是钟汉良和古天乐继《毒战》之后的再度合作。 Ol>"'  
20hF2V  
.拍摄古天乐和钟汉良的追逐戏以前,为了研究走位等动作,两位演员排练了很多遍。钟汉良则吊着威亚,带着保护垫,在洗手间与地板之间的慢行,因空隙狭窄,身位刚刚好能过,不能有任何偏差。 gf!hO$sQ3  
<B]\&  
.影片真个拍摄片场的主场景医院,在最后一场戏中要被整个炸毁。 55vpnRM  
O?uT'$GT  
.杜导在访谈中爆料有十分钟的长镜头,不是通过摄影机升格拍摄,而是由演员以慢动作达到的效果。为了这个长镜头,参与拍摄的演员训练了长达2个月之久。 C;DNL^  
,}M@Am0~  
.拍动作戏时,钟汉良一只耳朵受伤。古天乐的一身肌肉不是盖的,一般人招架不住,发布会上,赵薇称她是被打肿的,真的是实打实打了一晚上。导演还给赵薇加戏,让她打回去。7钟汉良曾说自己就是杜琪峰的粉丝,杜导成他为“钟仔”。 1sFTXl  
VjU;[  
.饰演脑科医生的赵薇为了效果更加逼真,之前特意跟真的医生上课学习,研究病人心理,戏里给病人做检查的手势显得相当专业。 <!.'"*2  
r`]&{0}23  
.这是赵薇与杜琪峰的第一次合作,而她早前支持吴君如监制的《十二金鸭》,曾在片中客串并与古天乐热舞,所以本片算是她与古仔的二度合作。 QK0  
0\t k/<w2  
.对于杜琪峰的拍摄邀约,赵薇表示初听时特别激动,当时只弱弱地提一个要求:“不想演大佬背后的女人”,没想到杜导却让自己淹了一位女大佬。 }i1p &EN^  
0_Hdj K  
.杜琪峰爆料整个医院的场景花费了大概三四千万,是影片花钱最多的地方。 Cc:4n1|]>  
TlEx w0i!  
.影片邀请真正的脑科医生来片场指导,手术器材都是真的。13钟汉良大部分拍摄过程都是在床上完成的,肢体动作非常受局限。 V:h-K`~ /  
GS|sx  
.编剧游乃海每天在现场憋剧本,哪天憋不出来,只能收工回家继续憋。 @Taj++ua  
IVYWda0m  
General DXlP (={*  
Format                         : Matroska _S:6;_bz  
Format version                 : Version 4 / Version 2 W1X\!Y  
File size                      : 4.19GB +zxj-di M  
Duration                       : 1h 28mn daT[2M  
Overall bit rate               : 6 813 Kbps F]~rA! g1  
Encoded date                   : UTC 2016-07-23 03:21:15 \1 4"Bgj1  
$AAv%v  
Video DSY:aD!  
ID                             : 1 O YGh!sW  
Format                         : AVC 37 )Dx  
Format/Info                    : Advanced Video Codec LTu cs }  
Format profile                 : High@L5.1 66<3zadJZU  
Format settings, CABAC         : Yes l-"c-2-!  
Format settings, ReFrames      : 3 frames BM*9d%m^  
Codec ID                       : V_MPEG4/ISO/AVC H{'<v|I  
Duration                       : 1h 28mn {aI8p}T  
Bit rate                       : 6 230 Kbps G#/}_P  
Width                          : 3 840 pixels `r+"2.z*  
Height                         : 1 608 pixels 0uzm @'^  
Display aspect ratio           : 2.40:1 H4LZNko  
Frame rate mode                : Constant V,bfD3S3  
Frame rate                     : 24.000 fps O"4Q=~Y  
Color space                    : YUV )/H=m7}1h  
Chroma subsampling             : 4:2:0 _[-+%RP  
Bit depth                      : 8 bits .Gv9RKgd~  
Scan type                      : Progressive v8"plx=3  
Bits/(Pixel*Frame)             : 0.042 i(9=` A}  
Stream size                    : 3.83GB (91%) WO W4c&  
Writing library                : qiyi.com vtc-test *6~ODiB  
Default                        : Yes I|lz;i}$  
Forced                         : No >TUs~  
Color primaries                : BT.709 LRBcW;.Su  
Transfer characteristics       : BT.709 Z]l<,m  
Matrix coefficients            : BT.709 4g]Er<-P  
I%^Ks$<"  
Audio #1 W R@=[G#TJ  
ID                             : 2  t4pc2b  
Format                         : AC-3 Dt)\q^bH)  
Format/Info                    : Audio Coding 3 z]ZhvH7-  
Mode extension                 : CM (complete main) yfeX=h  
Format settings, Endianness    : Big U'zW; Lt  
Codec ID                       : A_AC3 D/jB .  
Duration                       : 1h 28mn J@Eqqyf"  
Bit rate mode                  : Constant 5Jq~EB{"  
Bit rate                       : 224 Kbps 24"Trg\WK[  
Channel(s)                     : 2 channels {4Y@ DQ-  
Channel positions              : Front: L R zu&5[XL  
Sampling rate                  : 44.1 KHz X-9>;Mb ~y  
Bit depth                      : 16 bits H];|<G  
Compression mode               : Lossy !s#25}9zX5  
Stream size                    : 141 MiB (3%) mh]'/C_*<w  
Default                        : Yes R km1fYf  
Forced                         : No V0 x[sEW  
}$3eRu +  
Audio #2 q}e"E cr  
ID                             : 3 L<!}!v5ja  
Format                         : AC-3 ]&\HAmOQS  
Format/Info                    : Audio Coding 3 )ALPMmlRs  
Mode extension                 : CM (complete main) `,d*>  
Format settings, Endianness    : Big S V16]Vc  
Codec ID                       : A_AC3 'gk.J  
Duration                       : 1h 28mn L^} Z:I  
Bit rate mode                  : Constant c4ptY5R),  
Bit rate                       : 224 Kbps "l!WO`.zp=  
Channel(s)                     : 2 channels ?>5[~rMn  
Channel positions              : Front: L R ^]w!ow41  
Sampling rate                  : 44.1 KHz @#K19\dQ  
Bit depth                      : 16 bits 84^ '^nd  
Compression mode               : Lossy 3TqC.S5+  
Stream size                    : 141 MiB (3%) QU^*(HGip  
Default                        : No D].!u{##  
Forced                         : No tGnBx)J|  
$E3- </ f  
0UZ>y/ C)=  
6M9t<DQV  
三人行(4K版).Three.2016.4K.2160p.WEB-DL.x264.AC3-SeeHD.torrent (23 K) 下载次数:114

只看该作者 1 发表于: 2016-08-03
唔系几好睇,没以前的杜式好!