切换到宽版
  • 982阅读
  • 1回复

三人行(4K版).Three.2016.4K.2160p.WEB-DL.x264.AC3-SeeHD [复制链接]

上一主题 下一主题
 

只看楼主 倒序阅读 使用道具 0 发表于: 2016-07-27
H~<w*[uT  
◎译  名 三人行 Msst:}QY  
◎片  名 Three OVUJiBp  
◎年  代 2016 5#U=x ,7e  
◎国  家 中国/中国香港 77H" =  
◎类  别 动作/犯罪 ZbfpMZ g  
◎语  言 普通话/粤语 Csf!I@}Z  
◎字  幕 简体中文(内嵌) b<27XZ@  
◎IMDb评分  6.4/10 from 144 users F S!D  
◎IMDB链接  http://www.imdb.com/title/tt4379728/ oYAHyCkVq  
◎文件格式  x264+ AC3 :y1,OR/k  
◎视频尺寸  3840x1 608 k@|G o )~  
◎文件大小  1CD 4.19GB 1"S~#  
◎片  长 1 h 28 min FSD~Q&9&  
◎导  演 杜琪峰 Johnnie To ,lDOo+eE%:  
◎主  演 赵薇 Wei Zhao `q m$2  
      古天乐 Louis Koo Pr hGp _5  
      钟汉良 Wallace Chung :6jh*,OHZl  
      卢海鹏 Hoi-Pang Lo ~s2la~gu  
      林雪 Suet Lam JXQh$hs  
      张兆辉 Siu-Fai Cheung zGtv(gwk  
      谢天华 Michael Tse 9?tG?b0  
      洪天明 Timmy Hung Tin-Ming trz &]v=:  
      黄浩然 Raymond Wong Ho-Yin Cs'<;|r(  
      龚慈恩 Mimi Kung a`6R}|ZB  
      王梓轩 Jonathan Wong Chee-hynn ^t Y _ q  
      欧锦棠 Stephen Au c&'5r OY~  
      何果轩 Guoxuan He j1O_Az|3  
      詹秉熙 Bing Hei Chim 1O2jvt7M  
      菁玮 Luvin Ho UIC~%?oIA  
S*V!t=  
◎简  介 Eg(.L,dj  
pEq }b+-  
  影片讲述了六小时内,一个医生——佟倩(赵薇 饰)、一个悍匪——张礼信(钟汉良 饰)、一个警察——陈伟乐(古天乐 饰),三方在“生、老、病、死”轮回不断的医院发生的惊心动魄的交锋。生死一线,自我执念引发诸多隐瞒、利用与欺骗,三人越走越偏,危机一触即发…… Jd28/X5&  
R1~wzy  
花絮 qF Xx/FZ  
x7!gmbMfK'  
.钟汉良从开始就不断剃掉右边的头发以保持毒贩的造型。 c2wgJH!g  
?izl#?  
.本片是钟汉良和古天乐继《毒战》之后的再度合作。 )Wy:I_F351  
}"M5"?  
.拍摄古天乐和钟汉良的追逐戏以前,为了研究走位等动作,两位演员排练了很多遍。钟汉良则吊着威亚,带着保护垫,在洗手间与地板之间的慢行,因空隙狭窄,身位刚刚好能过,不能有任何偏差。 W H%EC$  
s)G?5Gz  
.影片真个拍摄片场的主场景医院,在最后一场戏中要被整个炸毁。 PZihC  
zs.@=Z"  
.杜导在访谈中爆料有十分钟的长镜头,不是通过摄影机升格拍摄,而是由演员以慢动作达到的效果。为了这个长镜头,参与拍摄的演员训练了长达2个月之久。 @a (-U.CZ  
uj@d {AQ  
.拍动作戏时,钟汉良一只耳朵受伤。古天乐的一身肌肉不是盖的,一般人招架不住,发布会上,赵薇称她是被打肿的,真的是实打实打了一晚上。导演还给赵薇加戏,让她打回去。7钟汉良曾说自己就是杜琪峰的粉丝,杜导成他为“钟仔”。 dy]ZS<Hz8G  
|4rq j 1*U  
.饰演脑科医生的赵薇为了效果更加逼真,之前特意跟真的医生上课学习,研究病人心理,戏里给病人做检查的手势显得相当专业。 #ri;{d^6  
}H:wgy`  
.这是赵薇与杜琪峰的第一次合作,而她早前支持吴君如监制的《十二金鸭》,曾在片中客串并与古天乐热舞,所以本片算是她与古仔的二度合作。 `(M0I!t  
*iVE O  
.对于杜琪峰的拍摄邀约,赵薇表示初听时特别激动,当时只弱弱地提一个要求:“不想演大佬背后的女人”,没想到杜导却让自己淹了一位女大佬。 )]C(NTfxg  
NUFW SL>  
.杜琪峰爆料整个医院的场景花费了大概三四千万,是影片花钱最多的地方。 '"T9y=9]s  
dP?QPky{9  
.影片邀请真正的脑科医生来片场指导,手术器材都是真的。13钟汉良大部分拍摄过程都是在床上完成的,肢体动作非常受局限。 vZ1?4hG  
Id=V\'$o  
.编剧游乃海每天在现场憋剧本,哪天憋不出来,只能收工回家继续憋。 hC?rHw H>  
Jwpc8MQ  
General sh*/wM  
Format                         : Matroska x/0loW?q^  
Format version                 : Version 4 / Version 2 ~l}\K10L*  
File size                      : 4.19GB aKintb}n  
Duration                       : 1h 28mn 3)y=}jw  
Overall bit rate               : 6 813 Kbps N@X(YlO  
Encoded date                   : UTC 2016-07-23 03:21:15 -""(>$b 2  
<m~{60{  
Video SqZ .}s  
ID                             : 1 "s}Oeu[  
Format                         : AVC {DZ xK(  
Format/Info                    : Advanced Video Codec {E0\mZ2  
Format profile                 : High@L5.1 Y h53Z"a  
Format settings, CABAC         : Yes n`V?n  
Format settings, ReFrames      : 3 frames @VQ<X4 Za  
Codec ID                       : V_MPEG4/ISO/AVC QD-`jV3  
Duration                       : 1h 28mn _9'hmej  
Bit rate                       : 6 230 Kbps b [J0+l\!"  
Width                          : 3 840 pixels x[xRqC vL  
Height                         : 1 608 pixels biV NZdA  
Display aspect ratio           : 2.40:1 &Q*  7  
Frame rate mode                : Constant 13pu{Xak  
Frame rate                     : 24.000 fps 4s@Tn>%SP  
Color space                    : YUV A0OA7m:~4  
Chroma subsampling             : 4:2:0 fL*+[v4  
Bit depth                      : 8 bits V9jxmu F,  
Scan type                      : Progressive a#l ytp  
Bits/(Pixel*Frame)             : 0.042 hkdF  
Stream size                    : 3.83GB (91%) ;*0nPhBw0>  
Writing library                : qiyi.com vtc-test %y7ZcH'  
Default                        : Yes 7$x%A &]  
Forced                         : No _-rC]iQJ55  
Color primaries                : BT.709 5H 1N]v+  
Transfer characteristics       : BT.709 r&IDTS#  
Matrix coefficients            : BT.709 56 Z  
&TL"Hd  
Audio #1 qOIVuzi*  
ID                             : 2 Uq~b4X$  
Format                         : AC-3 z$L e,+  
Format/Info                    : Audio Coding 3 Uf MQ?(,  
Mode extension                 : CM (complete main) \XwC|[%P  
Format settings, Endianness    : Big +o):grWvQ  
Codec ID                       : A_AC3 s6r(\L_Im  
Duration                       : 1h 28mn 'Lw8l `7  
Bit rate mode                  : Constant jT!?lqr(Rb  
Bit rate                       : 224 Kbps ^qi+Y)dU|  
Channel(s)                     : 2 channels 9dm<(I}  
Channel positions              : Front: L R H_Xk;fM  
Sampling rate                  : 44.1 KHz 7 8r0K 5=  
Bit depth                      : 16 bits :LlZ#V2  
Compression mode               : Lossy V.6pfL  
Stream size                    : 141 MiB (3%) ><S(n#EB  
Default                        : Yes g*`xEb= '  
Forced                         : No ' sNiJ>  
&n#yxv4  
Audio #2 (&v,3>3]  
ID                             : 3 \ \Tz'>[\  
Format                         : AC-3 c{ +bY .J  
Format/Info                    : Audio Coding 3 9|[uie  
Mode extension                 : CM (complete main) l}r9kS  
Format settings, Endianness    : Big ~mwIr  
Codec ID                       : A_AC3 Go^TTL   
Duration                       : 1h 28mn qj `C6_?  
Bit rate mode                  : Constant Z`86YYGK  
Bit rate                       : 224 Kbps {jH'W)nR  
Channel(s)                     : 2 channels w^("Pg`  
Channel positions              : Front: L R T\(k=0R M  
Sampling rate                  : 44.1 KHz e /1x/v'  
Bit depth                      : 16 bits }/h&`0z `  
Compression mode               : Lossy 4Gh\T`=  
Stream size                    : 141 MiB (3%) }}ic{931  
Default                        : No 0w0{@\9  
Forced                         : No ?L0k|7  
0 q1x+  
a s('ZD.9  
tbiM>qxB  
三人行(4K版).Three.2016.4K.2160p.WEB-DL.x264.AC3-SeeHD.torrent (23 K) 下载次数:113

只看该作者 1 发表于: 2016-08-03
唔系几好睇,没以前的杜式好!