切换到宽版
  • 661阅读
  • 1回复

三人行(4K版).Three.2016.4K.2160p.WEB-DL.x264.AC3-SeeHD [复制链接]

上一主题 下一主题
 

只看楼主 倒序阅读 使用道具 0 发表于: 2016-07-27
o\vBOp?hj  
◎译  名 三人行 NnVnUgx  
◎片  名 Three Z`YJBcXR  
◎年  代 2016 4Qn$9D+?  
◎国  家 中国/中国香港 !ct4;.2 D  
◎类  别 动作/犯罪 K\|FQ^#UYm  
◎语  言 普通话/粤语 F-6c_!  
◎字  幕 简体中文(内嵌) w&ak"GgV  
◎IMDb评分  6.4/10 from 144 users qx%}knB  
◎IMDB链接  http://www.imdb.com/title/tt4379728/ 5h;+Ky!I  
◎文件格式  x264+ AC3 .`&F>o(A  
◎视频尺寸  3840x1 608 {s;U~!3aY  
◎文件大小  1CD 4.19GB B$Kn1 k  
◎片  长 1 h 28 min G}p\8Q}'  
◎导  演 杜琪峰 Johnnie To 64 5z#_}C$  
◎主  演 赵薇 Wei Zhao 0bo/XUpi  
      古天乐 Louis Koo _Zr.ba  
      钟汉良 Wallace Chung Tyck/ EO  
      卢海鹏 Hoi-Pang Lo yxc=Z0~1  
      林雪 Suet Lam Gw1@KKg  
      张兆辉 Siu-Fai Cheung Sf r&p>{,  
      谢天华 Michael Tse 7sXxq4  
      洪天明 Timmy Hung Tin-Ming .(WQYOMl0  
      黄浩然 Raymond Wong Ho-Yin F,'exuZ  
      龚慈恩 Mimi Kung kTvd+TP4  
      王梓轩 Jonathan Wong Chee-hynn ZGd!IghL  
      欧锦棠 Stephen Au Z R'H \Z  
      何果轩 Guoxuan He L~KM=[cn  
      詹秉熙 Bing Hei Chim qQH]`#P  
      菁玮 Luvin Ho piZJJYv t  
Pp5^@A  
◎简  介 @#-q^}3  
,11H.E Z  
  影片讲述了六小时内,一个医生——佟倩(赵薇 饰)、一个悍匪——张礼信(钟汉良 饰)、一个警察——陈伟乐(古天乐 饰),三方在“生、老、病、死”轮回不断的医院发生的惊心动魄的交锋。生死一线,自我执念引发诸多隐瞒、利用与欺骗,三人越走越偏,危机一触即发…… }O4^Cc6  
W!&vul5  
花絮 E\4 +_L_j  
Z LD}a:s  
.钟汉良从开始就不断剃掉右边的头发以保持毒贩的造型。 d8x\  
9,r rQQD_  
.本片是钟汉良和古天乐继《毒战》之后的再度合作。 [ra_ 2R  
L~NbdaO  
.拍摄古天乐和钟汉良的追逐戏以前,为了研究走位等动作,两位演员排练了很多遍。钟汉良则吊着威亚,带着保护垫,在洗手间与地板之间的慢行,因空隙狭窄,身位刚刚好能过,不能有任何偏差。 ?28N ^  
?n ZY)  
.影片真个拍摄片场的主场景医院,在最后一场戏中要被整个炸毁。 y)@[Sl>  
ZXuv CI  
.杜导在访谈中爆料有十分钟的长镜头,不是通过摄影机升格拍摄,而是由演员以慢动作达到的效果。为了这个长镜头,参与拍摄的演员训练了长达2个月之久。 ={xE! "  
m-*hygkcDu  
.拍动作戏时,钟汉良一只耳朵受伤。古天乐的一身肌肉不是盖的,一般人招架不住,发布会上,赵薇称她是被打肿的,真的是实打实打了一晚上。导演还给赵薇加戏,让她打回去。7钟汉良曾说自己就是杜琪峰的粉丝,杜导成他为“钟仔”。 N/K.%<h  
+lMX{es\O  
.饰演脑科医生的赵薇为了效果更加逼真,之前特意跟真的医生上课学习,研究病人心理,戏里给病人做检查的手势显得相当专业。 tyqT  
Kiu_JzD  
.这是赵薇与杜琪峰的第一次合作,而她早前支持吴君如监制的《十二金鸭》,曾在片中客串并与古天乐热舞,所以本片算是她与古仔的二度合作。 bq:(u4 3  
# a8B/-  
.对于杜琪峰的拍摄邀约,赵薇表示初听时特别激动,当时只弱弱地提一个要求:“不想演大佬背后的女人”,没想到杜导却让自己淹了一位女大佬。 {*I``T_+  
F6{bjv2A  
.杜琪峰爆料整个医院的场景花费了大概三四千万,是影片花钱最多的地方。 v63"^%LX  
`6]%P(#a  
.影片邀请真正的脑科医生来片场指导,手术器材都是真的。13钟汉良大部分拍摄过程都是在床上完成的,肢体动作非常受局限。 ''\O v  
([m mPyp>L  
.编剧游乃海每天在现场憋剧本,哪天憋不出来,只能收工回家继续憋。 L'0B$6  
jT]0WS-b  
General .xm.DRk3  
Format                         : Matroska l^pA2yh|  
Format version                 : Version 4 / Version 2 [k;\SXDZo  
File size                      : 4.19GB t7j);W%e6  
Duration                       : 1h 28mn C8V/UbA /  
Overall bit rate               : 6 813 Kbps iA'lon  
Encoded date                   : UTC 2016-07-23 03:21:15 :?g:~+hfO  
hM6PP7XH  
Video UJ CYs`y  
ID                             : 1 ; Q3n  
Format                         : AVC , P70J b  
Format/Info                    : Advanced Video Codec !y@NAa0  
Format profile                 : High@L5.1 QSszn`e  
Format settings, CABAC         : Yes 0Tx{3#  
Format settings, ReFrames      : 3 frames -y8`yHb_  
Codec ID                       : V_MPEG4/ISO/AVC C1m]*}U  
Duration                       : 1h 28mn ebUBrxZX  
Bit rate                       : 6 230 Kbps DVB{2~7 4  
Width                          : 3 840 pixels 7Z\--=;|[:  
Height                         : 1 608 pixels  a1t4Dd  
Display aspect ratio           : 2.40:1 p~BRh  
Frame rate mode                : Constant  %yW3VL  
Frame rate                     : 24.000 fps qB0E _y)a  
Color space                    : YUV 1m:XR0P  
Chroma subsampling             : 4:2:0 )FF>IFHG  
Bit depth                      : 8 bits zQ@I}K t  
Scan type                      : Progressive h]5C|M|  
Bits/(Pixel*Frame)             : 0.042 _aad=BrMK  
Stream size                    : 3.83GB (91%) 0?\Zm)Q~(  
Writing library                : qiyi.com vtc-test g`vny)\7/  
Default                        : Yes '_w=k 4  
Forced                         : No U(Nu%  
Color primaries                : BT.709 8S mCpg  
Transfer characteristics       : BT.709 VY;{/.Sa  
Matrix coefficients            : BT.709 wKZ$iGMbz  
aY'C%^h]  
Audio #1 wkA+j9.  
ID                             : 2 V5sg#|&  
Format                         : AC-3 ~]pE'\D7Ad  
Format/Info                    : Audio Coding 3 \Xm,OE_v"  
Mode extension                 : CM (complete main) 4zev^FR  
Format settings, Endianness    : Big M dZ&A}S  
Codec ID                       : A_AC3 -+ SF  
Duration                       : 1h 28mn yj;sSRT  
Bit rate mode                  : Constant ^W' fA{sr  
Bit rate                       : 224 Kbps 4 N H  
Channel(s)                     : 2 channels /<@SFF .  
Channel positions              : Front: L R ;1`fC@rI  
Sampling rate                  : 44.1 KHz gVq;m>\|F  
Bit depth                      : 16 bits r@v,T8  
Compression mode               : Lossy q qpgy7  
Stream size                    : 141 MiB (3%) ,k{#S?:b  
Default                        : Yes P3cRl']  
Forced                         : No M9V q -U18  
A )^`?m3  
Audio #2 o.w\l\  
ID                             : 3 i@P)a'W_  
Format                         : AC-3 S4^vpY DeN  
Format/Info                    : Audio Coding 3 5mJJU  
Mode extension                 : CM (complete main) E~%jX }/  
Format settings, Endianness    : Big U]^HjfX\  
Codec ID                       : A_AC3 Y? x,  
Duration                       : 1h 28mn ]l1\? I  
Bit rate mode                  : Constant v1BDP<qU2  
Bit rate                       : 224 Kbps 4]h =yc R  
Channel(s)                     : 2 channels W%T>SpFl  
Channel positions              : Front: L R !n* +(lZ  
Sampling rate                  : 44.1 KHz 19O,a#{KHf  
Bit depth                      : 16 bits lDOCmdt@N  
Compression mode               : Lossy ZAv,*5&<  
Stream size                    : 141 MiB (3%) )Y2{_ bx4"  
Default                        : No a= DcZ_M  
Forced                         : No ] 8Q4B W  
>#hO).`C  
5&v~i\Q  
jUSmq m'  
三人行(4K版).Three.2016.4K.2160p.WEB-DL.x264.AC3-SeeHD.torrent (23 K) 下载次数:105

只看该作者 1 发表于: 2016-08-03
唔系几好睇,没以前的杜式好!