切换到宽版
  • 934阅读
  • 1回复

三人行(4K版).Three.2016.4K.2160p.WEB-DL.x264.AC3-SeeHD [复制链接]

上一主题 下一主题
 

只看楼主 倒序阅读 使用道具 0 发表于: 2016-07-27
Q?uHdmY*X  
◎译  名 三人行 R$Or&:E ^  
◎片  名 Three Y_SB3 $])  
◎年  代 2016 <<5x"W(,  
◎国  家 中国/中国香港 aR0'$*3E  
◎类  别 动作/犯罪  a\@k5?  
◎语  言 普通话/粤语 @3_[NI%  
◎字  幕 简体中文(内嵌) &u}]3E'-k  
◎IMDb评分  6.4/10 from 144 users {^jk_G\ys  
◎IMDB链接  http://www.imdb.com/title/tt4379728/ iu9<]1k  
◎文件格式  x264+ AC3 fp`k1Uq@  
◎视频尺寸  3840x1 608 BdQ/kXZu+  
◎文件大小  1CD 4.19GB 1 @"os[ 9  
◎片  长 1 h 28 min XQhbH^  
◎导  演 杜琪峰 Johnnie To /nas~{B  
◎主  演 赵薇 Wei Zhao L55VS:'  
      古天乐 Louis Koo S+* g  
      钟汉良 Wallace Chung li7"{+ct  
      卢海鹏 Hoi-Pang Lo aSVR +of  
      林雪 Suet Lam ~qu}<u)P  
      张兆辉 Siu-Fai Cheung JMVh\($,x  
      谢天华 Michael Tse J7Y lmi  
      洪天明 Timmy Hung Tin-Ming wk[4Qsk<  
      黄浩然 Raymond Wong Ho-Yin y|Vwy4tK9  
      龚慈恩 Mimi Kung (BG wBL  
      王梓轩 Jonathan Wong Chee-hynn +F@ZVMp  
      欧锦棠 Stephen Au cI/Puh^3  
      何果轩 Guoxuan He ! a!^'2  
      詹秉熙 Bing Hei Chim z\zqmW6  
      菁玮 Luvin Ho dc=~EG-_rM  
^9`S`Bhp  
◎简  介 <]wQ;14;H  
O;C C(  
  影片讲述了六小时内,一个医生——佟倩(赵薇 饰)、一个悍匪——张礼信(钟汉良 饰)、一个警察——陈伟乐(古天乐 饰),三方在“生、老、病、死”轮回不断的医院发生的惊心动魄的交锋。生死一线,自我执念引发诸多隐瞒、利用与欺骗,三人越走越偏,危机一触即发…… c)B <d#  
|:b!e  
花絮 +txHj(Y`  
eH' J  
.钟汉良从开始就不断剃掉右边的头发以保持毒贩的造型。 x$+ g/7*  
?j|i|WUD  
.本片是钟汉良和古天乐继《毒战》之后的再度合作。 s.j6" Q[W  
Qt(4N!j  
.拍摄古天乐和钟汉良的追逐戏以前,为了研究走位等动作,两位演员排练了很多遍。钟汉良则吊着威亚,带着保护垫,在洗手间与地板之间的慢行,因空隙狭窄,身位刚刚好能过,不能有任何偏差。 \_|g}&}6Y  
g7@.Fa.u'!  
.影片真个拍摄片场的主场景医院,在最后一场戏中要被整个炸毁。 C]GW u~QF  
</-aG[Fi  
.杜导在访谈中爆料有十分钟的长镜头,不是通过摄影机升格拍摄,而是由演员以慢动作达到的效果。为了这个长镜头,参与拍摄的演员训练了长达2个月之久。 wG}R h,  
XZH\HK)K-]  
.拍动作戏时,钟汉良一只耳朵受伤。古天乐的一身肌肉不是盖的,一般人招架不住,发布会上,赵薇称她是被打肿的,真的是实打实打了一晚上。导演还给赵薇加戏,让她打回去。7钟汉良曾说自己就是杜琪峰的粉丝,杜导成他为“钟仔”。 o%_Hmd;_'  
7AuzGA0y  
.饰演脑科医生的赵薇为了效果更加逼真,之前特意跟真的医生上课学习,研究病人心理,戏里给病人做检查的手势显得相当专业。 LnlDCbF;!  
R!y`p:O C  
.这是赵薇与杜琪峰的第一次合作,而她早前支持吴君如监制的《十二金鸭》,曾在片中客串并与古天乐热舞,所以本片算是她与古仔的二度合作。 _4- UM2o;  
>^ TcO  
.对于杜琪峰的拍摄邀约,赵薇表示初听时特别激动,当时只弱弱地提一个要求:“不想演大佬背后的女人”,没想到杜导却让自己淹了一位女大佬。 .F^372hH3  
[iGL~RiXtn  
.杜琪峰爆料整个医院的场景花费了大概三四千万,是影片花钱最多的地方。 (y!V0iy]  
y|2y! &o,!  
.影片邀请真正的脑科医生来片场指导,手术器材都是真的。13钟汉良大部分拍摄过程都是在床上完成的,肢体动作非常受局限。 C<yjGt VD  
X|Rw;FY  
.编剧游乃海每天在现场憋剧本,哪天憋不出来,只能收工回家继续憋。 Dg'BlrwbR  
"?r_A*U  
General ? uu,w  
Format                         : Matroska ~tB#Q6`nB  
Format version                 : Version 4 / Version 2 Y wu > k  
File size                      : 4.19GB ck\TTNA  
Duration                       : 1h 28mn CA]u3bf~  
Overall bit rate               : 6 813 Kbps [I2vg<my  
Encoded date                   : UTC 2016-07-23 03:21:15 N"-U)d-.  
j:P(,M[  
Video GFfZ TA  
ID                             : 1 Ac8t>;=&  
Format                         : AVC E:ti]$$  
Format/Info                    : Advanced Video Codec cg).b?g  
Format profile                 : High@L5.1 Sgq" 3(+%,  
Format settings, CABAC         : Yes |}D5q| d@n  
Format settings, ReFrames      : 3 frames H J0Rcw%  
Codec ID                       : V_MPEG4/ISO/AVC +V9<ug6 T  
Duration                       : 1h 28mn -W.bOr  
Bit rate                       : 6 230 Kbps a_U[!`/ w  
Width                          : 3 840 pixels =cWg 39$(I  
Height                         : 1 608 pixels 0@/C5 v  
Display aspect ratio           : 2.40:1 PsO>&Te2  
Frame rate mode                : Constant f?W"^6Df  
Frame rate                     : 24.000 fps BXa.XZ<n(  
Color space                    : YUV @~C C$Y$  
Chroma subsampling             : 4:2:0 @r3,|tkrz  
Bit depth                      : 8 bits nXAGwU8a  
Scan type                      : Progressive ]:}x 4O#  
Bits/(Pixel*Frame)             : 0.042 @YHt[>*S  
Stream size                    : 3.83GB (91%) NEW0dF&)  
Writing library                : qiyi.com vtc-test G0b##-.'^  
Default                        : Yes DyM<aT  
Forced                         : No Z7J4r TA  
Color primaries                : BT.709 7_c/wbA#me  
Transfer characteristics       : BT.709 9"cyZO  
Matrix coefficients            : BT.709 Zy=DY  
6!Uk c'r  
Audio #1 Y{g[LG`U  
ID                             : 2 ZDbzH=[  
Format                         : AC-3  EnP>  
Format/Info                    : Audio Coding 3 Tl L\&n.$  
Mode extension                 : CM (complete main) ui<Mnm_T;d  
Format settings, Endianness    : Big Mk8k,"RG&Z  
Codec ID                       : A_AC3 hUe\sv!x?  
Duration                       : 1h 28mn C=x70Y/  
Bit rate mode                  : Constant 349BQ5ND  
Bit rate                       : 224 Kbps _71&".A  
Channel(s)                     : 2 channels <{IeCir  
Channel positions              : Front: L R l._g[qa  
Sampling rate                  : 44.1 KHz {=6CL'_  
Bit depth                      : 16 bits -FQc_k?VF  
Compression mode               : Lossy wQ?Z y;/S  
Stream size                    : 141 MiB (3%) H^<?h6T  
Default                        : Yes \d-9Ndp nf  
Forced                         : No %e+{wU}w?2  
XwDt8TxL  
Audio #2 wU-Cb<^  
ID                             : 3 \-D[C+1(  
Format                         : AC-3 F%$l cQ04%  
Format/Info                    : Audio Coding 3 3:bP>l!  
Mode extension                 : CM (complete main) (5kL6d2  
Format settings, Endianness    : Big K0\`0E^,  
Codec ID                       : A_AC3 HpS1(%d"  
Duration                       : 1h 28mn .&.L@CRH  
Bit rate mode                  : Constant e#@u&+K/f  
Bit rate                       : 224 Kbps 5hfx2 O)  
Channel(s)                     : 2 channels |WSm puf  
Channel positions              : Front: L R V o%GO 9b;  
Sampling rate                  : 44.1 KHz z8 K#G%,:  
Bit depth                      : 16 bits [ZD`t,x(  
Compression mode               : Lossy EUS^Gtc  
Stream size                    : 141 MiB (3%) 0G3T.4I  
Default                        : No j#${ L6  
Forced                         : No 1pT/`x  
7eG@)5Uy  
p<&dy^mS  
RY*yj&?w [  
三人行(4K版).Three.2016.4K.2160p.WEB-DL.x264.AC3-SeeHD.torrent (23 K) 下载次数:113

只看该作者 1 发表于: 2016-08-03
唔系几好睇,没以前的杜式好!