切换到宽版
  • 1017阅读
  • 1回复

三人行(4K版).Three.2016.4K.2160p.WEB-DL.x264.AC3-SeeHD [复制链接]

上一主题 下一主题
 

只看楼主 倒序阅读 使用道具 0 发表于: 2016-07-27
:m]KVcF.  
◎译  名 三人行 Ml,~@} p  
◎片  名 Three )FQxVT,.  
◎年  代 2016 h`i*~${yg  
◎国  家 中国/中国香港 Z.}Z2K  
◎类  别 动作/犯罪 ^%5 ;Sc1V  
◎语  言 普通话/粤语 #~}4< 18  
◎字  幕 简体中文(内嵌) d+qeZGg^A  
◎IMDb评分  6.4/10 from 144 users Kz~ E"?  
◎IMDB链接  http://www.imdb.com/title/tt4379728/ ?,}:)oA_  
◎文件格式  x264+ AC3 hZIbN9)8A  
◎视频尺寸  3840x1 608 i/{dD"HwM  
◎文件大小  1CD 4.19GB mUan(iJ  
◎片  长 1 h 28 min kxQ al  
◎导  演 杜琪峰 Johnnie To QXI#gA  =  
◎主  演 赵薇 Wei Zhao  "tT68  
      古天乐 Louis Koo G^ShN45   
      钟汉良 Wallace Chung HXm&`  
      卢海鹏 Hoi-Pang Lo KzZfpdI92  
      林雪 Suet Lam %y)]Q|   
      张兆辉 Siu-Fai Cheung fQU5'wGp  
      谢天华 Michael Tse we0haK  
      洪天明 Timmy Hung Tin-Ming <=~*`eWV  
      黄浩然 Raymond Wong Ho-Yin uK%0,!q  
      龚慈恩 Mimi Kung bg\9 Lbjr  
      王梓轩 Jonathan Wong Chee-hynn lLur.f  
      欧锦棠 Stephen Au `3eQ#,G!  
      何果轩 Guoxuan He '7<^x>D|  
      詹秉熙 Bing Hei Chim ;fYJ]5>  
      菁玮 Luvin Ho QVF561Yz  
%0 p9\I  
◎简  介 RD6>\9  
vYybQ&E/  
  影片讲述了六小时内,一个医生——佟倩(赵薇 饰)、一个悍匪——张礼信(钟汉良 饰)、一个警察——陈伟乐(古天乐 饰),三方在“生、老、病、死”轮回不断的医院发生的惊心动魄的交锋。生死一线,自我执念引发诸多隐瞒、利用与欺骗,三人越走越偏,危机一触即发…… ,\ -4X  
o)wOXF  
花絮 5KNa-\  
9=J 3T66U  
.钟汉良从开始就不断剃掉右边的头发以保持毒贩的造型。 Alv "D  
naiQ$uq0  
.本片是钟汉良和古天乐继《毒战》之后的再度合作。 vL#I+_ 2  
mGpBj9jr1  
.拍摄古天乐和钟汉良的追逐戏以前,为了研究走位等动作,两位演员排练了很多遍。钟汉良则吊着威亚,带着保护垫,在洗手间与地板之间的慢行,因空隙狭窄,身位刚刚好能过,不能有任何偏差。 R5 i xG9  
%J+ w9Z  
.影片真个拍摄片场的主场景医院,在最后一场戏中要被整个炸毁。 "yK)9F[9Mo  
3!h3flE  
.杜导在访谈中爆料有十分钟的长镜头,不是通过摄影机升格拍摄,而是由演员以慢动作达到的效果。为了这个长镜头,参与拍摄的演员训练了长达2个月之久。 bZ#KfR  
]5Q)mWF  
.拍动作戏时,钟汉良一只耳朵受伤。古天乐的一身肌肉不是盖的,一般人招架不住,发布会上,赵薇称她是被打肿的,真的是实打实打了一晚上。导演还给赵薇加戏,让她打回去。7钟汉良曾说自己就是杜琪峰的粉丝,杜导成他为“钟仔”。 {`Z= LLL  
g,G{% dGsk  
.饰演脑科医生的赵薇为了效果更加逼真,之前特意跟真的医生上课学习,研究病人心理,戏里给病人做检查的手势显得相当专业。 BI<(]`FP;s  
FzOlM-)m   
.这是赵薇与杜琪峰的第一次合作,而她早前支持吴君如监制的《十二金鸭》,曾在片中客串并与古天乐热舞,所以本片算是她与古仔的二度合作。 (tF/2cZk  
-UWyBM3c@  
.对于杜琪峰的拍摄邀约,赵薇表示初听时特别激动,当时只弱弱地提一个要求:“不想演大佬背后的女人”,没想到杜导却让自己淹了一位女大佬。 _PLZ_c:O  
jgqeDl\=+  
.杜琪峰爆料整个医院的场景花费了大概三四千万,是影片花钱最多的地方。 pJ x H  
/uPMzl  
.影片邀请真正的脑科医生来片场指导,手术器材都是真的。13钟汉良大部分拍摄过程都是在床上完成的,肢体动作非常受局限。 b)>l7nOc  
? <w[ZWytm  
.编剧游乃海每天在现场憋剧本,哪天憋不出来,只能收工回家继续憋。 )afH:  
<' j ygZ(  
General p m<K6I  
Format                         : Matroska g2vt(Gf;  
Format version                 : Version 4 / Version 2 l$!Z};mw0E  
File size                      : 4.19GB &?I3xzvK  
Duration                       : 1h 28mn 4<- E0  
Overall bit rate               : 6 813 Kbps ZftucD|ZY/  
Encoded date                   : UTC 2016-07-23 03:21:15 z<s ~`  
S] 4RGWn  
Video KkJE-k*D+w  
ID                             : 1 @7sHFwtar?  
Format                         : AVC a ~k*Gd(  
Format/Info                    : Advanced Video Codec 3W[Ps?G  
Format profile                 : High@L5.1 _$mS=G(  
Format settings, CABAC         : Yes #%]?e N  
Format settings, ReFrames      : 3 frames lrgvY>E0  
Codec ID                       : V_MPEG4/ISO/AVC }5d|y*  
Duration                       : 1h 28mn SIzA0  
Bit rate                       : 6 230 Kbps m~@Lt~LZs  
Width                          : 3 840 pixels m;<5QK8f  
Height                         : 1 608 pixels G[ q<P  
Display aspect ratio           : 2.40:1 kqCUr|M.P  
Frame rate mode                : Constant lC^?Jk[N  
Frame rate                     : 24.000 fps c;'7o=rr  
Color space                    : YUV ?YM0VB,y  
Chroma subsampling             : 4:2:0  rjHW  
Bit depth                      : 8 bits 1! R:}r3t  
Scan type                      : Progressive 3UcOpq2i\  
Bits/(Pixel*Frame)             : 0.042 VKr oikz@]  
Stream size                    : 3.83GB (91%) ,`(Qs7)Xx  
Writing library                : qiyi.com vtc-test 1k)`C<l  
Default                        : Yes qjRp5  
Forced                         : No ]Wc 2$  
Color primaries                : BT.709 V/8yW3]Xy  
Transfer characteristics       : BT.709 5dLb`G f  
Matrix coefficients            : BT.709 1c $iW>0K  
\fC}l Ll  
Audio #1 3]/Y= A  
ID                             : 2 t2z@"e   
Format                         : AC-3 c6HH%|  
Format/Info                    : Audio Coding 3 I\VC2U  
Mode extension                 : CM (complete main) 28o!>*  
Format settings, Endianness    : Big -GL-&^3IjH  
Codec ID                       : A_AC3 <V*M%YWs  
Duration                       : 1h 28mn h!1CsLd[  
Bit rate mode                  : Constant  av!~B,  
Bit rate                       : 224 Kbps #]Q.B\\  
Channel(s)                     : 2 channels V, e  
Channel positions              : Front: L R mr`EcO0  
Sampling rate                  : 44.1 KHz 9Dx9alJR  
Bit depth                      : 16 bits xwrleB  
Compression mode               : Lossy %-[U;pJe;  
Stream size                    : 141 MiB (3%) 4+r26S,T  
Default                        : Yes ,xIW yI.  
Forced                         : No 31}k Nc}n  
#)$@Kvm  
Audio #2 8Vqh1<  
ID                             : 3 ,46k8%WW  
Format                         : AC-3 4O3-PU>N  
Format/Info                    : Audio Coding 3 mkt%|Kb.  
Mode extension                 : CM (complete main) 97(*-e=e  
Format settings, Endianness    : Big hlTM<E  
Codec ID                       : A_AC3 FG5t\!dt<  
Duration                       : 1h 28mn a(`@u&]WZ  
Bit rate mode                  : Constant !`#xFRHe  
Bit rate                       : 224 Kbps a;e~D 9%1  
Channel(s)                     : 2 channels [P746b_\e  
Channel positions              : Front: L R E 14Dq#L  
Sampling rate                  : 44.1 KHz fP:g}Z  
Bit depth                      : 16 bits 3.s.&^  
Compression mode               : Lossy >~k"C,6  
Stream size                    : 141 MiB (3%) 4&([<gyR<  
Default                        : No 2N:|BO>  
Forced                         : No weky 5(:  
$.2#G"|  
td#B$$[  
jRP9 e  
三人行(4K版).Three.2016.4K.2160p.WEB-DL.x264.AC3-SeeHD.torrent (23 K) 下载次数:123

只看该作者 1 发表于: 2016-08-03
唔系几好睇,没以前的杜式好!