切换到宽版
  • 826阅读
  • 1回复

三人行(4K版).Three.2016.4K.2160p.WEB-DL.x264.AC3-SeeHD [复制链接]

上一主题 下一主题
 

只看楼主 倒序阅读 使用道具 0 发表于: 2016-07-27
9ozUg,+Z|J  
◎译  名 三人行 B?J #NFUb  
◎片  名 Three g"sW_y_O  
◎年  代 2016 'PrrP3lO_~  
◎国  家 中国/中国香港 gaw/3@  
◎类  别 动作/犯罪 [SJ*ks,]  
◎语  言 普通话/粤语 Mrlv(1PQT  
◎字  幕 简体中文(内嵌) bR!*z   
◎IMDb评分  6.4/10 from 144 users ca1A9fvo  
◎IMDB链接  http://www.imdb.com/title/tt4379728/ (1(dL_?  
◎文件格式  x264+ AC3 7a}vb@  
◎视频尺寸  3840x1 608 Jtxwt[  
◎文件大小  1CD 4.19GB Zg/ra1n  
◎片  长 1 h 28 min n`krK"Ii  
◎导  演 杜琪峰 Johnnie To @m[r0i0J"  
◎主  演 赵薇 Wei Zhao /=}w%-;/;  
      古天乐 Louis Koo ;|f|d?Q\  
      钟汉良 Wallace Chung T8 ,?\7)S9  
      卢海鹏 Hoi-Pang Lo WBgS9qiB  
      林雪 Suet Lam ljTnxg/? W  
      张兆辉 Siu-Fai Cheung  cf#2Wg)  
      谢天华 Michael Tse {f\/2k3  
      洪天明 Timmy Hung Tin-Ming ) )q4Rh  
      黄浩然 Raymond Wong Ho-Yin sF$$S/b  
      龚慈恩 Mimi Kung %(IkUD  
      王梓轩 Jonathan Wong Chee-hynn A&OU;j]  
      欧锦棠 Stephen Au =G%k|  
      何果轩 Guoxuan He -lL(:drn  
      詹秉熙 Bing Hei Chim J2M[aibV  
      菁玮 Luvin Ho %- W3F5NK  
oz(V a!  
◎简  介 6px(]QU  
yF-EHNNf  
  影片讲述了六小时内,一个医生——佟倩(赵薇 饰)、一个悍匪——张礼信(钟汉良 饰)、一个警察——陈伟乐(古天乐 饰),三方在“生、老、病、死”轮回不断的医院发生的惊心动魄的交锋。生死一线,自我执念引发诸多隐瞒、利用与欺骗,三人越走越偏,危机一触即发…… N,9W18 @  
59;p|  
花絮 UMN3.-4K#  
ALVHKL2  
.钟汉良从开始就不断剃掉右边的头发以保持毒贩的造型。 ,Q8[Ur? G  
ToWiXH)4  
.本片是钟汉良和古天乐继《毒战》之后的再度合作。 Cku#[?G  
zO BLF|L=  
.拍摄古天乐和钟汉良的追逐戏以前,为了研究走位等动作,两位演员排练了很多遍。钟汉良则吊着威亚,带着保护垫,在洗手间与地板之间的慢行,因空隙狭窄,身位刚刚好能过,不能有任何偏差。 nKI]f`P7  
K( : NshM  
.影片真个拍摄片场的主场景医院,在最后一场戏中要被整个炸毁。 m5c?A+@fZ  
F7!g+LPc<  
.杜导在访谈中爆料有十分钟的长镜头,不是通过摄影机升格拍摄,而是由演员以慢动作达到的效果。为了这个长镜头,参与拍摄的演员训练了长达2个月之久。 'aYUF&GG  
fhGI  
.拍动作戏时,钟汉良一只耳朵受伤。古天乐的一身肌肉不是盖的,一般人招架不住,发布会上,赵薇称她是被打肿的,真的是实打实打了一晚上。导演还给赵薇加戏,让她打回去。7钟汉良曾说自己就是杜琪峰的粉丝,杜导成他为“钟仔”。 TI^W=5W@@  
rucgav  
.饰演脑科医生的赵薇为了效果更加逼真,之前特意跟真的医生上课学习,研究病人心理,戏里给病人做检查的手势显得相当专业。 d??;r:  
]_!5g3VQh  
.这是赵薇与杜琪峰的第一次合作,而她早前支持吴君如监制的《十二金鸭》,曾在片中客串并与古天乐热舞,所以本片算是她与古仔的二度合作。 wKxw|Fpn  
w; [ndZCY7  
.对于杜琪峰的拍摄邀约,赵薇表示初听时特别激动,当时只弱弱地提一个要求:“不想演大佬背后的女人”,没想到杜导却让自己淹了一位女大佬。 -|0nZ  
T_\Nvzb}  
.杜琪峰爆料整个医院的场景花费了大概三四千万,是影片花钱最多的地方。 N|JM L  
~s3X&!#   
.影片邀请真正的脑科医生来片场指导,手术器材都是真的。13钟汉良大部分拍摄过程都是在床上完成的,肢体动作非常受局限。 +,7nsWV  
>6Y @8 )  
.编剧游乃海每天在现场憋剧本,哪天憋不出来,只能收工回家继续憋。 o#GZ|9IL  
PHQ7  
General R;mA2:W)x  
Format                         : Matroska (*~'#k  
Format version                 : Version 4 / Version 2 V{jQ=<)@e  
File size                      : 4.19GB #)}K,FDd  
Duration                       : 1h 28mn |ry![\  
Overall bit rate               : 6 813 Kbps olm0O  (9  
Encoded date                   : UTC 2016-07-23 03:21:15 F,dPmR  
VQ}N& H)`  
Video Nxm^jPM 0  
ID                             : 1 W;Y"J_  
Format                         : AVC ()'yY^   
Format/Info                    : Advanced Video Codec e1<9:h+  
Format profile                 : High@L5.1 @\*`rl]  
Format settings, CABAC         : Yes 83(-/ y  
Format settings, ReFrames      : 3 frames nYsB^Nr6  
Codec ID                       : V_MPEG4/ISO/AVC %I^schE*  
Duration                       : 1h 28mn ahh&h1q7|  
Bit rate                       : 6 230 Kbps a!@(bb z>  
Width                          : 3 840 pixels C.|.0^5  
Height                         : 1 608 pixels (G6lr%d  
Display aspect ratio           : 2.40:1 ;W 3#q:  
Frame rate mode                : Constant K ' ?`'7  
Frame rate                     : 24.000 fps  *KV^ X(/  
Color space                    : YUV d[F3"b%  
Chroma subsampling             : 4:2:0 =L\&} kzB  
Bit depth                      : 8 bits d53Eu`QW?  
Scan type                      : Progressive <@S'vcO  
Bits/(Pixel*Frame)             : 0.042 FfRvi8  
Stream size                    : 3.83GB (91%) \b;z$P\+*  
Writing library                : qiyi.com vtc-test o$p] p9  
Default                        : Yes  ^:^  
Forced                         : No H73 r3BH  
Color primaries                : BT.709 swz)gh-*  
Transfer characteristics       : BT.709 h1~/zM/`  
Matrix coefficients            : BT.709 5oe{i/#di  
**CGkL  
Audio #1 *L&|4|BF2  
ID                             : 2 I]z4}#+cX  
Format                         : AC-3 /pC60y}O0  
Format/Info                    : Audio Coding 3 7\AoMk}  
Mode extension                 : CM (complete main) `.g'bZ<v/  
Format settings, Endianness    : Big Sa-" G`  
Codec ID                       : A_AC3 Y1;jRIOA  
Duration                       : 1h 28mn (sW$2a  
Bit rate mode                  : Constant 2c'<rkA  
Bit rate                       : 224 Kbps ,`8:@<e  
Channel(s)                     : 2 channels )+Yu7=S  
Channel positions              : Front: L R Gb4p "3  
Sampling rate                  : 44.1 KHz cpm *m"Nk  
Bit depth                      : 16 bits <Zo{D |hW  
Compression mode               : Lossy "H9q%S,FH  
Stream size                    : 141 MiB (3%) ,T-xuNYC  
Default                        : Yes R_=fH\c;  
Forced                         : No `[&%fTW+  
I%jlM0ZUI"  
Audio #2 !iL6/  
ID                             : 3 sVH w\_F$  
Format                         : AC-3 *|^|| bd  
Format/Info                    : Audio Coding 3 $k+XH+1CW  
Mode extension                 : CM (complete main) ,E8g~ZUY9  
Format settings, Endianness    : Big l>6p')F!  
Codec ID                       : A_AC3 ^SbxClUfw!  
Duration                       : 1h 28mn }&]T0U`@  
Bit rate mode                  : Constant R*H-QH/H1  
Bit rate                       : 224 Kbps KuF>2KX~ Y  
Channel(s)                     : 2 channels (ylZ[M&B:  
Channel positions              : Front: L R y"iK)SH  
Sampling rate                  : 44.1 KHz "$3~):o  
Bit depth                      : 16 bits v <m=g!  
Compression mode               : Lossy BnG{) \s  
Stream size                    : 141 MiB (3%) R8Dn GR  
Default                        : No ([A%>u>h  
Forced                         : No sfp.>bMj  
zpy&\#Vc  
q8& ^E.K  
xv7nChB  
三人行(4K版).Three.2016.4K.2160p.WEB-DL.x264.AC3-SeeHD.torrent (23 K) 下载次数:112

只看该作者 1 发表于: 2016-08-03
唔系几好睇,没以前的杜式好!