切换到宽版
  • 898阅读
  • 1回复

三人行(4K版).Three.2016.4K.2160p.WEB-DL.x264.AC3-SeeHD [复制链接]

上一主题 下一主题
 

只看楼主 倒序阅读 使用道具 0 发表于: 2016-07-27
y9G57D  
◎译  名 三人行 /qkIoF2  
◎片  名 Three i3kI2\bd/  
◎年  代 2016 L$TKO,T  
◎国  家 中国/中国香港 h4B#T'b  
◎类  别 动作/犯罪 F&L?J_=  
◎语  言 普通话/粤语 R8r[;u\iV  
◎字  幕 简体中文(内嵌) l LD)i J1  
◎IMDb评分  6.4/10 from 144 users P"PeL B9K  
◎IMDB链接  http://www.imdb.com/title/tt4379728/ 6dS1\Y  
◎文件格式  x264+ AC3 FUqhSW  
◎视频尺寸  3840x1 608 ;DgX"Uzm  
◎文件大小  1CD 4.19GB E=1/  
◎片  长 1 h 28 min &v9PT!R~  
◎导  演 杜琪峰 Johnnie To q=0{E0@9({  
◎主  演 赵薇 Wei Zhao lRATrp#T  
      古天乐 Louis Koo HH~  du  
      钟汉良 Wallace Chung hq8/`u YF  
      卢海鹏 Hoi-Pang Lo v!RB(T3  
      林雪 Suet Lam hPXVPLm7I  
      张兆辉 Siu-Fai Cheung % qjyk=z+Z  
      谢天华 Michael Tse C(|T/rQ-  
      洪天明 Timmy Hung Tin-Ming !q6V @&  
      黄浩然 Raymond Wong Ho-Yin #2vG_B<M)  
      龚慈恩 Mimi Kung "1`i]Y\ '  
      王梓轩 Jonathan Wong Chee-hynn >A(?Pn{|a  
      欧锦棠 Stephen Au 59NWyi4i  
      何果轩 Guoxuan He J!fc)h  
      詹秉熙 Bing Hei Chim 'S D|ObBY  
      菁玮 Luvin Ho J'^$|/Q  
j!_^5d#d  
◎简  介 Rb}&c)4  
E29gnYxu8  
  影片讲述了六小时内,一个医生——佟倩(赵薇 饰)、一个悍匪——张礼信(钟汉良 饰)、一个警察——陈伟乐(古天乐 饰),三方在“生、老、病、死”轮回不断的医院发生的惊心动魄的交锋。生死一线,自我执念引发诸多隐瞒、利用与欺骗,三人越走越偏,危机一触即发…… 8YLZ)k'  
w@$o  
花絮 -0IFPL8  
Hkz~9p  
.钟汉良从开始就不断剃掉右边的头发以保持毒贩的造型。 qjEWk."  
+?txGHQq  
.本片是钟汉良和古天乐继《毒战》之后的再度合作。 j nA_!;b  
3) Awj++  
.拍摄古天乐和钟汉良的追逐戏以前,为了研究走位等动作,两位演员排练了很多遍。钟汉良则吊着威亚,带着保护垫,在洗手间与地板之间的慢行,因空隙狭窄,身位刚刚好能过,不能有任何偏差。 iX S-EB/  
M *@ aA XM  
.影片真个拍摄片场的主场景医院,在最后一场戏中要被整个炸毁。 rbZ6V :  
Vh9s.=*P@  
.杜导在访谈中爆料有十分钟的长镜头,不是通过摄影机升格拍摄,而是由演员以慢动作达到的效果。为了这个长镜头,参与拍摄的演员训练了长达2个月之久。 ="[](X^ l  
 D6! +  
.拍动作戏时,钟汉良一只耳朵受伤。古天乐的一身肌肉不是盖的,一般人招架不住,发布会上,赵薇称她是被打肿的,真的是实打实打了一晚上。导演还给赵薇加戏,让她打回去。7钟汉良曾说自己就是杜琪峰的粉丝,杜导成他为“钟仔”。 Odjd`DD1  
Csm!\ I  
.饰演脑科医生的赵薇为了效果更加逼真,之前特意跟真的医生上课学习,研究病人心理,戏里给病人做检查的手势显得相当专业。 wp  GnS  
:w_1J'D}  
.这是赵薇与杜琪峰的第一次合作,而她早前支持吴君如监制的《十二金鸭》,曾在片中客串并与古天乐热舞,所以本片算是她与古仔的二度合作。 X*yp=qI  
}' 0Xz9/ l  
.对于杜琪峰的拍摄邀约,赵薇表示初听时特别激动,当时只弱弱地提一个要求:“不想演大佬背后的女人”,没想到杜导却让自己淹了一位女大佬。 #|1QA3KzO  
XaS_3d  
.杜琪峰爆料整个医院的场景花费了大概三四千万,是影片花钱最多的地方。 @`8 B} C  
H;Qn?^  
.影片邀请真正的脑科医生来片场指导,手术器材都是真的。13钟汉良大部分拍摄过程都是在床上完成的,肢体动作非常受局限。 QuRg(K%:  
HV7(6VSJ+  
.编剧游乃海每天在现场憋剧本,哪天憋不出来,只能收工回家继续憋。 :.<TWBoV  
 gWH9=%!  
General n:."ZBtY*  
Format                         : Matroska "t&k{\$\  
Format version                 : Version 4 / Version 2 qFChZ+3>  
File size                      : 4.19GB EI+/%.,  
Duration                       : 1h 28mn :k/U7 2  
Overall bit rate               : 6 813 Kbps 6|qvo+%  
Encoded date                   : UTC 2016-07-23 03:21:15 `'.x*MNF  
`v2l1CQ: ^  
Video `+;oo B  
ID                             : 1 yzR=:0J  
Format                         : AVC )&!@O$RS8(  
Format/Info                    : Advanced Video Codec W@C tFU9  
Format profile                 : High@L5.1 I/V#[KC  
Format settings, CABAC         : Yes o(NyOC  
Format settings, ReFrames      : 3 frames :!!`!*!JH  
Codec ID                       : V_MPEG4/ISO/AVC  CyDf[C)=  
Duration                       : 1h 28mn [E1|jcmQ  
Bit rate                       : 6 230 Kbps ByvqwJY  
Width                          : 3 840 pixels z9O/MHT[w  
Height                         : 1 608 pixels j|dzd<kE6  
Display aspect ratio           : 2.40:1 '[8jm=Q#'  
Frame rate mode                : Constant 7lPk~0  
Frame rate                     : 24.000 fps A1$'[8U~3  
Color space                    : YUV gdY/RDxn:  
Chroma subsampling             : 4:2:0 bXLa~r4\  
Bit depth                      : 8 bits Ao0PFY  
Scan type                      : Progressive {;M/J  
Bits/(Pixel*Frame)             : 0.042 t3JPxg]0k'  
Stream size                    : 3.83GB (91%) S*s9 ?  
Writing library                : qiyi.com vtc-test =Fl4tY#X  
Default                        : Yes 5B/\vLHg4  
Forced                         : No P;pg+L.I  
Color primaries                : BT.709 3h4"Rv=,  
Transfer characteristics       : BT.709 e91d~  
Matrix coefficients            : BT.709 *3($s_r>  
nDw 9  
Audio #1 XhV"<&v  
ID                             : 2 N6%q%7F.:  
Format                         : AC-3 |JQKxvjT  
Format/Info                    : Audio Coding 3 |XG7UH  
Mode extension                 : CM (complete main) W<7Bq_L[|  
Format settings, Endianness    : Big H/ {3 i  
Codec ID                       : A_AC3 k]5L\]>y  
Duration                       : 1h 28mn Ve) :I  
Bit rate mode                  : Constant 6I![5j  
Bit rate                       : 224 Kbps t]%R4ymV  
Channel(s)                     : 2 channels E#p 6A5  
Channel positions              : Front: L R j,jUg}b  
Sampling rate                  : 44.1 KHz ')RK(I  
Bit depth                      : 16 bits ^o:5B%}#[  
Compression mode               : Lossy m:CpDxzbf  
Stream size                    : 141 MiB (3%) tjt#VFq?  
Default                        : Yes !/ j|\_O  
Forced                         : No  sOmYQ{R  
A???s,F_  
Audio #2 8/v_uEG  
ID                             : 3 !>j- j  
Format                         : AC-3 i.&16AY  
Format/Info                    : Audio Coding 3 ccAEN  
Mode extension                 : CM (complete main) 7lu;lAAP  
Format settings, Endianness    : Big \g/E4U .+  
Codec ID                       : A_AC3 S)?B  I  
Duration                       : 1h 28mn '/?&Gol-  
Bit rate mode                  : Constant 4esf&-gG  
Bit rate                       : 224 Kbps lom4z\6  
Channel(s)                     : 2 channels %l,EA#89 s  
Channel positions              : Front: L R "`zw(  
Sampling rate                  : 44.1 KHz 5E}i<}sq5  
Bit depth                      : 16 bits ;H.r6  
Compression mode               : Lossy M Cz3RZK  
Stream size                    : 141 MiB (3%) O"GzeEY7  
Default                        : No X.Kxio $o  
Forced                         : No ~ nIZ g5  
TkykI  
j*nC IxF  
)`a R?_  
三人行(4K版).Three.2016.4K.2160p.WEB-DL.x264.AC3-SeeHD.torrent (23 K) 下载次数:113

只看该作者 1 发表于: 2016-08-03
唔系几好睇,没以前的杜式好!