切换到宽版
  • 1094阅读
  • 1回复

三人行(4K版).Three.2016.4K.2160p.WEB-DL.x264.AC3-SeeHD [复制链接]

上一主题 下一主题
 

只看楼主 倒序阅读 使用道具 0 发表于: 2016-07-27
'.:z&gSqx0  
◎译  名 三人行 LDPUD'  
◎片  名 Three #qK:J;Sn3  
◎年  代 2016 C{U?0!^  
◎国  家 中国/中国香港 }H^+A77v  
◎类  别 动作/犯罪 E=nIRG|g  
◎语  言 普通话/粤语 bbE!qk;hEP  
◎字  幕 简体中文(内嵌) U|jS a,}  
◎IMDb评分  6.4/10 from 144 users hb}+A=A=+  
◎IMDB链接  http://www.imdb.com/title/tt4379728/ aDU<wxnSvO  
◎文件格式  x264+ AC3 E|iQc8gr&  
◎视频尺寸  3840x1 608 'uBu6G  
◎文件大小  1CD 4.19GB h1de[q)  
◎片  长 1 h 28 min 45@^L's  
◎导  演 杜琪峰 Johnnie To ]n6#VTz*  
◎主  演 赵薇 Wei Zhao 8Vr%n2M  
      古天乐 Louis Koo 6 (]Dh;gC  
      钟汉良 Wallace Chung \NPmym_ 6J  
      卢海鹏 Hoi-Pang Lo oKuI0-*mR  
      林雪 Suet Lam s~^5kgPA  
      张兆辉 Siu-Fai Cheung ].-1v5  
      谢天华 Michael Tse uXn1 'K<'2  
      洪天明 Timmy Hung Tin-Ming X% t1 T4  
      黄浩然 Raymond Wong Ho-Yin Mk"^?%PxT  
      龚慈恩 Mimi Kung eA2@Nkw~)  
      王梓轩 Jonathan Wong Chee-hynn k\5c|Wq|g  
      欧锦棠 Stephen Au rC5 p-B%  
      何果轩 Guoxuan He C5o#i*|  
      詹秉熙 Bing Hei Chim m| n  
      菁玮 Luvin Ho M:Pc,  
geru=7  
◎简  介 ]cHgleHQ  
=$'6(aDH  
  影片讲述了六小时内,一个医生——佟倩(赵薇 饰)、一个悍匪——张礼信(钟汉良 饰)、一个警察——陈伟乐(古天乐 饰),三方在“生、老、病、死”轮回不断的医院发生的惊心动魄的交锋。生死一线,自我执念引发诸多隐瞒、利用与欺骗,三人越走越偏,危机一触即发…… ]_f_w 9]  
0"<H;7K#W  
花絮 'DP1,7  
.*OdqLz  
.钟汉良从开始就不断剃掉右边的头发以保持毒贩的造型。 "L IF.)  
rV` #[d  
.本片是钟汉良和古天乐继《毒战》之后的再度合作。 DX#Nf""Pw  
Ag-(5:  
.拍摄古天乐和钟汉良的追逐戏以前,为了研究走位等动作,两位演员排练了很多遍。钟汉良则吊着威亚,带着保护垫,在洗手间与地板之间的慢行,因空隙狭窄,身位刚刚好能过,不能有任何偏差。 (KjoSN( K  
slC x w$  
.影片真个拍摄片场的主场景医院,在最后一场戏中要被整个炸毁。 rB Q_iB_  
}T(D7|^R  
.杜导在访谈中爆料有十分钟的长镜头,不是通过摄影机升格拍摄,而是由演员以慢动作达到的效果。为了这个长镜头,参与拍摄的演员训练了长达2个月之久。 ~~D{spMVO  
{'7B6  
.拍动作戏时,钟汉良一只耳朵受伤。古天乐的一身肌肉不是盖的,一般人招架不住,发布会上,赵薇称她是被打肿的,真的是实打实打了一晚上。导演还给赵薇加戏,让她打回去。7钟汉良曾说自己就是杜琪峰的粉丝,杜导成他为“钟仔”。 b/+u4'"  
f\|w '  
.饰演脑科医生的赵薇为了效果更加逼真,之前特意跟真的医生上课学习,研究病人心理,戏里给病人做检查的手势显得相当专业。 BtkOnbz8X  
Vh |*p&  
.这是赵薇与杜琪峰的第一次合作,而她早前支持吴君如监制的《十二金鸭》,曾在片中客串并与古天乐热舞,所以本片算是她与古仔的二度合作。 t% d Z-Ym  
LBw1g<&  
.对于杜琪峰的拍摄邀约,赵薇表示初听时特别激动,当时只弱弱地提一个要求:“不想演大佬背后的女人”,没想到杜导却让自己淹了一位女大佬。 Kn5~d(:  
.]8ZwAs=&  
.杜琪峰爆料整个医院的场景花费了大概三四千万,是影片花钱最多的地方。 G30-^Tr   
 x]}^v#  
.影片邀请真正的脑科医生来片场指导,手术器材都是真的。13钟汉良大部分拍摄过程都是在床上完成的,肢体动作非常受局限。 y8]B:_iU9  
5%Y3 Kwyy  
.编剧游乃海每天在现场憋剧本,哪天憋不出来,只能收工回家继续憋。 (p"%O  
ROH|PKb7  
General IPS4C[v  
Format                         : Matroska =/@D8{pU  
Format version                 : Version 4 / Version 2 ik)|{%!K]H  
File size                      : 4.19GB 8?xE6  
Duration                       : 1h 28mn aC] $k'71  
Overall bit rate               : 6 813 Kbps ]%;:7?5l  
Encoded date                   : UTC 2016-07-23 03:21:15 )v'WWwXY>  
k R?qb6  
Video [:7'?$  
ID                             : 1 O %\*@4zM  
Format                         : AVC j * %  
Format/Info                    : Advanced Video Codec P0;n9>g  
Format profile                 : High@L5.1 { a =#B)6  
Format settings, CABAC         : Yes pIc#L>{E  
Format settings, ReFrames      : 3 frames 3/P1!:g9  
Codec ID                       : V_MPEG4/ISO/AVC /4yo`  
Duration                       : 1h 28mn +Q/R{#O  
Bit rate                       : 6 230 Kbps &sl0W-;0  
Width                          : 3 840 pixels f[]dfLS"W  
Height                         : 1 608 pixels ?>VLTp8]  
Display aspect ratio           : 2.40:1 l|u>Tb|V  
Frame rate mode                : Constant })'B<vq  
Frame rate                     : 24.000 fps b!+hH Hv:  
Color space                    : YUV 8=!D$t\3  
Chroma subsampling             : 4:2:0 l5~os>  
Bit depth                      : 8 bits 4VHn  \  
Scan type                      : Progressive )~X2 &^orW  
Bits/(Pixel*Frame)             : 0.042 Q-(zwAaE  
Stream size                    : 3.83GB (91%) m&d|t>3<  
Writing library                : qiyi.com vtc-test %[GsD9_-  
Default                        : Yes 9[#pIPxNK  
Forced                         : No aEB_#1  
Color primaries                : BT.709 91/Q9xY  
Transfer characteristics       : BT.709 A@`}c,G  
Matrix coefficients            : BT.709 VMZMG$C  
B.=FSow  
Audio #1 Lw1Yvtn  
ID                             : 2 G0Iw-vf  
Format                         : AC-3 Usvl}{L[  
Format/Info                    : Audio Coding 3 :'Vf g[Uq  
Mode extension                 : CM (complete main) td$E/h=3  
Format settings, Endianness    : Big <|HV. O/!  
Codec ID                       : A_AC3 _YRFet[,m  
Duration                       : 1h 28mn  8$=n j  
Bit rate mode                  : Constant H8=N@l  
Bit rate                       : 224 Kbps /l3V3B7  
Channel(s)                     : 2 channels ,CJWO bn3  
Channel positions              : Front: L R *;W+>W  
Sampling rate                  : 44.1 KHz Q3'llOx  
Bit depth                      : 16 bits 6bg ;q(*7  
Compression mode               : Lossy ~g91Pr   
Stream size                    : 141 MiB (3%) XPc^Tq  
Default                        : Yes l]5K N  
Forced                         : No ,~U>'&M ;  
1er TldX  
Audio #2 KYm0@O>;  
ID                             : 3 2DA]i5  
Format                         : AC-3 t 9lPb_70  
Format/Info                    : Audio Coding 3 }RF(CwZr(  
Mode extension                 : CM (complete main) D\v+wp.  
Format settings, Endianness    : Big [g |_~h  
Codec ID                       : A_AC3 ic:zsuEm  
Duration                       : 1h 28mn 2k~l$p>CN!  
Bit rate mode                  : Constant AYBns]!  
Bit rate                       : 224 Kbps &A Nf!*<\E  
Channel(s)                     : 2 channels .^`{1%  
Channel positions              : Front: L R T=DbBy0-  
Sampling rate                  : 44.1 KHz  fgTg7 m  
Bit depth                      : 16 bits gjyYCjF  
Compression mode               : Lossy )MVz$h{c.]  
Stream size                    : 141 MiB (3%) (TtkFo'!U  
Default                        : No >NV @R&  
Forced                         : No k=$TGqQY?  
;?Tbnn Wn  
P8:dU(nlW  
,&A7iO  
三人行(4K版).Three.2016.4K.2160p.WEB-DL.x264.AC3-SeeHD.torrent (23 K) 下载次数:114

只看该作者 1 发表于: 2016-08-03
唔系几好睇,没以前的杜式好!