切换到宽版
  • 1012阅读
  • 1回复

三人行(4K版).Three.2016.4K.2160p.WEB-DL.x264.AC3-SeeHD [复制链接]

上一主题 下一主题
 

只看楼主 倒序阅读 使用道具 0 发表于: 2016-07-27
wJg&OQc9  
◎译  名 三人行 4&<zkAMR  
◎片  名 Three lFV\Go  
◎年  代 2016 R,+"^:}  
◎国  家 中国/中国香港 S;}/ql y  
◎类  别 动作/犯罪 6 g) X&pZ  
◎语  言 普通话/粤语 *t bgIW+h  
◎字  幕 简体中文(内嵌) ekCt1^5Y  
◎IMDb评分  6.4/10 from 144 users M!Ywjvw*)3  
◎IMDB链接  http://www.imdb.com/title/tt4379728/ }_fVv{D   
◎文件格式  x264+ AC3 iUq{c+h  
◎视频尺寸  3840x1 608 |]'gd)%S\  
◎文件大小  1CD 4.19GB A"wso[{  
◎片  长 1 h 28 min >a)6GZ@  
◎导  演 杜琪峰 Johnnie To BYZllwxwTE  
◎主  演 赵薇 Wei Zhao nnuJY$O;M  
      古天乐 Louis Koo Q(BM0n)f  
      钟汉良 Wallace Chung v%)=!T ,  
      卢海鹏 Hoi-Pang Lo :auq#$B  
      林雪 Suet Lam R_duPaWc@  
      张兆辉 Siu-Fai Cheung qz }PTx  
      谢天华 Michael Tse yJ2A!id  
      洪天明 Timmy Hung Tin-Ming ]8|peo{  
      黄浩然 Raymond Wong Ho-Yin *lyRy/POB  
      龚慈恩 Mimi Kung cHUj6'neO  
      王梓轩 Jonathan Wong Chee-hynn )%bY2 pk  
      欧锦棠 Stephen Au :o_6  
      何果轩 Guoxuan He rp!>rM] s  
      詹秉熙 Bing Hei Chim J\Z\q  
      菁玮 Luvin Ho Bw4PxJs-  
WO+_ |*&  
◎简  介 #4{9l SbU  
q&@q /9kz  
  影片讲述了六小时内,一个医生——佟倩(赵薇 饰)、一个悍匪——张礼信(钟汉良 饰)、一个警察——陈伟乐(古天乐 饰),三方在“生、老、病、死”轮回不断的医院发生的惊心动魄的交锋。生死一线,自我执念引发诸多隐瞒、利用与欺骗,三人越走越偏,危机一触即发…… %5/h;4   
|c:xK{Ik  
花絮 'cf8VD  
q&V=A[<rz  
.钟汉良从开始就不断剃掉右边的头发以保持毒贩的造型。 |\/V1  
e2Df@8>  
.本片是钟汉良和古天乐继《毒战》之后的再度合作。 3k* U/*  
}tPI#[cfK  
.拍摄古天乐和钟汉良的追逐戏以前,为了研究走位等动作,两位演员排练了很多遍。钟汉良则吊着威亚,带着保护垫,在洗手间与地板之间的慢行,因空隙狭窄,身位刚刚好能过,不能有任何偏差。 W_ubgCB  
$qk(yzY  
.影片真个拍摄片场的主场景医院,在最后一场戏中要被整个炸毁。 qj <_*  
0BQ<a  
.杜导在访谈中爆料有十分钟的长镜头,不是通过摄影机升格拍摄,而是由演员以慢动作达到的效果。为了这个长镜头,参与拍摄的演员训练了长达2个月之久。 _.BX#BIF  
22"/|S  
.拍动作戏时,钟汉良一只耳朵受伤。古天乐的一身肌肉不是盖的,一般人招架不住,发布会上,赵薇称她是被打肿的,真的是实打实打了一晚上。导演还给赵薇加戏,让她打回去。7钟汉良曾说自己就是杜琪峰的粉丝,杜导成他为“钟仔”。 Gu\lV c  
&+7G|4!y  
.饰演脑科医生的赵薇为了效果更加逼真,之前特意跟真的医生上课学习,研究病人心理,戏里给病人做检查的手势显得相当专业。 "hXB_73)V  
b;$j h   
.这是赵薇与杜琪峰的第一次合作,而她早前支持吴君如监制的《十二金鸭》,曾在片中客串并与古天乐热舞,所以本片算是她与古仔的二度合作。 $jNp-5+Q;  
Oxr?y8C~  
.对于杜琪峰的拍摄邀约,赵薇表示初听时特别激动,当时只弱弱地提一个要求:“不想演大佬背后的女人”,没想到杜导却让自己淹了一位女大佬。 y%xn(Bn  
< c[dpK5c  
.杜琪峰爆料整个医院的场景花费了大概三四千万,是影片花钱最多的地方。 qJLtqv  
hFr?84sAd  
.影片邀请真正的脑科医生来片场指导,手术器材都是真的。13钟汉良大部分拍摄过程都是在床上完成的,肢体动作非常受局限。 Wj#Gm  
y3pr(w9A  
.编剧游乃海每天在现场憋剧本,哪天憋不出来,只能收工回家继续憋。 L }&$5KiwV  
x)!NB99(tC  
General e X q}0-*f  
Format                         : Matroska VU 8 ~hF  
Format version                 : Version 4 / Version 2 tJ@5E^'4  
File size                      : 4.19GB %2TjG  
Duration                       : 1h 28mn |\S p IFH1  
Overall bit rate               : 6 813 Kbps [";<YR7iRN  
Encoded date                   : UTC 2016-07-23 03:21:15 ]BBL=$*  
~$Pz`amT|  
Video xbhU:,o  
ID                             : 1 Z}4 `y"By  
Format                         : AVC l]v>PIh~N  
Format/Info                    : Advanced Video Codec ,1&</R_  
Format profile                 : High@L5.1 >s+*D=k  
Format settings, CABAC         : Yes cG~-OHU  
Format settings, ReFrames      : 3 frames WZJ}HHePr  
Codec ID                       : V_MPEG4/ISO/AVC <X1^w  
Duration                       : 1h 28mn U> s$}Y:+Z  
Bit rate                       : 6 230 Kbps &ZUV=q%g9n  
Width                          : 3 840 pixels h$~ \to$C  
Height                         : 1 608 pixels ds"q1  
Display aspect ratio           : 2.40:1 +$H`/^a.  
Frame rate mode                : Constant 'vUx4s  
Frame rate                     : 24.000 fps fG*366W  
Color space                    : YUV 1C' _I  
Chroma subsampling             : 4:2:0 .#ASo!O5q  
Bit depth                      : 8 bits 27-GfC=7*  
Scan type                      : Progressive o7;#B)jWS  
Bits/(Pixel*Frame)             : 0.042 5T4!' 4n  
Stream size                    : 3.83GB (91%) 1y($h<  
Writing library                : qiyi.com vtc-test KWH l+p L  
Default                        : Yes L\Y4$e9bF8  
Forced                         : No -r!sY+Z>  
Color primaries                : BT.709  }L.&@P<  
Transfer characteristics       : BT.709 6@[7  
Matrix coefficients            : BT.709 j"c30AY  
I?_YL*  
Audio #1 z<c%Xl\$%  
ID                             : 2 d`+@ _)ea  
Format                         : AC-3 UfWn\*J&k  
Format/Info                    : Audio Coding 3 }hy, }2(8  
Mode extension                 : CM (complete main) fyE#8h_>4  
Format settings, Endianness    : Big 1SGLA"r  
Codec ID                       : A_AC3 ,_(AiQK  
Duration                       : 1h 28mn yhpeP  
Bit rate mode                  : Constant <yHa[c`L  
Bit rate                       : 224 Kbps "bC1dl<  
Channel(s)                     : 2 channels -]K9sy)I  
Channel positions              : Front: L R 7A mnxFC  
Sampling rate                  : 44.1 KHz #7}1W[y9}l  
Bit depth                      : 16 bits #{BHH;J+  
Compression mode               : Lossy /:OSql5K*<  
Stream size                    : 141 MiB (3%) ~d072qUos  
Default                        : Yes %P2l@}?a  
Forced                         : No X5gI' u  
:ENdF `nC  
Audio #2 B3V;  
ID                             : 3 WQ1~9#  
Format                         : AC-3 _sGmkJi]  
Format/Info                    : Audio Coding 3 ;0c -+,  
Mode extension                 : CM (complete main) -FGQn |h4  
Format settings, Endianness    : Big e: aa  
Codec ID                       : A_AC3 p&nPzZQL(  
Duration                       : 1h 28mn J )DFH~p  
Bit rate mode                  : Constant r$ 8 ^K\oF  
Bit rate                       : 224 Kbps W#.+C6/  
Channel(s)                     : 2 channels C3"5XR_Ov  
Channel positions              : Front: L R -0>gq$/N=^  
Sampling rate                  : 44.1 KHz qTuQ]*[-  
Bit depth                      : 16 bits "h'+!2mf  
Compression mode               : Lossy 7B)m/%>3s  
Stream size                    : 141 MiB (3%) f~0CpB*X  
Default                        : No <lo\7p$A  
Forced                         : No %Y:"5fH  
:+q d>;yf#  
Sr#\5UDS  
ls*bCe  
三人行(4K版).Three.2016.4K.2160p.WEB-DL.x264.AC3-SeeHD.torrent (23 K) 下载次数:123

只看该作者 1 发表于: 2016-08-03
唔系几好睇,没以前的杜式好!