切换到宽版
  • 930阅读
  • 1回复

三人行(4K版).Three.2016.4K.2160p.WEB-DL.x264.AC3-SeeHD [复制链接]

上一主题 下一主题
 

只看楼主 倒序阅读 使用道具 0 发表于: 2016-07-27
;]*V6!6RR  
◎译  名 三人行 $DPMi9,7^  
◎片  名 Three qHwHP  1  
◎年  代 2016 }YV,uJH[  
◎国  家 中国/中国香港 feJz X*u  
◎类  别 动作/犯罪 7D'-^#S5  
◎语  言 普通话/粤语 5ggmS<=  
◎字  幕 简体中文(内嵌) mL5Nu+#  
◎IMDb评分  6.4/10 from 144 users (<M^C>pldf  
◎IMDB链接  http://www.imdb.com/title/tt4379728/ hz:^3F`>/&  
◎文件格式  x264+ AC3 K6u Z4 m;  
◎视频尺寸  3840x1 608 l>( w]  
◎文件大小  1CD 4.19GB C%c}lv8;^  
◎片  长 1 h 28 min N=2BrKb)o  
◎导  演 杜琪峰 Johnnie To \R!.VL3Tx$  
◎主  演 赵薇 Wei Zhao v?AQ&'Fk  
      古天乐 Louis Koo !WTZ =|  
      钟汉良 Wallace Chung ^oZz,q  
      卢海鹏 Hoi-Pang Lo _:R Q9x'  
      林雪 Suet Lam :eK(9o  
      张兆辉 Siu-Fai Cheung +jpaBr-O#  
      谢天华 Michael Tse J A=9EnTU  
      洪天明 Timmy Hung Tin-Ming Sf_q;Ws  
      黄浩然 Raymond Wong Ho-Yin "hE/f~\  
      龚慈恩 Mimi Kung !@6P>HzY$  
      王梓轩 Jonathan Wong Chee-hynn sObH#/l`  
      欧锦棠 Stephen Au iTX:*$~I  
      何果轩 Guoxuan He KBUClx?  
      詹秉熙 Bing Hei Chim j|6@>T1  
      菁玮 Luvin Ho W^o* ^v  
S%NS7$`a  
◎简  介 8Ce|Q8<8]  
'7'*+sgi$  
  影片讲述了六小时内,一个医生——佟倩(赵薇 饰)、一个悍匪——张礼信(钟汉良 饰)、一个警察——陈伟乐(古天乐 饰),三方在“生、老、病、死”轮回不断的医院发生的惊心动魄的交锋。生死一线,自我执念引发诸多隐瞒、利用与欺骗,三人越走越偏,危机一触即发…… V XE85  
|iGfX,C|  
花絮 7g* "AEk  
P M x` P B  
.钟汉良从开始就不断剃掉右边的头发以保持毒贩的造型。 I "8:IF  
"7]YvZYu0  
.本片是钟汉良和古天乐继《毒战》之后的再度合作。 ZsgJ6 Y  
rNi]|)-ET  
.拍摄古天乐和钟汉良的追逐戏以前,为了研究走位等动作,两位演员排练了很多遍。钟汉良则吊着威亚,带着保护垫,在洗手间与地板之间的慢行,因空隙狭窄,身位刚刚好能过,不能有任何偏差。 Dw%V.J/&o  
\2UtT@3|C  
.影片真个拍摄片场的主场景医院,在最后一场戏中要被整个炸毁。 @&I7z,  
|8QXjzH  
.杜导在访谈中爆料有十分钟的长镜头,不是通过摄影机升格拍摄,而是由演员以慢动作达到的效果。为了这个长镜头,参与拍摄的演员训练了长达2个月之久。 iRbTH}4i  
U{ZE|b. ?b  
.拍动作戏时,钟汉良一只耳朵受伤。古天乐的一身肌肉不是盖的,一般人招架不住,发布会上,赵薇称她是被打肿的,真的是实打实打了一晚上。导演还给赵薇加戏,让她打回去。7钟汉良曾说自己就是杜琪峰的粉丝,杜导成他为“钟仔”。 -\6"; _Y  
%=ZN2)7{  
.饰演脑科医生的赵薇为了效果更加逼真,之前特意跟真的医生上课学习,研究病人心理,戏里给病人做检查的手势显得相当专业。 "mbjS(-eg  
Q|gw\.]$&[  
.这是赵薇与杜琪峰的第一次合作,而她早前支持吴君如监制的《十二金鸭》,曾在片中客串并与古天乐热舞,所以本片算是她与古仔的二度合作。 LTn@ OhC  
Q NN*/n  
.对于杜琪峰的拍摄邀约,赵薇表示初听时特别激动,当时只弱弱地提一个要求:“不想演大佬背后的女人”,没想到杜导却让自己淹了一位女大佬。 ;^[VqFpeS  
iXF iFsb  
.杜琪峰爆料整个医院的场景花费了大概三四千万,是影片花钱最多的地方。 bNH72gX2Yh  
+#B4Z'nT  
.影片邀请真正的脑科医生来片场指导,手术器材都是真的。13钟汉良大部分拍摄过程都是在床上完成的,肢体动作非常受局限。 vU4Gw4  
zL^`r)H  
.编剧游乃海每天在现场憋剧本,哪天憋不出来,只能收工回家继续憋。 _mEW]9Sp  
`4xnM`:L"  
General =\QKzQ'BC  
Format                         : Matroska 7Gos-_s  
Format version                 : Version 4 / Version 2 l[,RA?i {  
File size                      : 4.19GB ms(Z1ix^  
Duration                       : 1h 28mn 71RG1,  
Overall bit rate               : 6 813 Kbps O<*l"fw3  
Encoded date                   : UTC 2016-07-23 03:21:15 V(?PKb-w)  
i[+cNJ|$B0  
Video ?Nbc#0pb7  
ID                             : 1 Juhi#&`T  
Format                         : AVC Mnv2tnU]  
Format/Info                    : Advanced Video Codec FFG/v`NM  
Format profile                 : High@L5.1 Vgj&h dbd  
Format settings, CABAC         : Yes ~Z{IdE  
Format settings, ReFrames      : 3 frames 'Nqa=_<WW  
Codec ID                       : V_MPEG4/ISO/AVC n[E# K`gg'  
Duration                       : 1h 28mn G $F3dx.I  
Bit rate                       : 6 230 Kbps *GGiSt  
Width                          : 3 840 pixels z{>p<)h  
Height                         : 1 608 pixels c; MF  
Display aspect ratio           : 2.40:1 xn &$qLB  
Frame rate mode                : Constant 5PRS|R7  
Frame rate                     : 24.000 fps 2#XYR>[  
Color space                    : YUV 6m\MYay  
Chroma subsampling             : 4:2:0 IAl X^6s *  
Bit depth                      : 8 bits `pTCK9  
Scan type                      : Progressive <'N(`.&3C  
Bits/(Pixel*Frame)             : 0.042 /A4^l]H;+3  
Stream size                    : 3.83GB (91%) eM) I%  
Writing library                : qiyi.com vtc-test 5;alq]m7  
Default                        : Yes `"-ln'nw  
Forced                         : No }JWLm.e  
Color primaries                : BT.709 Twi7g3}/jB  
Transfer characteristics       : BT.709 Qm >x ?  
Matrix coefficients            : BT.709 8NUVHcB6  
4[.DQ#r  
Audio #1 Ed>Dhy6\r  
ID                             : 2 -,Oq=w*EV  
Format                         : AC-3 rYP72<   
Format/Info                    : Audio Coding 3 ^tr?y??k  
Mode extension                 : CM (complete main) N}/|B}  
Format settings, Endianness    : Big YTk"'q-  
Codec ID                       : A_AC3 %Ums'<xJ  
Duration                       : 1h 28mn !%lcn O  
Bit rate mode                  : Constant 2K~<_.S  
Bit rate                       : 224 Kbps })#SjFq<V  
Channel(s)                     : 2 channels y+"6Y14  
Channel positions              : Front: L R N+3]C9 2o  
Sampling rate                  : 44.1 KHz Ht,dMt>:  
Bit depth                      : 16 bits bgNN0,+8  
Compression mode               : Lossy ih[!v"bv  
Stream size                    : 141 MiB (3%) 1OOMqFn}L  
Default                        : Yes cOz/zD f5  
Forced                         : No ;J&p17~T9  
-H+<81"B#  
Audio #2 +bhR[V{0g  
ID                             : 3 .G~Y`0  
Format                         : AC-3 I%Yeq"5RB  
Format/Info                    : Audio Coding 3 !^FR a{b  
Mode extension                 : CM (complete main) _ mJP=+i  
Format settings, Endianness    : Big <{Pr(U*7}  
Codec ID                       : A_AC3 0hB9D {`,{  
Duration                       : 1h 28mn M. o}?  
Bit rate mode                  : Constant x Rp;y*  
Bit rate                       : 224 Kbps {n'+P3\T:  
Channel(s)                     : 2 channels 'lIj89h<E  
Channel positions              : Front: L R 5 >c,#*  
Sampling rate                  : 44.1 KHz gbvMS*KQz  
Bit depth                      : 16 bits ZdsYIRU#  
Compression mode               : Lossy /9o gg  
Stream size                    : 141 MiB (3%) Y A:!ULzR*  
Default                        : No N, SbJ Z  
Forced                         : No :+? w>  
;RUod .x  
41XS/# M$*  
*2^+QKDG  
三人行(4K版).Three.2016.4K.2160p.WEB-DL.x264.AC3-SeeHD.torrent (23 K) 下载次数:113

只看该作者 1 发表于: 2016-08-03
唔系几好睇,没以前的杜式好!