切换到宽版
  • 1130阅读
  • 1回复

三人行(4K版).Three.2016.4K.2160p.WEB-DL.x264.AC3-SeeHD [复制链接]

上一主题 下一主题
 

只看楼主 倒序阅读 使用道具 0 发表于: 2016-07-27
#CV;Np  
◎译  名 三人行 ~Y_5q)t(  
◎片  名 Three (:9=M5d  
◎年  代 2016 x+Ws lN 2a  
◎国  家 中国/中国香港 P9W!xvV`w  
◎类  别 动作/犯罪 Ib&]1ger#=  
◎语  言 普通话/粤语 t+l{D#?a  
◎字  幕 简体中文(内嵌) u6t%*''  
◎IMDb评分  6.4/10 from 144 users )8JfBzR  
◎IMDB链接  http://www.imdb.com/title/tt4379728/ y),yks?iv  
◎文件格式  x264+ AC3 Clo}kdkd_  
◎视频尺寸  3840x1 608 "n, %Hh  
◎文件大小  1CD 4.19GB VE $Kdo^  
◎片  长 1 h 28 min B>kVJK`X  
◎导  演 杜琪峰 Johnnie To ` 'vNHY  
◎主  演 赵薇 Wei Zhao  r .`&z  
      古天乐 Louis Koo U>-GM >  
      钟汉良 Wallace Chung N|3a(mtiZ'  
      卢海鹏 Hoi-Pang Lo n w  
      林雪 Suet Lam 8=-/0y9,  
      张兆辉 Siu-Fai Cheung s}93nv*ez  
      谢天华 Michael Tse {5NE jUu{j  
      洪天明 Timmy Hung Tin-Ming `gSJEq  
      黄浩然 Raymond Wong Ho-Yin }v`Z. ?|Z  
      龚慈恩 Mimi Kung r}4   
      王梓轩 Jonathan Wong Chee-hynn aInh?-  
      欧锦棠 Stephen Au <*@!>6mS  
      何果轩 Guoxuan He }? :T*CJ  
      詹秉熙 Bing Hei Chim -%_vb6u  
      菁玮 Luvin Ho (RBB0CE  
fAT+x1J\  
◎简  介 +'"NKZ.>TT  
xFj<KvV[  
  影片讲述了六小时内,一个医生——佟倩(赵薇 饰)、一个悍匪——张礼信(钟汉良 饰)、一个警察——陈伟乐(古天乐 饰),三方在“生、老、病、死”轮回不断的医院发生的惊心动魄的交锋。生死一线,自我执念引发诸多隐瞒、利用与欺骗,三人越走越偏,危机一触即发…… vPSY 1NC5  
~j36(`t  
花絮 %%{f-\-7Ig  
A5IW[Gu!  
.钟汉良从开始就不断剃掉右边的头发以保持毒贩的造型。 wu;^fL  
q71V]!  
.本片是钟汉良和古天乐继《毒战》之后的再度合作。 WxJV zHtR  
A2%RcKY7  
.拍摄古天乐和钟汉良的追逐戏以前,为了研究走位等动作,两位演员排练了很多遍。钟汉良则吊着威亚,带着保护垫,在洗手间与地板之间的慢行,因空隙狭窄,身位刚刚好能过,不能有任何偏差。 9!,f4&G`  
Z&6*8#wn  
.影片真个拍摄片场的主场景医院,在最后一场戏中要被整个炸毁。 XNr8,[c  
_ X~xfmU  
.杜导在访谈中爆料有十分钟的长镜头,不是通过摄影机升格拍摄,而是由演员以慢动作达到的效果。为了这个长镜头,参与拍摄的演员训练了长达2个月之久。 U1=]iG<%  
A(1WQUu j  
.拍动作戏时,钟汉良一只耳朵受伤。古天乐的一身肌肉不是盖的,一般人招架不住,发布会上,赵薇称她是被打肿的,真的是实打实打了一晚上。导演还给赵薇加戏,让她打回去。7钟汉良曾说自己就是杜琪峰的粉丝,杜导成他为“钟仔”。 bqwn_=.  
THcX.%ToT  
.饰演脑科医生的赵薇为了效果更加逼真,之前特意跟真的医生上课学习,研究病人心理,戏里给病人做检查的手势显得相当专业。 'p&q}IO  
*Xk gwJq  
.这是赵薇与杜琪峰的第一次合作,而她早前支持吴君如监制的《十二金鸭》,曾在片中客串并与古天乐热舞,所以本片算是她与古仔的二度合作。 <y<   
jJK@i\bU_  
.对于杜琪峰的拍摄邀约,赵薇表示初听时特别激动,当时只弱弱地提一个要求:“不想演大佬背后的女人”,没想到杜导却让自己淹了一位女大佬。 ZJ%iiY  
IQyw>_~]  
.杜琪峰爆料整个医院的场景花费了大概三四千万,是影片花钱最多的地方。 Q[&CtM  
0[92&:c,  
.影片邀请真正的脑科医生来片场指导,手术器材都是真的。13钟汉良大部分拍摄过程都是在床上完成的,肢体动作非常受局限。 2SXy)m !  
suFO~/lRno  
.编剧游乃海每天在现场憋剧本,哪天憋不出来,只能收工回家继续憋。 j|IvDrm#  
Z"d21D~h9`  
General '^`%  
Format                         : Matroska VX'G\Zz@h|  
Format version                 : Version 4 / Version 2 **~1`_7~*  
File size                      : 4.19GB cdv0:+[P  
Duration                       : 1h 28mn "q7pkxEuJ  
Overall bit rate               : 6 813 Kbps Jyyr'1/<k  
Encoded date                   : UTC 2016-07-23 03:21:15 J8@7 5p9  
#RWmP$+#=  
Video MNH-SQB|  
ID                             : 1 }3 S6TJ+  
Format                         : AVC >$_@p(w  
Format/Info                    : Advanced Video Codec ]Vd1fkXO0  
Format profile                 : High@L5.1 tREC)+*\  
Format settings, CABAC         : Yes VcORRUp  
Format settings, ReFrames      : 3 frames ngl8) B  
Codec ID                       : V_MPEG4/ISO/AVC Ta)6ly7'  
Duration                       : 1h 28mn wQrD(Dv(yA  
Bit rate                       : 6 230 Kbps S,GM!YZg  
Width                          : 3 840 pixels ^03M~ SNCj  
Height                         : 1 608 pixels VRvX^w0  
Display aspect ratio           : 2.40:1 dk@iAL*v  
Frame rate mode                : Constant JA "  
Frame rate                     : 24.000 fps FfibR\dhY  
Color space                    : YUV ]3~X!(O  
Chroma subsampling             : 4:2:0 vU!<-T#  
Bit depth                      : 8 bits  r95$( N  
Scan type                      : Progressive j)lgF:  
Bits/(Pixel*Frame)             : 0.042 -3Auo0  
Stream size                    : 3.83GB (91%) "kg?Or.  
Writing library                : qiyi.com vtc-test FS6I?q#t Q  
Default                        : Yes j?s+#t  
Forced                         : No #yR@.&P  
Color primaries                : BT.709 7w5 L?,a  
Transfer characteristics       : BT.709 (d}z>?L  
Matrix coefficients            : BT.709 RRJN@|"  
ka[%p,H  
Audio #1 jWerX -$  
ID                             : 2 )Ga 3Ji}'  
Format                         : AC-3 1" #W1im  
Format/Info                    : Audio Coding 3 'sN (=CQ  
Mode extension                 : CM (complete main) e(EXQP2P>  
Format settings, Endianness    : Big KGsW*G4U=  
Codec ID                       : A_AC3  #)28ESj  
Duration                       : 1h 28mn \t+q1S1  
Bit rate mode                  : Constant =f-.aq(G/  
Bit rate                       : 224 Kbps hxj[gE'R(  
Channel(s)                     : 2 channels QTuj v<|  
Channel positions              : Front: L R F(+dX 4$  
Sampling rate                  : 44.1 KHz Czt>?8x`  
Bit depth                      : 16 bits ^]1M8R,  
Compression mode               : Lossy P] 9-+  
Stream size                    : 141 MiB (3%) jthGNVZ  
Default                        : Yes XCku[?Ix  
Forced                         : No .5YIf~!59  
. LEn~ 8  
Audio #2 Odj4)   
ID                             : 3 ^g*2jH+  
Format                         : AC-3 rd4\N2- 6  
Format/Info                    : Audio Coding 3 cb9q0sdf  
Mode extension                 : CM (complete main) pxO ?:B  
Format settings, Endianness    : Big 'UL"yM  
Codec ID                       : A_AC3 nLv"ON~  
Duration                       : 1h 28mn xDTDfhA  
Bit rate mode                  : Constant o 2sOf  
Bit rate                       : 224 Kbps R'{BkC}.  
Channel(s)                     : 2 channels UXN!iU)  
Channel positions              : Front: L R OBJk\j+Wi  
Sampling rate                  : 44.1 KHz UkV{4*E  
Bit depth                      : 16 bits b|z_1j6U  
Compression mode               : Lossy 7SpF&  
Stream size                    : 141 MiB (3%) ~i)IY1m"  
Default                        : No Lv`NS+fX  
Forced                         : No wa}\bNKQk  
,c\3b)ax  
2V 9vS  
# {u>  
三人行(4K版).Three.2016.4K.2160p.WEB-DL.x264.AC3-SeeHD.torrent (23 K) 下载次数:114

只看该作者 1 发表于: 2016-08-03
唔系几好睇,没以前的杜式好!