切换到宽版
  • 825阅读
  • 1回复

三人行(4K版).Three.2016.4K.2160p.WEB-DL.x264.AC3-SeeHD [复制链接]

上一主题 下一主题
 

只看楼主 倒序阅读 使用道具 0 发表于: 2016-07-27
S%k](\7!  
◎译  名 三人行 8yn}|Y9Fu  
◎片  名 Three 1A-ess\  
◎年  代 2016 h;2n2.Q  
◎国  家 中国/中国香港 @F0+t;  
◎类  别 动作/犯罪 k\wI^D  
◎语  言 普通话/粤语 ;]xJC j  
◎字  幕 简体中文(内嵌) '"14(BvW  
◎IMDb评分  6.4/10 from 144 users %,[p[`NRYR  
◎IMDB链接  http://www.imdb.com/title/tt4379728/ 7Q3a0`Iq  
◎文件格式  x264+ AC3 %(y0,?*  
◎视频尺寸  3840x1 608 kA%"-$3  
◎文件大小  1CD 4.19GB Ju.B!)uS#  
◎片  长 1 h 28 min 6+Wkcr h  
◎导  演 杜琪峰 Johnnie To Y1Qg|U o  
◎主  演 赵薇 Wei Zhao E;Sb e9]   
      古天乐 Louis Koo +Pm yFJH  
      钟汉良 Wallace Chung |T@\ -8Ok  
      卢海鹏 Hoi-Pang Lo N]6M4j!  
      林雪 Suet Lam &E&e5(&$  
      张兆辉 Siu-Fai Cheung V"{+cPBO)  
      谢天华 Michael Tse ">^O{X\  
      洪天明 Timmy Hung Tin-Ming V)8d1S  
      黄浩然 Raymond Wong Ho-Yin O>j_xW]V  
      龚慈恩 Mimi Kung 1EvK\  
      王梓轩 Jonathan Wong Chee-hynn B5Y 3GWhrx  
      欧锦棠 Stephen Au #A '|O\RGP  
      何果轩 Guoxuan He &58+-jzW  
      詹秉熙 Bing Hei Chim %@jL? u  
      菁玮 Luvin Ho M{ mdh\  
Pgg\(D#X`  
◎简  介 <s7OY`(8   
8- U1Y  
  影片讲述了六小时内,一个医生——佟倩(赵薇 饰)、一个悍匪——张礼信(钟汉良 饰)、一个警察——陈伟乐(古天乐 饰),三方在“生、老、病、死”轮回不断的医院发生的惊心动魄的交锋。生死一线,自我执念引发诸多隐瞒、利用与欺骗,三人越走越偏,危机一触即发…… SXW8p>1Jw  
}(/")i4h  
花絮 o"a ~  
P~5[.6gW  
.钟汉良从开始就不断剃掉右边的头发以保持毒贩的造型。 $\ 0d9^)&  
(A\ p5@ht  
.本片是钟汉良和古天乐继《毒战》之后的再度合作。 ^K#PcPF-j  
JQhw>H9&  
.拍摄古天乐和钟汉良的追逐戏以前,为了研究走位等动作,两位演员排练了很多遍。钟汉良则吊着威亚,带着保护垫,在洗手间与地板之间的慢行,因空隙狭窄,身位刚刚好能过,不能有任何偏差。 8RfFP\AP  
_rz*7-ks=  
.影片真个拍摄片场的主场景医院,在最后一场戏中要被整个炸毁。 8U5L |Ny.q  
wK_I"  
.杜导在访谈中爆料有十分钟的长镜头,不是通过摄影机升格拍摄,而是由演员以慢动作达到的效果。为了这个长镜头,参与拍摄的演员训练了长达2个月之久。 oP$l(k  
1,tM  
.拍动作戏时,钟汉良一只耳朵受伤。古天乐的一身肌肉不是盖的,一般人招架不住,发布会上,赵薇称她是被打肿的,真的是实打实打了一晚上。导演还给赵薇加戏,让她打回去。7钟汉良曾说自己就是杜琪峰的粉丝,杜导成他为“钟仔”。 $&@L[[xl  
rl 0sN5n  
.饰演脑科医生的赵薇为了效果更加逼真,之前特意跟真的医生上课学习,研究病人心理,戏里给病人做检查的手势显得相当专业。 8KQ]3Z9p  
0 s-IW  
.这是赵薇与杜琪峰的第一次合作,而她早前支持吴君如监制的《十二金鸭》,曾在片中客串并与古天乐热舞,所以本片算是她与古仔的二度合作。 /a?*Ap5"  
$R'  
.对于杜琪峰的拍摄邀约,赵薇表示初听时特别激动,当时只弱弱地提一个要求:“不想演大佬背后的女人”,没想到杜导却让自己淹了一位女大佬。 a5v}w7vL  
LG0z|x(  
.杜琪峰爆料整个医院的场景花费了大概三四千万,是影片花钱最多的地方。 XQW+6LEQ  
\M H\!  
.影片邀请真正的脑科医生来片场指导,手术器材都是真的。13钟汉良大部分拍摄过程都是在床上完成的,肢体动作非常受局限。 ~i4h.ZLj  
Kd?TIeFE  
.编剧游乃海每天在现场憋剧本,哪天憋不出来,只能收工回家继续憋。 h@5mVTb}i  
{R2gz]v4  
General : "|M  
Format                         : Matroska kj o,?$r %  
Format version                 : Version 4 / Version 2 6^vMJ82U  
File size                      : 4.19GB &i&k 4  
Duration                       : 1h 28mn pZS0;T]W,  
Overall bit rate               : 6 813 Kbps \GL!x 7s1A  
Encoded date                   : UTC 2016-07-23 03:21:15 03F%!Rm/j  
Xndgs}zz  
Video E4a`cGb  
ID                             : 1 tgy= .o]  
Format                         : AVC i'GBj,:  
Format/Info                    : Advanced Video Codec 7QXA*.' F  
Format profile                 : High@L5.1 i8F^ N=  
Format settings, CABAC         : Yes :^c ' P<HM  
Format settings, ReFrames      : 3 frames .eg?FB'7  
Codec ID                       : V_MPEG4/ISO/AVC n+C]&6-b  
Duration                       : 1h 28mn C+, JLK  
Bit rate                       : 6 230 Kbps ?;s}GpEY:  
Width                          : 3 840 pixels :[;]6;  
Height                         : 1 608 pixels 5 pJ)OX  
Display aspect ratio           : 2.40:1 > 3<P^-9L  
Frame rate mode                : Constant 0q|.]:][Eo  
Frame rate                     : 24.000 fps ]}KoW?M  
Color space                    : YUV YL(7l|^!  
Chroma subsampling             : 4:2:0 2~:jg1  
Bit depth                      : 8 bits Pm2T!0  
Scan type                      : Progressive N! 7r~B   
Bits/(Pixel*Frame)             : 0.042 e,Ih7-=Er,  
Stream size                    : 3.83GB (91%) _R&}CP  
Writing library                : qiyi.com vtc-test 9.<dS  
Default                        : Yes %9D$N  
Forced                         : No ls5s}X  
Color primaries                : BT.709 ?\_N*NEtK  
Transfer characteristics       : BT.709 x"hZOgFZ  
Matrix coefficients            : BT.709 G8c 8`~t  
_ {.=zv|3  
Audio #1 Q o}&2m  
ID                             : 2 h'{}eYb+   
Format                         : AC-3 68m (%%E@  
Format/Info                    : Audio Coding 3 qT`sPEs;V  
Mode extension                 : CM (complete main) Au+SCj  
Format settings, Endianness    : Big m$T?~o o  
Codec ID                       : A_AC3 mL\j^q,Y  
Duration                       : 1h 28mn =[wVRQ?  
Bit rate mode                  : Constant >Ab>"!/'K  
Bit rate                       : 224 Kbps :HSqa9>wa  
Channel(s)                     : 2 channels 19 h7 M  
Channel positions              : Front: L R goYRA_%cX  
Sampling rate                  : 44.1 KHz vn n4  
Bit depth                      : 16 bits ^;J@]&[ ~  
Compression mode               : Lossy 4"$K66yk@  
Stream size                    : 141 MiB (3%) #UR4I2t*  
Default                        : Yes  &!I^m  
Forced                         : No L2s)B  
W~15[r0  
Audio #2 FhJ8}at+e  
ID                             : 3 [al,UO  
Format                         : AC-3 G~Xh4*#J  
Format/Info                    : Audio Coding 3 fH_G;#q  
Mode extension                 : CM (complete main) =}S*]Me5  
Format settings, Endianness    : Big iz'#K?PF_  
Codec ID                       : A_AC3 ([loWr}QR  
Duration                       : 1h 28mn .r9-^01mG  
Bit rate mode                  : Constant '}a[9v76  
Bit rate                       : 224 Kbps lk $S"OH!  
Channel(s)                     : 2 channels q7}$F]UM"  
Channel positions              : Front: L R ZN)a}\]  
Sampling rate                  : 44.1 KHz '</  
Bit depth                      : 16 bits ayfZ>x{s*  
Compression mode               : Lossy |RqCw7  
Stream size                    : 141 MiB (3%) Y21,!$4gb  
Default                        : No - #]?3*NO  
Forced                         : No L]{ 1"`#  
&&e{9{R  
J-g#zs  
/ZAS%_as  
三人行(4K版).Three.2016.4K.2160p.WEB-DL.x264.AC3-SeeHD.torrent (23 K) 下载次数:112

只看该作者 1 发表于: 2016-08-03
唔系几好睇,没以前的杜式好!