切换到宽版
  • 899阅读
  • 1回复

三人行(4K版).Three.2016.4K.2160p.WEB-DL.x264.AC3-SeeHD [复制链接]

上一主题 下一主题
 

只看楼主 倒序阅读 使用道具 0 发表于: 2016-07-27
3 NFo=Z8  
◎译  名 三人行 F`GXho[  
◎片  名 Three ANgt\8  
◎年  代 2016 n/x((d%"E  
◎国  家 中国/中国香港 hC9EL= A  
◎类  别 动作/犯罪 BMqr YW  
◎语  言 普通话/粤语 (#Xs\IEVF  
◎字  幕 简体中文(内嵌) uGF{0 )0g  
◎IMDb评分  6.4/10 from 144 users K|l}+:k  
◎IMDB链接  http://www.imdb.com/title/tt4379728/ S^;;\0#NK  
◎文件格式  x264+ AC3 !Z 0U_*&  
◎视频尺寸  3840x1 608 tRO=k34  
◎文件大小  1CD 4.19GB cGR)$:  
◎片  长 1 h 28 min IUDH"~f  
◎导  演 杜琪峰 Johnnie To K&RIF]0#G  
◎主  演 赵薇 Wei Zhao ' Ttsscv  
      古天乐 Louis Koo S;jD@j\t&  
      钟汉良 Wallace Chung QqRF?%7q"q  
      卢海鹏 Hoi-Pang Lo sp MYn&p  
      林雪 Suet Lam }+bo?~2E&  
      张兆辉 Siu-Fai Cheung =mF"D:s*  
      谢天华 Michael Tse M@P%k`6C  
      洪天明 Timmy Hung Tin-Ming $(+xhn(O  
      黄浩然 Raymond Wong Ho-Yin 1KbZ6Msy  
      龚慈恩 Mimi Kung ivn2   
      王梓轩 Jonathan Wong Chee-hynn }mzd23^W>P  
      欧锦棠 Stephen Au `/'p1?Z"  
      何果轩 Guoxuan He _)~1'tCs}h  
      詹秉熙 Bing Hei Chim F_9 4k  
      菁玮 Luvin Ho lS #: u-k  
<\fA}b  
◎简  介 *9uNM@7&0  
(QL:7  
  影片讲述了六小时内,一个医生——佟倩(赵薇 饰)、一个悍匪——张礼信(钟汉良 饰)、一个警察——陈伟乐(古天乐 饰),三方在“生、老、病、死”轮回不断的医院发生的惊心动魄的交锋。生死一线,自我执念引发诸多隐瞒、利用与欺骗,三人越走越偏,危机一触即发…… 'S9o!hb'@  
a/J Mg   
花絮 &VA^LS@b  
'|Bk} pl7  
.钟汉良从开始就不断剃掉右边的头发以保持毒贩的造型。 U. _fb=  
LU+SuVm  
.本片是钟汉良和古天乐继《毒战》之后的再度合作。 !=PH5jTY  
{? Y \T  
.拍摄古天乐和钟汉良的追逐戏以前,为了研究走位等动作,两位演员排练了很多遍。钟汉良则吊着威亚,带着保护垫,在洗手间与地板之间的慢行,因空隙狭窄,身位刚刚好能过,不能有任何偏差。 "uT2 DY[  
/3Gq&[R{  
.影片真个拍摄片场的主场景医院,在最后一场戏中要被整个炸毁。 /*{'p!?  
}e/vKW fT  
.杜导在访谈中爆料有十分钟的长镜头,不是通过摄影机升格拍摄,而是由演员以慢动作达到的效果。为了这个长镜头,参与拍摄的演员训练了长达2个月之久。 nW"O+s3  
w8R7Ksn(  
.拍动作戏时,钟汉良一只耳朵受伤。古天乐的一身肌肉不是盖的,一般人招架不住,发布会上,赵薇称她是被打肿的,真的是实打实打了一晚上。导演还给赵薇加戏,让她打回去。7钟汉良曾说自己就是杜琪峰的粉丝,杜导成他为“钟仔”。 C ?>d$G8  
Sn4xv2/  
.饰演脑科医生的赵薇为了效果更加逼真,之前特意跟真的医生上课学习,研究病人心理,戏里给病人做检查的手势显得相当专业。 dor1(@no|  
dsx<ZwZN>  
.这是赵薇与杜琪峰的第一次合作,而她早前支持吴君如监制的《十二金鸭》,曾在片中客串并与古天乐热舞,所以本片算是她与古仔的二度合作。 v%AepK&  
(lS[a  
.对于杜琪峰的拍摄邀约,赵薇表示初听时特别激动,当时只弱弱地提一个要求:“不想演大佬背后的女人”,没想到杜导却让自己淹了一位女大佬。 gaz",kK<  
`^[Tu 1  
.杜琪峰爆料整个医院的场景花费了大概三四千万,是影片花钱最多的地方。 V0Oqq0\  
6vAZLNG3  
.影片邀请真正的脑科医生来片场指导,手术器材都是真的。13钟汉良大部分拍摄过程都是在床上完成的,肢体动作非常受局限。 NfPWcK [  
fh3uo\`@  
.编剧游乃海每天在现场憋剧本,哪天憋不出来,只能收工回家继续憋。 ;`LG WT-<F  
?%$O7_ThvA  
General /CO=!*7fz  
Format                         : Matroska hZ452W  
Format version                 : Version 4 / Version 2 %LP4RZ  
File size                      : 4.19GB *cCx]C.~  
Duration                       : 1h 28mn }DM W,+3  
Overall bit rate               : 6 813 Kbps Gv G8s6IZ  
Encoded date                   : UTC 2016-07-23 03:21:15 ukEJD3i  
F"k`PF*b  
Video keRLai7h  
ID                             : 1 \ui'~n_t]  
Format                         : AVC N,rd= m+  
Format/Info                    : Advanced Video Codec 1!G}* 38;  
Format profile                 : High@L5.1 HQ9tvSc  
Format settings, CABAC         : Yes gAorb\iJ  
Format settings, ReFrames      : 3 frames "*D9.LyM  
Codec ID                       : V_MPEG4/ISO/AVC 8g!79q\c4  
Duration                       : 1h 28mn 3%(r,AD  
Bit rate                       : 6 230 Kbps >Rt:8uurAG  
Width                          : 3 840 pixels :{)uD ;  
Height                         : 1 608 pixels )'f=!'X  
Display aspect ratio           : 2.40:1 y*X.DS 1(w  
Frame rate mode                : Constant Xwo+iZ(a  
Frame rate                     : 24.000 fps kP[fhOpn  
Color space                    : YUV 0(Y,Q(JTo&  
Chroma subsampling             : 4:2:0 \ [OB.  
Bit depth                      : 8 bits %G 2g @2  
Scan type                      : Progressive DFQ`(1Q  
Bits/(Pixel*Frame)             : 0.042 v5\ALWy+p  
Stream size                    : 3.83GB (91%) \^9n&MonM  
Writing library                : qiyi.com vtc-test ]zyT_}&  
Default                        : Yes "IQYy~ /  
Forced                         : No 0aY\(@  
Color primaries                : BT.709 2>^(&95M  
Transfer characteristics       : BT.709 ^_\m@   
Matrix coefficients            : BT.709 VT4 >6u }  
k6z ]-XG  
Audio #1 1 +-Go}I  
ID                             : 2 7J5jf231  
Format                         : AC-3 BaI-ve  
Format/Info                    : Audio Coding 3 W&cs&>F#  
Mode extension                 : CM (complete main)  "O9n|B  
Format settings, Endianness    : Big l lcq~*zz  
Codec ID                       : A_AC3 6(7{|iY  
Duration                       : 1h 28mn hG~.Sc:G  
Bit rate mode                  : Constant 8r"-3<*  
Bit rate                       : 224 Kbps ;Dp*.YJ  
Channel(s)                     : 2 channels ewn\'RLZ"@  
Channel positions              : Front: L R }jC^&%|  
Sampling rate                  : 44.1 KHz n+&8Uk  
Bit depth                      : 16 bits 7_Te-i  
Compression mode               : Lossy `5oXf  
Stream size                    : 141 MiB (3%) &$2d=q8mh  
Default                        : Yes zBq&/?  
Forced                         : No G?LC!9MB  
tMP"9JE,  
Audio #2 'J0I$-QYk  
ID                             : 3 /CyFe<t  
Format                         : AC-3 6A =k;do  
Format/Info                    : Audio Coding 3 /DHV-L  
Mode extension                 : CM (complete main) vpT\ CjXHZ  
Format settings, Endianness    : Big >0iCQKq  
Codec ID                       : A_AC3 tUOY`]0  
Duration                       : 1h 28mn X-" +nThMn  
Bit rate mode                  : Constant 7Q  Ns q  
Bit rate                       : 224 Kbps vN_ 8qzWk  
Channel(s)                     : 2 channels kd "nBb=  
Channel positions              : Front: L R Q;z!]hjBM  
Sampling rate                  : 44.1 KHz n,s 7!z/  
Bit depth                      : 16 bits $.w$x1  
Compression mode               : Lossy B:UM2Jl   
Stream size                    : 141 MiB (3%) *]R 5bj.!o  
Default                        : No 4bw4!z9G  
Forced                         : No EBL-+%J8  
hP.Km%C)0n  
+hispU3ia  
P{n*X  
三人行(4K版).Three.2016.4K.2160p.WEB-DL.x264.AC3-SeeHD.torrent (23 K) 下载次数:113

只看该作者 1 发表于: 2016-08-03
唔系几好睇,没以前的杜式好!