切换到宽版
  • 662阅读
  • 1回复

三人行(4K版).Three.2016.4K.2160p.WEB-DL.x264.AC3-SeeHD [复制链接]

上一主题 下一主题
 

只看楼主 倒序阅读 使用道具 0 发表于: 2016-07-27
?Z}n0E `  
◎译  名 三人行 ,}&E=5MF\  
◎片  名 Three "Fv6u]Rv  
◎年  代 2016 \Fh k>  
◎国  家 中国/中国香港 @a.Y9;O  
◎类  别 动作/犯罪 %9|=\# G  
◎语  言 普通话/粤语 Is6<3eQ\x  
◎字  幕 简体中文(内嵌) $q}}w||e~0  
◎IMDb评分  6.4/10 from 144 users /*GRE#7S  
◎IMDB链接  http://www.imdb.com/title/tt4379728/ UXB[3SP  
◎文件格式  x264+ AC3 5 Vm  |/  
◎视频尺寸  3840x1 608 SM:SxhrGt  
◎文件大小  1CD 4.19GB `~( P  
◎片  长 1 h 28 min 3Lwl~h!  
◎导  演 杜琪峰 Johnnie To t/cj z/]  
◎主  演 赵薇 Wei Zhao H[%F o  
      古天乐 Louis Koo W NT m  
      钟汉良 Wallace Chung qx5X2@-;:  
      卢海鹏 Hoi-Pang Lo  P9J3Ii!  
      林雪 Suet Lam YgaJ*%\  
      张兆辉 Siu-Fai Cheung uK]@! gz  
      谢天华 Michael Tse {Ny\9r  
      洪天明 Timmy Hung Tin-Ming A"Rzn1/  
      黄浩然 Raymond Wong Ho-Yin q{f%U.  
      龚慈恩 Mimi Kung 9#%(%s 2 +  
      王梓轩 Jonathan Wong Chee-hynn h~elF1dG  
      欧锦棠 Stephen Au 9Q :IgY?T  
      何果轩 Guoxuan He R_*b<~[/  
      詹秉熙 Bing Hei Chim c%)uG _  
      菁玮 Luvin Ho (? R  
c}mJ6Pt  
◎简  介 d8M"vd  
>4\V/ I  
  影片讲述了六小时内,一个医生——佟倩(赵薇 饰)、一个悍匪——张礼信(钟汉良 饰)、一个警察——陈伟乐(古天乐 饰),三方在“生、老、病、死”轮回不断的医院发生的惊心动魄的交锋。生死一线,自我执念引发诸多隐瞒、利用与欺骗,三人越走越偏,危机一触即发…… w;QDQ fx0  
LH 4 -b-  
花絮 UF< |1;'  
|]A{8BBC  
.钟汉良从开始就不断剃掉右边的头发以保持毒贩的造型。 |k&.1NkZ  
d5A!kU _.  
.本片是钟汉良和古天乐继《毒战》之后的再度合作。 bS/`G0!  
V@>?lv(\  
.拍摄古天乐和钟汉良的追逐戏以前,为了研究走位等动作,两位演员排练了很多遍。钟汉良则吊着威亚,带着保护垫,在洗手间与地板之间的慢行,因空隙狭窄,身位刚刚好能过,不能有任何偏差。 ~J<bwF  
uc Z(D|a   
.影片真个拍摄片场的主场景医院,在最后一场戏中要被整个炸毁。 yN3Tk}{V  
NH 'RU`U)  
.杜导在访谈中爆料有十分钟的长镜头,不是通过摄影机升格拍摄,而是由演员以慢动作达到的效果。为了这个长镜头,参与拍摄的演员训练了长达2个月之久。 0y;&L63>T  
ts;_T..L  
.拍动作戏时,钟汉良一只耳朵受伤。古天乐的一身肌肉不是盖的,一般人招架不住,发布会上,赵薇称她是被打肿的,真的是实打实打了一晚上。导演还给赵薇加戏,让她打回去。7钟汉良曾说自己就是杜琪峰的粉丝,杜导成他为“钟仔”。 JF{,;&sj  
$:u,6|QsS=  
.饰演脑科医生的赵薇为了效果更加逼真,之前特意跟真的医生上课学习,研究病人心理,戏里给病人做检查的手势显得相当专业。 sxThz7#i)  
,;+\!'lS  
.这是赵薇与杜琪峰的第一次合作,而她早前支持吴君如监制的《十二金鸭》,曾在片中客串并与古天乐热舞,所以本片算是她与古仔的二度合作。 a m<R!(  
t C6c4j  
.对于杜琪峰的拍摄邀约,赵薇表示初听时特别激动,当时只弱弱地提一个要求:“不想演大佬背后的女人”,没想到杜导却让自己淹了一位女大佬。 eaX`S.!jR  
;g*X.d  
.杜琪峰爆料整个医院的场景花费了大概三四千万,是影片花钱最多的地方。 W$'pUhq\H  
yFpHRfF}  
.影片邀请真正的脑科医生来片场指导,手术器材都是真的。13钟汉良大部分拍摄过程都是在床上完成的,肢体动作非常受局限。 !5B9:p~-  
Z$ftG7;P0  
.编剧游乃海每天在现场憋剧本,哪天憋不出来,只能收工回家继续憋。 :W1,s53  
>`{i[60r  
General (VOKa  
Format                         : Matroska Q%eBm _r;  
Format version                 : Version 4 / Version 2 q#p)E=$  
File size                      : 4.19GB ~HYP:6f  
Duration                       : 1h 28mn /6q/`vx @  
Overall bit rate               : 6 813 Kbps /ruf1?\,R  
Encoded date                   : UTC 2016-07-23 03:21:15 jSG jv>  
*z+\yfOO"  
Video Cf i2N V  
ID                             : 1 <GNOT"z  
Format                         : AVC aDOH3Ri0K!  
Format/Info                    : Advanced Video Codec \ yOZ&qU  
Format profile                 : High@L5.1 @[FFYVru  
Format settings, CABAC         : Yes AN%.LK  
Format settings, ReFrames      : 3 frames 6)3eB{$;  
Codec ID                       : V_MPEG4/ISO/AVC 5o3_x ~e  
Duration                       : 1h 28mn E1C8yIF  
Bit rate                       : 6 230 Kbps b>7ts_b  
Width                          : 3 840 pixels AO]lXa  
Height                         : 1 608 pixels q#a21~S<  
Display aspect ratio           : 2.40:1  \1MDCP9:  
Frame rate mode                : Constant zh.c_>jS  
Frame rate                     : 24.000 fps .Ep3~9TB W  
Color space                    : YUV kC k-  
Chroma subsampling             : 4:2:0 .UYpPuAkn  
Bit depth                      : 8 bits BJE <~"  
Scan type                      : Progressive mTPj@F>   
Bits/(Pixel*Frame)             : 0.042 2|=_kN8;  
Stream size                    : 3.83GB (91%) sy?>e*-{  
Writing library                : qiyi.com vtc-test 5oKc=iX_3  
Default                        : Yes (lnQ!4LK  
Forced                         : No ul?BKV+3E  
Color primaries                : BT.709 #TgJ d  
Transfer characteristics       : BT.709 yq}{6IyZ^  
Matrix coefficients            : BT.709 f3N:MH-c  
}j?S?=;m=  
Audio #1 Tpukz_F  
ID                             : 2 )ziQ=k6d6  
Format                         : AC-3 x/7G0K2\}  
Format/Info                    : Audio Coding 3 h9I )<_}R  
Mode extension                 : CM (complete main) \uk#pL  
Format settings, Endianness    : Big p*0Ve21i,  
Codec ID                       : A_AC3 `0i3"06l r  
Duration                       : 1h 28mn m-89nOls  
Bit rate mode                  : Constant 9oP{Al  
Bit rate                       : 224 Kbps U!/nD~A  
Channel(s)                     : 2 channels ~ ZL`E  
Channel positions              : Front: L R 5}xni  
Sampling rate                  : 44.1 KHz ;8i L,^.A  
Bit depth                      : 16 bits DME?kh>7  
Compression mode               : Lossy L~{Vt~H9"  
Stream size                    : 141 MiB (3%) " ^baiN@ac  
Default                        : Yes :bRR(sP  
Forced                         : No U%DF!~n  
*ZR@ z80i  
Audio #2 RLz`aBT  
ID                             : 3 "&#W Mi  
Format                         : AC-3 :{s%=\k {d  
Format/Info                    : Audio Coding 3 sV^h#g~Zb  
Mode extension                 : CM (complete main) :"P hkR  
Format settings, Endianness    : Big Ui |a}`c  
Codec ID                       : A_AC3 cL)rjty2  
Duration                       : 1h 28mn DV[ Jbl:)  
Bit rate mode                  : Constant $',GkK{NX  
Bit rate                       : 224 Kbps l?JO8^Nn  
Channel(s)                     : 2 channels 6l\UNG7  
Channel positions              : Front: L R d0A\#H_&  
Sampling rate                  : 44.1 KHz R'9@A\7#  
Bit depth                      : 16 bits a4jnu:e  
Compression mode               : Lossy ui56<gI-  
Stream size                    : 141 MiB (3%) ^?6 W<  
Default                        : No \Qi#'c$5+a  
Forced                         : No ,dZ H$  
}+dM1O  
wI@zPVY_i  
Pv7f _hw  
三人行(4K版).Three.2016.4K.2160p.WEB-DL.x264.AC3-SeeHD.torrent (23 K) 下载次数:105

只看该作者 1 发表于: 2016-08-03
唔系几好睇,没以前的杜式好!