切换到宽版
  • 1069阅读
  • 1回复

三人行(4K版).Three.2016.4K.2160p.WEB-DL.x264.AC3-SeeHD [复制链接]

上一主题 下一主题
 

只看楼主 倒序阅读 使用道具 0 发表于: 2016-07-27
~i?A!  
◎译  名 三人行 ZlMT) ~fM&  
◎片  名 Three 63Gq5dF  
◎年  代 2016 H8 ? Y{H  
◎国  家 中国/中国香港 * BR#^Wt  
◎类  别 动作/犯罪 2xO[ ?fR  
◎语  言 普通话/粤语 (ub(0 h0j  
◎字  幕 简体中文(内嵌) ^$lZ  
◎IMDb评分  6.4/10 from 144 users 8Z9>h:c1  
◎IMDB链接  http://www.imdb.com/title/tt4379728/ f7Nmvla[q  
◎文件格式  x264+ AC3 /Z^a, %1  
◎视频尺寸  3840x1 608 $RYGAh  
◎文件大小  1CD 4.19GB c]#}#RJ`\  
◎片  长 1 h 28 min -;_"Y]#  
◎导  演 杜琪峰 Johnnie To >\? z,Nin  
◎主  演 赵薇 Wei Zhao zqNzWX  
      古天乐 Louis Koo |LQ%sV  
      钟汉良 Wallace Chung [iq^'E  
      卢海鹏 Hoi-Pang Lo ,Owk;MV@  
      林雪 Suet Lam Bt@?l]Y  
      张兆辉 Siu-Fai Cheung 1%B9xLq  
      谢天华 Michael Tse W9w(a:~hY  
      洪天明 Timmy Hung Tin-Ming {q8|/{;  
      黄浩然 Raymond Wong Ho-Yin L$OZ]  
      龚慈恩 Mimi Kung {u1|`=;  
      王梓轩 Jonathan Wong Chee-hynn Bv@p9 ] n  
      欧锦棠 Stephen Au ]ASw%Lw)  
      何果轩 Guoxuan He K a(B&.  
      詹秉熙 Bing Hei Chim t>}S@T{~T  
      菁玮 Luvin Ho N)Q_z9b=  
 d6tLC Q  
◎简  介 #`|N m3b  
}a5TY("d9H  
  影片讲述了六小时内,一个医生——佟倩(赵薇 饰)、一个悍匪——张礼信(钟汉良 饰)、一个警察——陈伟乐(古天乐 饰),三方在“生、老、病、死”轮回不断的医院发生的惊心动魄的交锋。生死一线,自我执念引发诸多隐瞒、利用与欺骗,三人越走越偏,危机一触即发…… ^z)De+,!4  
v%*don  
花絮 }?mSMqnB  
nN<,rN{ :  
.钟汉良从开始就不断剃掉右边的头发以保持毒贩的造型。 -9{N7H  
|Sjy   
.本片是钟汉良和古天乐继《毒战》之后的再度合作。 aanS^t0  
^|Fy!kp  
.拍摄古天乐和钟汉良的追逐戏以前,为了研究走位等动作,两位演员排练了很多遍。钟汉良则吊着威亚,带着保护垫,在洗手间与地板之间的慢行,因空隙狭窄,身位刚刚好能过,不能有任何偏差。 +\_\53  
{z 5YJ*C  
.影片真个拍摄片场的主场景医院,在最后一场戏中要被整个炸毁。 -avxH?;?7  
zx\-He  
.杜导在访谈中爆料有十分钟的长镜头,不是通过摄影机升格拍摄,而是由演员以慢动作达到的效果。为了这个长镜头,参与拍摄的演员训练了长达2个月之久。 7 SJ=2  
AA,/AKikd  
.拍动作戏时,钟汉良一只耳朵受伤。古天乐的一身肌肉不是盖的,一般人招架不住,发布会上,赵薇称她是被打肿的,真的是实打实打了一晚上。导演还给赵薇加戏,让她打回去。7钟汉良曾说自己就是杜琪峰的粉丝,杜导成他为“钟仔”。 nn:'<6"oV  
ya~;Of5  
.饰演脑科医生的赵薇为了效果更加逼真,之前特意跟真的医生上课学习,研究病人心理,戏里给病人做检查的手势显得相当专业。 l]zQSXip  
AH'c:w]~  
.这是赵薇与杜琪峰的第一次合作,而她早前支持吴君如监制的《十二金鸭》,曾在片中客串并与古天乐热舞,所以本片算是她与古仔的二度合作。 bskoi;)u  
fWEQ vQ  
.对于杜琪峰的拍摄邀约,赵薇表示初听时特别激动,当时只弱弱地提一个要求:“不想演大佬背后的女人”,没想到杜导却让自己淹了一位女大佬。 `W)?d I?#M  
LhAW|];  
.杜琪峰爆料整个医院的场景花费了大概三四千万,是影片花钱最多的地方。 y ]@JkF(  
|33t5}we  
.影片邀请真正的脑科医生来片场指导,手术器材都是真的。13钟汉良大部分拍摄过程都是在床上完成的,肢体动作非常受局限。 9;{(. K  
#p*uk  
.编剧游乃海每天在现场憋剧本,哪天憋不出来,只能收工回家继续憋。 rM= :{   
F68e I%Y  
General z~`X4Segw  
Format                         : Matroska 'q:7PkN!p  
Format version                 : Version 4 / Version 2 m0^ "fMV  
File size                      : 4.19GB T<Xw[PEnP  
Duration                       : 1h 28mn Wm-$ l  
Overall bit rate               : 6 813 Kbps VV1sadS:S`  
Encoded date                   : UTC 2016-07-23 03:21:15 %Jh( 5  
e6_8f*o|s  
Video 4s:M}=]N  
ID                             : 1 Z HZxr  
Format                         : AVC p : z ][I  
Format/Info                    : Advanced Video Codec C@ q#s  
Format profile                 : High@L5.1 Hl%Og$q3  
Format settings, CABAC         : Yes =TEe:%mN  
Format settings, ReFrames      : 3 frames rz&V.,s  
Codec ID                       : V_MPEG4/ISO/AVC RjviHd#DXn  
Duration                       : 1h 28mn "Ua-7Q&A  
Bit rate                       : 6 230 Kbps KxKZC }4m  
Width                          : 3 840 pixels \PT!m bB?  
Height                         : 1 608 pixels \i,H1a  
Display aspect ratio           : 2.40:1 >H;m[  
Frame rate mode                : Constant u{=h%d/  
Frame rate                     : 24.000 fps NvIg,@}  
Color space                    : YUV /f?;,Cy I  
Chroma subsampling             : 4:2:0 `_)9eGQ  
Bit depth                      : 8 bits E<-W & a}  
Scan type                      : Progressive #y#TEw,  
Bits/(Pixel*Frame)             : 0.042 -eK0 +beQ  
Stream size                    : 3.83GB (91%) "2C}Pr ,p8  
Writing library                : qiyi.com vtc-test NVkYm+J#  
Default                        : Yes vA:ZR=)F  
Forced                         : No 0B9FPpx?:  
Color primaries                : BT.709  Xp<O  
Transfer characteristics       : BT.709 mz1m^p)~{  
Matrix coefficients            : BT.709 B=>Xr!pM!  
N)H+N g[  
Audio #1 <`Fl Igo  
ID                             : 2 }03 ?eWk/y  
Format                         : AC-3 @Yb8CB  
Format/Info                    : Audio Coding 3 *^ ]  
Mode extension                 : CM (complete main) MwQtf(_  
Format settings, Endianness    : Big @ ^F{  
Codec ID                       : A_AC3 L T`T~|pz  
Duration                       : 1h 28mn 9.dZA9l@g  
Bit rate mode                  : Constant AFsieJ  
Bit rate                       : 224 Kbps r*mYtS  
Channel(s)                     : 2 channels AX{<d@z`j  
Channel positions              : Front: L R ts[8;<YD  
Sampling rate                  : 44.1 KHz n)a/pO_  
Bit depth                      : 16 bits o-_,l J7o^  
Compression mode               : Lossy w_`;Mn%p  
Stream size                    : 141 MiB (3%) &,p6lbP  
Default                        : Yes YSB> WBS-<  
Forced                         : No n=d#Fm0<  
@~$=96^  
Audio #2 /-lW$.+{?  
ID                             : 3 lws.;abm%n  
Format                         : AC-3 &-NGVPk81`  
Format/Info                    : Audio Coding 3 4?(=?0/[  
Mode extension                 : CM (complete main) *dB3Gu{ +  
Format settings, Endianness    : Big 7!`1K_v6  
Codec ID                       : A_AC3 8TH;6-RT  
Duration                       : 1h 28mn $ta"Ug.z  
Bit rate mode                  : Constant bSI*`Dc"!  
Bit rate                       : 224 Kbps !T)_(}|6}  
Channel(s)                     : 2 channels OBlQ   
Channel positions              : Front: L R 2|exY>`w  
Sampling rate                  : 44.1 KHz /P[ u vO  
Bit depth                      : 16 bits dwvc;f-  
Compression mode               : Lossy Gl{2"!mt=  
Stream size                    : 141 MiB (3%) (mi=I3A(  
Default                        : No 90J WU$K  
Forced                         : No "3 2Ua3m:G  
#>CWee;  
eUa:@cA  
]x& R=)P  
三人行(4K版).Three.2016.4K.2160p.WEB-DL.x264.AC3-SeeHD.torrent (23 K) 下载次数:114

只看该作者 1 发表于: 2016-08-03
唔系几好睇,没以前的杜式好!