切换到宽版
  • 981阅读
  • 1回复

三人行(4K版).Three.2016.4K.2160p.WEB-DL.x264.AC3-SeeHD [复制链接]

上一主题 下一主题
 

只看楼主 倒序阅读 使用道具 0 发表于: 2016-07-27
gO5;hd[ l  
◎译  名 三人行 > }9TdP/oT  
◎片  名 Three n33SWE(  
◎年  代 2016 =nsY [ s<  
◎国  家 中国/中国香港 V>nY?  
◎类  别 动作/犯罪 YZk&'w  
◎语  言 普通话/粤语 UJZa1p@L  
◎字  幕 简体中文(内嵌) i{ 8=;  
◎IMDb评分  6.4/10 from 144 users &F:7U!  
◎IMDB链接  http://www.imdb.com/title/tt4379728/ Frml'Vfq7  
◎文件格式  x264+ AC3 c.~|)^OXXO  
◎视频尺寸  3840x1 608 uJWX7UGuz  
◎文件大小  1CD 4.19GB <7zpHSFBq  
◎片  长 1 h 28 min =_XcG!"  
◎导  演 杜琪峰 Johnnie To wOsr#t7  
◎主  演 赵薇 Wei Zhao pZR^ HOq  
      古天乐 Louis Koo " JRlj  
      钟汉良 Wallace Chung J7xZo=@k  
      卢海鹏 Hoi-Pang Lo 8RK\B%UW  
      林雪 Suet Lam Z+}SM]m  
      张兆辉 Siu-Fai Cheung ?G{fF H  
      谢天华 Michael Tse wO"Q{oi+  
      洪天明 Timmy Hung Tin-Ming G'("- 9  
      黄浩然 Raymond Wong Ho-Yin P8EGd}2{8  
      龚慈恩 Mimi Kung csV1ki/A  
      王梓轩 Jonathan Wong Chee-hynn ZLV~It&)  
      欧锦棠 Stephen Au ge` J>2  
      何果轩 Guoxuan He %9Ue`8  
      詹秉熙 Bing Hei Chim #4Z$O(  
      菁玮 Luvin Ho C }[u[)  
~}5(J, 1!  
◎简  介 =SdWU}xn2  
<HD/&4$[  
  影片讲述了六小时内,一个医生——佟倩(赵薇 饰)、一个悍匪——张礼信(钟汉良 饰)、一个警察——陈伟乐(古天乐 饰),三方在“生、老、病、死”轮回不断的医院发生的惊心动魄的交锋。生死一线,自我执念引发诸多隐瞒、利用与欺骗,三人越走越偏,危机一触即发…… WP>O7[|  
 WsoB!m  
花絮 MVCCh+,GI  
qm '$R3g  
.钟汉良从开始就不断剃掉右边的头发以保持毒贩的造型。 MhsG9q_%  
7KEGT KfW  
.本片是钟汉良和古天乐继《毒战》之后的再度合作。 ?=v wr,ir  
|N g[^  
.拍摄古天乐和钟汉良的追逐戏以前,为了研究走位等动作,两位演员排练了很多遍。钟汉良则吊着威亚,带着保护垫,在洗手间与地板之间的慢行,因空隙狭窄,身位刚刚好能过,不能有任何偏差。 "6}+|!"$  
F,W(H@ ~x  
.影片真个拍摄片场的主场景医院,在最后一场戏中要被整个炸毁。 3S9~rLrn?  
aT0 y  
.杜导在访谈中爆料有十分钟的长镜头,不是通过摄影机升格拍摄,而是由演员以慢动作达到的效果。为了这个长镜头,参与拍摄的演员训练了长达2个月之久。 Gnw>%f1@u  
}a`LOBne  
.拍动作戏时,钟汉良一只耳朵受伤。古天乐的一身肌肉不是盖的,一般人招架不住,发布会上,赵薇称她是被打肿的,真的是实打实打了一晚上。导演还给赵薇加戏,让她打回去。7钟汉良曾说自己就是杜琪峰的粉丝,杜导成他为“钟仔”。 Yv;aQF"a  
qvscf_%FM  
.饰演脑科医生的赵薇为了效果更加逼真,之前特意跟真的医生上课学习,研究病人心理,戏里给病人做检查的手势显得相当专业。 .3!4@l\9C  
zk nD(%a  
.这是赵薇与杜琪峰的第一次合作,而她早前支持吴君如监制的《十二金鸭》,曾在片中客串并与古天乐热舞,所以本片算是她与古仔的二度合作。 ^T[ #rNkeL  
+!<`$+W  
.对于杜琪峰的拍摄邀约,赵薇表示初听时特别激动,当时只弱弱地提一个要求:“不想演大佬背后的女人”,没想到杜导却让自己淹了一位女大佬。 0eLK9u3<  
e`oc#Od&x]  
.杜琪峰爆料整个医院的场景花费了大概三四千万,是影片花钱最多的地方。 p<jr&zVEc>  
3l^pY18H'  
.影片邀请真正的脑科医生来片场指导,手术器材都是真的。13钟汉良大部分拍摄过程都是在床上完成的,肢体动作非常受局限。 :b=0_< G  
v+OVZDf  
.编剧游乃海每天在现场憋剧本,哪天憋不出来,只能收工回家继续憋。 v!uLd.(  
y6s$.93  
General 3k/Mig T  
Format                         : Matroska v Zxy9Wmc  
Format version                 : Version 4 / Version 2 ovohl<o\  
File size                      : 4.19GB -bE|FFU  
Duration                       : 1h 28mn zk]~cG5dT/  
Overall bit rate               : 6 813 Kbps d?K8Ygz  
Encoded date                   : UTC 2016-07-23 03:21:15 IlrmXSr  
Dmw,Bi*  
Video u|ZO"t  
ID                             : 1 Xx^c?6YM  
Format                         : AVC )t4C*+9<U  
Format/Info                    : Advanced Video Codec :o:??tqw  
Format profile                 : High@L5.1 `zL9d lZ  
Format settings, CABAC         : Yes %F~ dmA#:  
Format settings, ReFrames      : 3 frames wnX6XyUH  
Codec ID                       : V_MPEG4/ISO/AVC (nzt}i0  
Duration                       : 1h 28mn *}J_STM  
Bit rate                       : 6 230 Kbps P#xn!fMi  
Width                          : 3 840 pixels ".\(A f2  
Height                         : 1 608 pixels HL?pnT09  
Display aspect ratio           : 2.40:1 D H^^$)  
Frame rate mode                : Constant erqB/C  
Frame rate                     : 24.000 fps 4Bn+L,}.  
Color space                    : YUV IFY !3^;zO  
Chroma subsampling             : 4:2:0 :q=OW1^k^  
Bit depth                      : 8 bits Q ZlUUj\  
Scan type                      : Progressive ^wlep1D  
Bits/(Pixel*Frame)             : 0.042 0TpA3K  
Stream size                    : 3.83GB (91%) 2Kidbf  
Writing library                : qiyi.com vtc-test *pMA V [^  
Default                        : Yes &u8c!;y$b  
Forced                         : No |#wz)=mD  
Color primaries                : BT.709 S6mmk&n  
Transfer characteristics       : BT.709 >U)O@W)  
Matrix coefficients            : BT.709  AMdS+(J  
Ce:ds%  
Audio #1 7h2bL6Y88  
ID                             : 2 `Nn?G  
Format                         : AC-3 wu')Q/v  
Format/Info                    : Audio Coding 3 c'2ra/?k  
Mode extension                 : CM (complete main) v,0DGR~  
Format settings, Endianness    : Big (a?Ip)`I  
Codec ID                       : A_AC3 Ei-OuDM;)  
Duration                       : 1h 28mn U4gwxK  
Bit rate mode                  : Constant ZT ZE_[  
Bit rate                       : 224 Kbps n&]w* (,  
Channel(s)                     : 2 channels [_d*J/X  
Channel positions              : Front: L R  _SqrQ  
Sampling rate                  : 44.1 KHz t3G'x 1  
Bit depth                      : 16 bits ;"Y6&YP<  
Compression mode               : Lossy V*}zwm s6  
Stream size                    : 141 MiB (3%) 7W"menw  
Default                        : Yes "puz-W'n  
Forced                         : No z3]U% y(,  
v%5(-  
Audio #2 @{u c  
ID                             : 3 D,a%Je-r,  
Format                         : AC-3 =Qrz|$_rv  
Format/Info                    : Audio Coding 3 4)I#[&f  
Mode extension                 : CM (complete main) Z"Oa5V6[A  
Format settings, Endianness    : Big 7p6J   
Codec ID                       : A_AC3 :8rCCop Uv  
Duration                       : 1h 28mn ".f:R9-  
Bit rate mode                  : Constant e% 6{P  
Bit rate                       : 224 Kbps 99K+7G\{  
Channel(s)                     : 2 channels mC`! \"w  
Channel positions              : Front: L R 98^6 {p  
Sampling rate                  : 44.1 KHz TzGm562o%  
Bit depth                      : 16 bits hm>*eJNp]  
Compression mode               : Lossy J B@VP{  
Stream size                    : 141 MiB (3%) '.,.F0{x  
Default                        : No J-F_XKqH  
Forced                         : No JxJntsn  
+;;%Atgn  
IviQ)h p  
()?co<@(l  
三人行(4K版).Three.2016.4K.2160p.WEB-DL.x264.AC3-SeeHD.torrent (23 K) 下载次数:113

只看该作者 1 发表于: 2016-08-03
唔系几好睇,没以前的杜式好!