切换到宽版
  • 506阅读
  • 0回复

购物女王/天堂之吻(4K版).22nd.Catch.2016.2160p.4k.WEB-DL.x264.AAC-SeeHD [复制链接]

上一主题 下一主题
 

只看楼主 倒序阅读 使用道具 0 发表于: 2016-07-22
3Tp8t6*nL  
◎译  名 购物女王/天堂之吻 0A-yQzL|  
◎片  名 22nd Catch ,_s.amL3O{  
◎年  代 2016 ei"c|/pO  
◎国  家  中国 J8ScKMUN2  
◎类  别  喜剧/爱情 lCBH3-0^  
◎语  言  普通话 )u4=k(  
◎字  幕  简体中文 ?GqH/ (O  
◎IMDb评分  N/A Db;>MWt+e  
◎IMDb链接  N/A |o*qZ}6  
◎文件格式  x264 + AAC o6:bmKWE  
◎视频尺寸  3840 x 1632 LC$M_Cpw  
◎文件大小 2.61 GiB +5 gX6V\  
◎片  长 1h 14mn ] w0Y5H "  
◎导  演 柳广辉  Guang Hui Liu R( ,m!  
◎主  演 秦海璐  Hailu Qin wXZ9@(^  
                  范逸臣  Van Fan  Z'l!/l!  
                  翁家明  Jiaming Weng +U%epq  
                  包小柏  Tino Bao 7oc Ng  
                  徐洁儿  Jill Hsu 27,c}OS5o  
   2oOos%0  
   _HjB'XNr(  
◎简   介 _n{_\/A6f  
+$xw0)|  
B&<5VjZ\  
  购物频道主持人陈美智(秦海璐 饰)在遭到未婚夫背叛后意外坠海,被自已的婚纱摄影师广清(范逸臣 饰)救起。随着坠海,似乎一切都陷入谷底,美智不仅无家可归,就连在购物台的工作也出现危机! >[wB|V5  
s&Al4>}.f  
  广清暂时收留美智了,但个性大相迳庭的两人摩擦不断,却渐渐在摩擦中产生了情愫。直到追求美智的土豪老板(翁家明 饰)出现。 7/_|/4&  
a=x &sz\x  
  在土豪老板和疑似真爱的广清中,她究竟会选择谁? "%S-(ue:  
,fN <I  
Format                      : Matroska !!8;ZcL}Z  
Format version              : Version 4 / Version 2 -N5h`Ii7  
File size                   : 2.61 GiB !0UfX{.  
Duration                    : 1h 14mn 49O_A[(d  
Overall bit rate            : 4 998 Kbps -dN`Ok<g  
Encoded date                : UTC 2016-07-10 01:02:40 +JY8"a97>  
iT s" RW  
|9Yx`_DF  
Video Pgq(yPC  
ID                          : 1 c&aqN\'4"  
Format                      : AVC G`&P|xYg  
Format/Info                 : Advanced Video Codec *~cNUyd  
Format profile              : High@L5.1 ;=E}PbZt2  
Format settings, CABAC      : Yes w@O)b-b|w  
Format settings, ReFrames   : 3 frames .y_~mr&d  
Codec ID                    : V_MPEG4/ISO/AVC nD>X?yz2  
Duration                    : 1h 14mn )8n ?.keq  
Bit rate                    : 4 933 Kbps sSD&'K=lq  
Width                       : 3 840 pixels !{ _:k%B  
Height                      : 1 632 pixels B<h4ZK%  
Display aspect ratio        : 2.35:1 $Fy~xMA8O  
Frame rate mode             : Constant !=yO72dgLY  
Frame rate                  : 25.000 fps Z=%u:K}[  
Color space                 : YUV M19 5[]  
Chroma subsampling          : 4:2:0 iEy2z+/"^  
Bit depth                   : 8 bits )cZ KB0*+  
Scan type                   : Progressive K@! hrye  
Bits/(Pixel*Frame)          : 0.031 e%{7CR'~TD  
Stream size                 : 2.58 GiB (99%) ~)X;z"y%b  
Writing library             : qiyi.com vtc-test `ZP[-:`  
Default                     : Yes IBNb!mPu%  
Forced                      : No 4"{g{8  
Color range                 : Limited  x}d5 Y  
Color primaries             : BT.709 -~lrv#5Q  
Transfer characteristics    : BT.709 !}1l8Y  
Matrix coefficients         : BT.709 BCd0X. m(  
|Q?$n3-f"  
`fVzY"Qv k  
Audio &;Go CU Le  
ID                          : 2 v{\~>1J{  
Format                      : AAC #SD2b,f  
Format/Info                 : Advanced Audio Codec : B 1 "=ly  
Format profile              : HE-AAC / LC ypfjF@OT  
Codec ID                    : A_AAC td#m> S  
Duration                    : 1h 14mn  e+@.n  
Bit rate                    : 63.6 Kbps kaDn= ={YM  
Channel(s)                  : 2 channels >4#\ U!  
Channel positions           : Front: L R mj9]M?]  
Sampling rate               : 44.1 KHz / 22.05 KHz T16B2|C"Y  
Frame rate                  : 21.533 fps (1024 spf) kYd=DY   
Compression mode            : Lossy #KtV4)(  
Stream size                 : 34.0 MiB (1%) ({!*&DVu  
Default                     : Yes }yCgd 5+_  
Forced                      : No mj y+_  
E 6!V0D  
qEjsAL  
Ax!fvcsN  
本部分内容设定了隐藏,需要回复后才能看到