切换到宽版
  • 547阅读
  • 0回复

购物女王/天堂之吻(4K版).22nd.Catch.2016.2160p.4k.WEB-DL.x264.AAC-SeeHD [复制链接]

上一主题 下一主题
 

只看楼主 倒序阅读 使用道具 0 发表于: 2016-07-22
U?ZWDr"*`w  
◎译  名 购物女王/天堂之吻 tF\_AvL_8  
◎片  名 22nd Catch @+a}O  
◎年  代 2016 'wWuR@e#&  
◎国  家  中国 ZH`(n5  
◎类  别  喜剧/爱情 xEv?2n@A  
◎语  言  普通话 4ves|pLET  
◎字  幕  简体中文 >*\yEH9"   
◎IMDb评分  N/A 4y!GFhMh  
◎IMDb链接  N/A `XM0Mm%  
◎文件格式  x264 + AAC wYDdy gS  
◎视频尺寸  3840 x 1632 {Es1bO  
◎文件大小 2.61 GiB m}f{o  
◎片  长 1h 14mn E,fbIyX  
◎导  演 柳广辉  Guang Hui Liu 9Q1w$t~Y  
◎主  演 秦海璐  Hailu Qin Wz#ZkNO  
                  范逸臣  Van Fan Ec^2tx"=  
                  翁家明  Jiaming Weng "1`w>(=  
                  包小柏  Tino Bao v^;vH$B  
                  徐洁儿  Jill Hsu vQj{yJ\l1  
   ff=RKKnN  
   )\7Cp-E-W  
◎简   介 $M~`)UeV_  
#V$sb1u  
m_FTg)_=  
  购物频道主持人陈美智(秦海璐 饰)在遭到未婚夫背叛后意外坠海,被自已的婚纱摄影师广清(范逸臣 饰)救起。随着坠海,似乎一切都陷入谷底,美智不仅无家可归,就连在购物台的工作也出现危机! uJ8FzS>[V  
\FF|b"E_=  
  广清暂时收留美智了,但个性大相迳庭的两人摩擦不断,却渐渐在摩擦中产生了情愫。直到追求美智的土豪老板(翁家明 饰)出现。 f0YBy<a  
m>?|*a,  
  在土豪老板和疑似真爱的广清中,她究竟会选择谁? Z-y oJZi  
D_G]W W8  
Format                      : Matroska L0w2qF  
Format version              : Version 4 / Version 2 [&l+Ve(  
File size                   : 2.61 GiB "ZA`Lp;%w  
Duration                    : 1h 14mn b< []z,  
Overall bit rate            : 4 998 Kbps ?A~=.u@[d  
Encoded date                : UTC 2016-07-10 01:02:40 >FJK$>[1:p  
LR'~:46#u  
bJk FCI/  
Video 6/vMK<Fz9  
ID                          : 1 /iJsa&W}  
Format                      : AVC ~}SQLYy7Z  
Format/Info                 : Advanced Video Codec @}uo:b:Q  
Format profile              : High@L5.1 kBY#= e).  
Format settings, CABAC      : Yes *~w?@,}  
Format settings, ReFrames   : 3 frames O;T)u4Q&3  
Codec ID                    : V_MPEG4/ISO/AVC _@VKWU$$  
Duration                    : 1h 14mn 8#4Gs Q"  
Bit rate                    : 4 933 Kbps Q5u3~Q'e  
Width                       : 3 840 pixels 1_StgFu u  
Height                      : 1 632 pixels xK4E+^ b  
Display aspect ratio        : 2.35:1 F!2VTPm9z  
Frame rate mode             : Constant CK_\K,xVT  
Frame rate                  : 25.000 fps : qV|rih_Q  
Color space                 : YUV uC6e2py<[  
Chroma subsampling          : 4:2:0 z6 h/C {  
Bit depth                   : 8 bits /Ao.b|mm  
Scan type                   : Progressive Mko,((>I1  
Bits/(Pixel*Frame)          : 0.031 RB;2  
Stream size                 : 2.58 GiB (99%) |/Y!R>El  
Writing library             : qiyi.com vtc-test iR8;^C.aT  
Default                     : Yes 5bsv05=e  
Forced                      : No p%/lP{  
Color range                 : Limited 1{ ehnH  
Color primaries             : BT.709 AboRuHQ  
Transfer characteristics    : BT.709 o[S Mt  
Matrix coefficients         : BT.709 C\|HN=2eh  
GkKoc v  
G {a;s-OA3  
Audio 1-R4A7+3  
ID                          : 2 qSaCl6[Do  
Format                      : AAC =H^~"16  
Format/Info                 : Advanced Audio Codec `[x'EJp#  
Format profile              : HE-AAC / LC ENf(E9O  
Codec ID                    : A_AAC -NDB.~E^DJ  
Duration                    : 1h 14mn 0_t9;;y :  
Bit rate                    : 63.6 Kbps HLh]*tQG  
Channel(s)                  : 2 channels ESe$6)P  
Channel positions           : Front: L R fOk(i vYy  
Sampling rate               : 44.1 KHz / 22.05 KHz 8Z 0@-8vi  
Frame rate                  : 21.533 fps (1024 spf) 7qdB   
Compression mode            : Lossy Su'l &]  
Stream size                 : 34.0 MiB (1%) Tcq@Q$H  
Default                     : Yes Cn>t"#zs!~  
Forced                      : No :r&4/sN} <  
YCyh+%Q(  
)xTu|V   
.;&4'ga 4  
本部分内容设定了隐藏,需要回复后才能看到