切换到宽版
  • 569阅读
  • 0回复

购物女王/天堂之吻(4K版).22nd.Catch.2016.2160p.4k.WEB-DL.x264.AAC-SeeHD [复制链接]

上一主题 下一主题
 

只看楼主 倒序阅读 使用道具 0 发表于: 2016-07-22
K\=8eg93Z  
◎译  名 购物女王/天堂之吻 2JO-0j.  
◎片  名 22nd Catch eO5ktEoJ  
◎年  代 2016 nW;kcS*A  
◎国  家  中国 UKB_Yy^Y  
◎类  别  喜剧/爱情 c;!g  
◎语  言  普通话 G\H q/4  
◎字  幕  简体中文 4!%]fg}Um  
◎IMDb评分  N/A i*tv,f.(  
◎IMDb链接  N/A 6OUvrfC(H  
◎文件格式  x264 + AAC Cyk s  
◎视频尺寸  3840 x 1632 _\AUQ{  
◎文件大小 2.61 GiB L4974E?S  
◎片  长 1h 14mn ?9?4p@  
◎导  演 柳广辉  Guang Hui Liu H:}}t]E  
◎主  演 秦海璐  Hailu Qin cK}Pf+r>  
                  范逸臣  Van Fan qb7^VIo%c  
                  翁家明  Jiaming Weng 4 eh=f!(+  
                  包小柏  Tino Bao A!HK~yk~Q  
                  徐洁儿  Jill Hsu ;<6"JP>0  
   u^Sv#K X  
   uCUu!Vfeg  
◎简   介 .j 'wQ+_  
h)B!L Ar  
|'w^n  
  购物频道主持人陈美智(秦海璐 饰)在遭到未婚夫背叛后意外坠海,被自已的婚纱摄影师广清(范逸臣 饰)救起。随着坠海,似乎一切都陷入谷底,美智不仅无家可归,就连在购物台的工作也出现危机! az(5o  
}brr ) )  
  广清暂时收留美智了,但个性大相迳庭的两人摩擦不断,却渐渐在摩擦中产生了情愫。直到追求美智的土豪老板(翁家明 饰)出现。 "\T"VS^pd  
"@t-Cy:!O  
  在土豪老板和疑似真爱的广清中,她究竟会选择谁? &+;uZ-x  
I)[B9rbe  
Format                      : Matroska <q6`~F~|  
Format version              : Version 4 / Version 2 ?[SVqj2-  
File size                   : 2.61 GiB f)gGH'yOQ  
Duration                    : 1h 14mn -uR{X G. D  
Overall bit rate            : 4 998 Kbps )1z4q`  
Encoded date                : UTC 2016-07-10 01:02:40 Ru7L>(Njs  
Uz>Yn&{y6  
 "Z9^}  
Video &q>h *w 4O  
ID                          : 1 gH H&IzHF  
Format                      : AVC XARSGAuw  
Format/Info                 : Advanced Video Codec lZ a?Y@  
Format profile              : High@L5.1 qRUCnCZs  
Format settings, CABAC      : Yes = o+7xom  
Format settings, ReFrames   : 3 frames \]a u SO  
Codec ID                    : V_MPEG4/ISO/AVC .CmL7 5  
Duration                    : 1h 14mn S~&\o\"5  
Bit rate                    : 4 933 Kbps $~hdm$  
Width                       : 3 840 pixels bw ;iz , Z  
Height                      : 1 632 pixels }~GV'7d1  
Display aspect ratio        : 2.35:1 >C^/,/%v  
Frame rate mode             : Constant w%~qB5wF6  
Frame rate                  : 25.000 fps ?1DUNZ6  
Color space                 : YUV Ns~ g+C9  
Chroma subsampling          : 4:2:0 ;_bq9x  
Bit depth                   : 8 bits Bfn]-]>sD  
Scan type                   : Progressive Zih 5/I  
Bits/(Pixel*Frame)          : 0.031 VVN # $  
Stream size                 : 2.58 GiB (99%) hLn&5jYHvt  
Writing library             : qiyi.com vtc-test ;>/ipnx  
Default                     : Yes )+k[uokj  
Forced                      : No +DxifXtB  
Color range                 : Limited -_w~JCx  
Color primaries             : BT.709 YiBOi?h9  
Transfer characteristics    : BT.709 *  S{\#s  
Matrix coefficients         : BT.709 8tC+ lc  
/ (.'*biQ  
{V=vn L--  
Audio X%35XC.n  
ID                          : 2 gm}C\q9  
Format                      : AAC 2}|vWKej{  
Format/Info                 : Advanced Audio Codec (A|B@a!Y>  
Format profile              : HE-AAC / LC +E)e1 :8  
Codec ID                    : A_AAC P69>gBZYD  
Duration                    : 1h 14mn /o'oF  
Bit rate                    : 63.6 Kbps JN)"2}SE  
Channel(s)                  : 2 channels iPNd!_  
Channel positions           : Front: L R =X<)5IS3  
Sampling rate               : 44.1 KHz / 22.05 KHz 'bG1U`v=3  
Frame rate                  : 21.533 fps (1024 spf) kU>#1 He  
Compression mode            : Lossy >Ziy1Dp  
Stream size                 : 34.0 MiB (1%) )*+u\x_Hx  
Default                     : Yes J;7s/YH^  
Forced                      : No X Z; *>(  
e$x4Ux7*"  
bQ i<0|S  
d7\k  gh  
本部分内容设定了隐藏,需要回复后才能看到