切换到宽版
  • 405阅读
  • 0回复

购物女王/天堂之吻(4K版).22nd.Catch.2016.2160p.4k.WEB-DL.x264.AAC-SeeHD [复制链接]

上一主题 下一主题
 

只看楼主 倒序阅读 使用道具 0 发表于: 2016-07-22
P~84#5R1  
◎译  名 购物女王/天堂之吻 Bk] `n'W  
◎片  名 22nd Catch EMPujik-  
◎年  代 2016 a4XK.[O  
◎国  家  中国 @O/"s~d-  
◎类  别  喜剧/爱情 .pG`/[*a  
◎语  言  普通话 wlQ @3RN>  
◎字  幕  简体中文 `_sKR,LhB  
◎IMDb评分  N/A *^KEb")$  
◎IMDb链接  N/A [b3$em<^JV  
◎文件格式  x264 + AAC MO? }$j  
◎视频尺寸  3840 x 1632 +i[@+`  
◎文件大小 2.61 GiB *TrpW?]Y&  
◎片  长 1h 14mn \O]kf>nC  
◎导  演 柳广辉  Guang Hui Liu TEla?N  
◎主  演 秦海璐  Hailu Qin :;;k+Sw3  
                  范逸臣  Van Fan e:K'e2  
                  翁家明  Jiaming Weng Tkn8W j  
                  包小柏  Tino Bao qC-4X"y+  
                  徐洁儿  Jill Hsu ol~ tfS  
   ,4k3C#!. i  
   ~.#57g F"  
◎简   介 r?|(t?  
"([lkn  
AF, ;3G  
  购物频道主持人陈美智(秦海璐 饰)在遭到未婚夫背叛后意外坠海,被自已的婚纱摄影师广清(范逸臣 饰)救起。随着坠海,似乎一切都陷入谷底,美智不仅无家可归,就连在购物台的工作也出现危机! a|DCpU}  
WR u/7$8  
  广清暂时收留美智了,但个性大相迳庭的两人摩擦不断,却渐渐在摩擦中产生了情愫。直到追求美智的土豪老板(翁家明 饰)出现。 w4R~0jXy  
#bCUI*N"P  
  在土豪老板和疑似真爱的广清中,她究竟会选择谁? .J=QWfqt  
[x- 9m\ h  
Format                      : Matroska t0za%q!fK<  
Format version              : Version 4 / Version 2 JxKd  
File size                   : 2.61 GiB o}D }Q"=A  
Duration                    : 1h 14mn #Zi6N   
Overall bit rate            : 4 998 Kbps .krEfY&  
Encoded date                : UTC 2016-07-10 01:02:40 wa!z:}]  
NBAOVYK  
n]nJ$u1u  
Video r9<#R=r)}J  
ID                          : 1 9!0-~,o  
Format                      : AVC "D :?l`\o  
Format/Info                 : Advanced Video Codec N7GZ'-t^Er  
Format profile              : High@L5.1 W"\+jHF"  
Format settings, CABAC      : Yes L>lxkq8!Q  
Format settings, ReFrames   : 3 frames K,+z^{Hvh  
Codec ID                    : V_MPEG4/ISO/AVC ScQ9p379  
Duration                    : 1h 14mn ks,d4b=->  
Bit rate                    : 4 933 Kbps 9H53H"5q  
Width                       : 3 840 pixels 32pPeYxB!-  
Height                      : 1 632 pixels UMMGT6s,E8  
Display aspect ratio        : 2.35:1 ,Ww.W'#P  
Frame rate mode             : Constant ? :A%$T  
Frame rate                  : 25.000 fps p _2Yc]8  
Color space                 : YUV |O'gT8  
Chroma subsampling          : 4:2:0 3ly ]DTbz  
Bit depth                   : 8 bits a=sd&](_  
Scan type                   : Progressive ~wcp&D  
Bits/(Pixel*Frame)          : 0.031 I9nm$,i]7  
Stream size                 : 2.58 GiB (99%) i&<@}:,  
Writing library             : qiyi.com vtc-test }h|HT  
Default                     : Yes -vh\XO  
Forced                      : No ?5EMDawt  
Color range                 : Limited &#9HV  
Color primaries             : BT.709 ]w]:9w  
Transfer characteristics    : BT.709 UnyJD%a  
Matrix coefficients         : BT.709 n<eK \ w  
+xU=7chA  
|-%dN }O  
Audio II\}84U2 .  
ID                          : 2 %+(fdk-k+  
Format                      : AAC \SWuylE  
Format/Info                 : Advanced Audio Codec bkm: #K  
Format profile              : HE-AAC / LC PpSQf14,  
Codec ID                    : A_AAC mAe)Hy %  
Duration                    : 1h 14mn xo(>nFjo  
Bit rate                    : 63.6 Kbps `0=j,54cx  
Channel(s)                  : 2 channels ?9~|K/`l  
Channel positions           : Front: L R }To-c'  
Sampling rate               : 44.1 KHz / 22.05 KHz !3"Hn  
Frame rate                  : 21.533 fps (1024 spf) +('=Ryo T  
Compression mode            : Lossy ?zYR;r2'b)  
Stream size                 : 34.0 MiB (1%) |KSoS#Y  
Default                     : Yes Slp_o\s$@  
Forced                      : No I=k`VId:  
~-A"M_n ?  
C-(O*hK  
<fDbz1Q;l  
本部分内容设定了隐藏,需要回复后才能看到