切换到宽版
  • 469阅读
  • 0回复

购物女王/天堂之吻(4K版).22nd.Catch.2016.2160p.4k.WEB-DL.x264.AAC-SeeHD [复制链接]

上一主题 下一主题
 

只看楼主 倒序阅读 使用道具 0 发表于: 2016-07-22
nKh&-E   
◎译  名 购物女王/天堂之吻 e$/B_o7(  
◎片  名 22nd Catch .0y%5wz8j  
◎年  代 2016 r.3KPiYK  
◎国  家  中国 fP-|+ Ty O  
◎类  别  喜剧/爱情 8HErE< _(  
◎语  言  普通话 I4_d[O9  
◎字  幕  简体中文 i^"+5Eq[D  
◎IMDb评分  N/A D&:yMp(  
◎IMDb链接  N/A Ubz"rCjq  
◎文件格式  x264 + AAC 2z0n<`  
◎视频尺寸  3840 x 1632 ) M<vAUF  
◎文件大小 2.61 GiB Z@rN_WXx  
◎片  长 1h 14mn ?w&SW{ I  
◎导  演 柳广辉  Guang Hui Liu Es5p}uh.[Y  
◎主  演 秦海璐  Hailu Qin QBJ3iQs1  
                  范逸臣  Van Fan o>D  
                  翁家明  Jiaming Weng h5zVGr  
                  包小柏  Tino Bao A2H4k|8  
                  徐洁儿  Jill Hsu f|7u_f  
   JC;^--0(z  
   {{yt *7k{  
◎简   介 *wbZ;rfF  
.w? . ib(  
;e8V +h  
  购物频道主持人陈美智(秦海璐 饰)在遭到未婚夫背叛后意外坠海,被自已的婚纱摄影师广清(范逸臣 饰)救起。随着坠海,似乎一切都陷入谷底,美智不仅无家可归,就连在购物台的工作也出现危机! UHO_Z  
E_ucab-Fi  
  广清暂时收留美智了,但个性大相迳庭的两人摩擦不断,却渐渐在摩擦中产生了情愫。直到追求美智的土豪老板(翁家明 饰)出现。 u b?K,  
vR7HF*8  
  在土豪老板和疑似真爱的广清中,她究竟会选择谁? y6HuN  
QP I+y8N=  
Format                      : Matroska }odV_WT  
Format version              : Version 4 / Version 2 -0HkTY  
File size                   : 2.61 GiB ,2[ra9n  
Duration                    : 1h 14mn cd@.zg'sYn  
Overall bit rate            : 4 998 Kbps ': F}3At  
Encoded date                : UTC 2016-07-10 01:02:40 QGnxQ{ko  
'md0]R|  
WT3gNNx|  
Video m@ xi0t  
ID                          : 1 g9h(sLSF  
Format                      : AVC XFZ~ #DT&  
Format/Info                 : Advanced Video Codec F 8yF  
Format profile              : High@L5.1 p QE)p  
Format settings, CABAC      : Yes   NY  
Format settings, ReFrames   : 3 frames _uxPx21g}  
Codec ID                    : V_MPEG4/ISO/AVC *6ZCDm&N  
Duration                    : 1h 14mn ,lN5,zI=S  
Bit rate                    : 4 933 Kbps Dma.r  
Width                       : 3 840 pixels A/*%J74v  
Height                      : 1 632 pixels ~fN%WZ;_  
Display aspect ratio        : 2.35:1 0Dv JZ|e  
Frame rate mode             : Constant P!g-X%ngo  
Frame rate                  : 25.000 fps mS=r(3#  
Color space                 : YUV [`fI:ao|  
Chroma subsampling          : 4:2:0 w:=V@-S 8  
Bit depth                   : 8 bits [W,|kDK  
Scan type                   : Progressive H -t|i  
Bits/(Pixel*Frame)          : 0.031 :>3=gex@^0  
Stream size                 : 2.58 GiB (99%) oY9FK{  
Writing library             : qiyi.com vtc-test ".2K9j7$  
Default                     : Yes *dE^-dm#  
Forced                      : No x!7yU_ls`  
Color range                 : Limited 7 _jE[10  
Color primaries             : BT.709 Y>6.t"?Q^  
Transfer characteristics    : BT.709 {ShgJ ;! Q  
Matrix coefficients         : BT.709 Un=a fX?j  
pK_?}~  
cgZaPw2 bw  
Audio 'Z!G a.I  
ID                          : 2 sa-9$},z4  
Format                      : AAC fv'4f$U  
Format/Info                 : Advanced Audio Codec L ubrn"128  
Format profile              : HE-AAC / LC NP t(MFK \  
Codec ID                    : A_AAC L4' [XcY  
Duration                    : 1h 14mn d "<F!?8  
Bit rate                    : 63.6 Kbps #a~"K|' G  
Channel(s)                  : 2 channels e- 6w8*!i  
Channel positions           : Front: L R n Y w\'c  
Sampling rate               : 44.1 KHz / 22.05 KHz )m#']c:rg  
Frame rate                  : 21.533 fps (1024 spf) MWwJzVL8  
Compression mode            : Lossy _ n O.-  
Stream size                 : 34.0 MiB (1%) s;.=5wcvi?  
Default                     : Yes R{}qK r  
Forced                      : No vgG}d8MW37  
4br6 $  
x7ATI[b[  
W'$kZ/%[  
本部分内容设定了隐藏,需要回复后才能看到