切换到宽版
  • 350阅读
  • 0回复

购物女王/天堂之吻(4K版).22nd.Catch.2016.2160p.4k.WEB-DL.x264.AAC-SeeHD [复制链接]

上一主题 下一主题
 

只看楼主 倒序阅读 使用道具 0 发表于: 2016-07-22
hV}C.- 6h  
◎译  名 购物女王/天堂之吻 ?h)T\z  
◎片  名 22nd Catch #`@5`;U>#  
◎年  代 2016 I(uM`g  
◎国  家  中国 _%KRZx}  
◎类  别  喜剧/爱情 95mwDHbA  
◎语  言  普通话 :"'*1S*  
◎字  幕  简体中文 *r)dtI*  
◎IMDb评分  N/A nQ@<[KNd  
◎IMDb链接  N/A c)Ne/E{!0  
◎文件格式  x264 + AAC L| ]fc9W:  
◎视频尺寸  3840 x 1632 ^B$cfs@*  
◎文件大小 2.61 GiB + zf`_1+)U  
◎片  长 1h 14mn qRL45[ K  
◎导  演 柳广辉  Guang Hui Liu h{: ]'/@~  
◎主  演 秦海璐  Hailu Qin !NMiWG4R  
                  范逸臣  Van Fan S5\KI+;PW  
                  翁家明  Jiaming Weng !b?cY{  
                  包小柏  Tino Bao 7c83g2|%   
                  徐洁儿  Jill Hsu 5[]Yxl  
   T0N6k acl  
   R-tZC9 @  
◎简   介 UAGh2?q2  
[Pl''[  
Ro=dgQ0:t  
  购物频道主持人陈美智(秦海璐 饰)在遭到未婚夫背叛后意外坠海,被自已的婚纱摄影师广清(范逸臣 饰)救起。随着坠海,似乎一切都陷入谷底,美智不仅无家可归,就连在购物台的工作也出现危机! N%9?8X[5  
u7  
  广清暂时收留美智了,但个性大相迳庭的两人摩擦不断,却渐渐在摩擦中产生了情愫。直到追求美智的土豪老板(翁家明 饰)出现。 h:i FLSf  
SPm2I(at7  
  在土豪老板和疑似真爱的广清中,她究竟会选择谁? qL5~Wr m-W  
T(Ji%S >  
Format                      : Matroska .yHi"ss3  
Format version              : Version 4 / Version 2 P 1  
File size                   : 2.61 GiB :i|Bz6Ht4  
Duration                    : 1h 14mn :3{n(~  
Overall bit rate            : 4 998 Kbps |uI~}pSG  
Encoded date                : UTC 2016-07-10 01:02:40 j / @<=  
iUs_)1  
.>S1do+  
Video 'K\H$<CJ  
ID                          : 1 G8'  
Format                      : AVC WJk3*$=  
Format/Info                 : Advanced Video Codec p)VMYu  
Format profile              : High@L5.1 =Y*@8=V  
Format settings, CABAC      : Yes /PbMt  
Format settings, ReFrames   : 3 frames ^^< C9  
Codec ID                    : V_MPEG4/ISO/AVC 6Hfv'X5E`Z  
Duration                    : 1h 14mn nJ$2RN  
Bit rate                    : 4 933 Kbps wc-v]$DW  
Width                       : 3 840 pixels 0O>M/ *W  
Height                      : 1 632 pixels %:j`%F;R  
Display aspect ratio        : 2.35:1 q>wO=qWx  
Frame rate mode             : Constant JJ'f\f9  
Frame rate                  : 25.000 fps |nm}E_  
Color space                 : YUV 'Ydr_Ses  
Chroma subsampling          : 4:2:0 gk;hpO  
Bit depth                   : 8 bits #XG3{MGX[  
Scan type                   : Progressive ]z#)XW3#i  
Bits/(Pixel*Frame)          : 0.031 %m [l/,2x  
Stream size                 : 2.58 GiB (99%) ln K  
Writing library             : qiyi.com vtc-test f=.!/e70  
Default                     : Yes ,*YmXR-"  
Forced                      : No Bsha)<  
Color range                 : Limited |Y?<58[!)  
Color primaries             : BT.709 k~3\0man  
Transfer characteristics    : BT.709 Z>3m-:-e  
Matrix coefficients         : BT.709 W*DK pJy  
PgA1:i&'  
&#KN"uPW  
Audio 2 |JEGyDS-  
ID                          : 2 f=VlO d  
Format                      : AAC 2.=u '  
Format/Info                 : Advanced Audio Codec (h@!_qi9:  
Format profile              : HE-AAC / LC X Q CE`m  
Codec ID                    : A_AAC @vXXf/  
Duration                    : 1h 14mn <&2<>*/.y  
Bit rate                    : 63.6 Kbps {`e-%<  
Channel(s)                  : 2 channels U OGjil{.  
Channel positions           : Front: L R }0Uh<v@  
Sampling rate               : 44.1 KHz / 22.05 KHz pzoh9}bue  
Frame rate                  : 21.533 fps (1024 spf) [\Nmm4  
Compression mode            : Lossy )?7/fF)@|  
Stream size                 : 34.0 MiB (1%) {MyI3mvA  
Default                     : Yes f6Lc"b3s1  
Forced                      : No 'o4`GkNh)  
RgJbM\`} ?  
uv8k ea .(  
9v ;HE{>  
本部分内容设定了隐藏,需要回复后才能看到