切换到宽版
  • 351阅读
  • 0回复

购物女王/天堂之吻(4K版).22nd.Catch.2016.2160p.4k.WEB-DL.x264.AAC-SeeHD [复制链接]

上一主题 下一主题
 

只看楼主 倒序阅读 使用道具 0 发表于: 2016-07-22
.DwiIr'  
◎译  名 购物女王/天堂之吻 y /8iEs  
◎片  名 22nd Catch lu>G=uCJ  
◎年  代 2016 8}[<3K%*g  
◎国  家  中国 zuMz6#aCC8  
◎类  别  喜剧/爱情 5R.jhYAj  
◎语  言  普通话 BHz_1+d  
◎字  幕  简体中文 & 9v8  
◎IMDb评分  N/A [Ti ' X#  
◎IMDb链接  N/A 1F0];{a  
◎文件格式  x264 + AAC 1A;,"8kBd  
◎视频尺寸  3840 x 1632 Xq"9TYf$  
◎文件大小 2.61 GiB -1d$ w`  
◎片  长 1h 14mn 0ZL>-  
◎导  演 柳广辉  Guang Hui Liu PCDvEbpG  
◎主  演 秦海璐  Hailu Qin &% (1?\~u  
                  范逸臣  Van Fan =<M>fJ )  
                  翁家明  Jiaming Weng [=-,i#4  
                  包小柏  Tino Bao 9*"K+t:  
                  徐洁儿  Jill Hsu | Cfo(]>G  
   V~.Sg bLc  
   C]zgVbu  
◎简   介 Cx) N;x  
~d3BVKP5  
F')E)tV  
  购物频道主持人陈美智(秦海璐 饰)在遭到未婚夫背叛后意外坠海,被自已的婚纱摄影师广清(范逸臣 饰)救起。随着坠海,似乎一切都陷入谷底,美智不仅无家可归,就连在购物台的工作也出现危机! H?ue!5R#L  
Jx&+e,OST  
  广清暂时收留美智了,但个性大相迳庭的两人摩擦不断,却渐渐在摩擦中产生了情愫。直到追求美智的土豪老板(翁家明 饰)出现。 *D7oHwDU  
 >qI:  
  在土豪老板和疑似真爱的广清中,她究竟会选择谁? OWN|W,  
Df1eHa5-7  
Format                      : Matroska el^<M,7!  
Format version              : Version 4 / Version 2 ,b+Hy`t  
File size                   : 2.61 GiB .L]2g$W\p  
Duration                    : 1h 14mn a}Jy o!.  
Overall bit rate            : 4 998 Kbps #)6 bfyi-  
Encoded date                : UTC 2016-07-10 01:02:40 F<6{$YI  
i079 V  
hn/SS  
Video Ga *  
ID                          : 1 =gB{(  
Format                      : AVC 1[dQVJqMp(  
Format/Info                 : Advanced Video Codec J= DD/Gp  
Format profile              : High@L5.1 69C ss'  
Format settings, CABAC      : Yes NQvT4.*  
Format settings, ReFrames   : 3 frames lU3Xd_v O  
Codec ID                    : V_MPEG4/ISO/AVC |VoYFoiQ  
Duration                    : 1h 14mn 3dI(gm6  
Bit rate                    : 4 933 Kbps <gr2k8m6$  
Width                       : 3 840 pixels 'nqVcN gb  
Height                      : 1 632 pixels 7o M] qLF  
Display aspect ratio        : 2.35:1 O[')[uo8s  
Frame rate mode             : Constant >5]w\^QN9_  
Frame rate                  : 25.000 fps x6*.zo5e  
Color space                 : YUV QnDLSMx)  
Chroma subsampling          : 4:2:0 qS2]|7q?Tc  
Bit depth                   : 8 bits : ]JsUb{YK  
Scan type                   : Progressive e?b<-rL   
Bits/(Pixel*Frame)          : 0.031 D61e  
Stream size                 : 2.58 GiB (99%) D D Crvl  
Writing library             : qiyi.com vtc-test Bc y$" F|r  
Default                     : Yes _N`pwxpsb  
Forced                      : No Y3wL EG%,:  
Color range                 : Limited gbRdng7(}  
Color primaries             : BT.709 A&fh0E (t  
Transfer characteristics    : BT.709 6< A3H$3b  
Matrix coefficients         : BT.709 84dej<   
U_,K_6vj  
:`P;(h  
Audio /L"&'~  
ID                          : 2 l+V5dZ8W  
Format                      : AAC >(HUW^T/9z  
Format/Info                 : Advanced Audio Codec #8d$%F))  
Format profile              : HE-AAC / LC oYN# T=Xi  
Codec ID                    : A_AAC "]`QQT-{0  
Duration                    : 1h 14mn 9?W38EF  
Bit rate                    : 63.6 Kbps yMa5?]J  
Channel(s)                  : 2 channels " ,rA  
Channel positions           : Front: L R Q$9`QY*6"p  
Sampling rate               : 44.1 KHz / 22.05 KHz {:enoV"  
Frame rate                  : 21.533 fps (1024 spf) c~|/,FZU'  
Compression mode            : Lossy \ca4X{x  
Stream size                 : 34.0 MiB (1%) Z y7@"C  
Default                     : Yes ( |5g`JDG  
Forced                      : No ^j=_=Km]  
1^Zx-p3J  
j`'=K_+nU  
t7A.b~#  
本部分内容设定了隐藏,需要回复后才能看到