切换到宽版
  • 682阅读
  • 0回复

购物女王/天堂之吻(4K版).22nd.Catch.2016.2160p.4k.WEB-DL.x264.AAC-SeeHD [复制链接]

上一主题 下一主题
 

只看楼主 倒序阅读 使用道具 0 发表于: 2016-07-22
h(H b+7g  
◎译  名 购物女王/天堂之吻 9a;8^?Ld%S  
◎片  名 22nd Catch ~sUWXw7~  
◎年  代 2016 l<YCX[%E  
◎国  家  中国 [[8.Xb  
◎类  别  喜剧/爱情 _rjLCvv-  
◎语  言  普通话 `UH 1B/  
◎字  幕  简体中文 g1zX^^nd,V  
◎IMDb评分  N/A Eh*t;J=O  
◎IMDb链接  N/A iz pFl@WS  
◎文件格式  x264 + AAC 08JVX'X-mr  
◎视频尺寸  3840 x 1632 g7),si*  
◎文件大小 2.61 GiB \QKr2|  
◎片  长 1h 14mn x.-d>8-!]c  
◎导  演 柳广辉  Guang Hui Liu Y\1XKAfB  
◎主  演 秦海璐  Hailu Qin ?B`Yq\L)  
                  范逸臣  Van Fan XOi[[G}  
                  翁家明  Jiaming Weng a{%]X(';  
                  包小柏  Tino Bao r GxX]  
                  徐洁儿  Jill Hsu b/ dyH  
   ;UB$Uqs6  
   ?=X_a{}/  
◎简   介 6a\YD{D] _  
%/(>>*}Kw|  
,) JSX o  
  购物频道主持人陈美智(秦海璐 饰)在遭到未婚夫背叛后意外坠海,被自已的婚纱摄影师广清(范逸臣 饰)救起。随着坠海,似乎一切都陷入谷底,美智不仅无家可归,就连在购物台的工作也出现危机! q|fZdTw  
WJN}d-S=^  
  广清暂时收留美智了,但个性大相迳庭的两人摩擦不断,却渐渐在摩擦中产生了情愫。直到追求美智的土豪老板(翁家明 饰)出现。 999E0A$dkv  
/n|`a1!  
  在土豪老板和疑似真爱的广清中,她究竟会选择谁? A"8"e*  
"TgE@bC  
Format                      : Matroska E?+MM0  
Format version              : Version 4 / Version 2 j/9Uf|z-_  
File size                   : 2.61 GiB :*wjC.Z  
Duration                    : 1h 14mn z}[qk:  
Overall bit rate            : 4 998 Kbps YN@ 4.&RP  
Encoded date                : UTC 2016-07-10 01:02:40 _^)<d$R<  
td6$w:SN,l  
T)NnWEB  
Video C*I~14  
ID                          : 1 #=hI}%n  
Format                      : AVC `/z6 Q"  
Format/Info                 : Advanced Video Codec 7>`VZ?  
Format profile              : High@L5.1 @Ja8~5:  
Format settings, CABAC      : Yes ~yvOR`2Gg  
Format settings, ReFrames   : 3 frames %4Thb\T  
Codec ID                    : V_MPEG4/ISO/AVC < <v E.  
Duration                    : 1h 14mn VYZkHjj)2i  
Bit rate                    : 4 933 Kbps oT\u^WU  
Width                       : 3 840 pixels KiJRq>  
Height                      : 1 632 pixels 1E*No1  
Display aspect ratio        : 2.35:1 oe:@7st G  
Frame rate mode             : Constant $rh{f<  
Frame rate                  : 25.000 fps -&ic%0|f  
Color space                 : YUV z$>_c "D  
Chroma subsampling          : 4:2:0 i: ZL0nH-  
Bit depth                   : 8 bits lc71Pp>  
Scan type                   : Progressive TFWx(}1  
Bits/(Pixel*Frame)          : 0.031 y2U^7VrO  
Stream size                 : 2.58 GiB (99%) |GvWHe`  
Writing library             : qiyi.com vtc-test s=+,F<;x.U  
Default                     : Yes Eo$7W5h J  
Forced                      : No bJo)rM :m  
Color range                 : Limited ZgcJxWC<  
Color primaries             : BT.709 Qv%"iSe~J  
Transfer characteristics    : BT.709 ]S6`",+)<f  
Matrix coefficients         : BT.709 AAr[xo iYp  
5;5DEMe  
}T?0/N3y&  
Audio Z. ))=w6G  
ID                          : 2 3+_ .I{  
Format                      : AAC "Z&-:1tP{9  
Format/Info                 : Advanced Audio Codec #-_';Er\  
Format profile              : HE-AAC / LC )Qe4J0.  
Codec ID                    : A_AAC g{zvks~it  
Duration                    : 1h 14mn zoV4Gl  
Bit rate                    : 63.6 Kbps ^ 2"r't  
Channel(s)                  : 2 channels Zxm Mw  
Channel positions           : Front: L R p9;Oe,Il  
Sampling rate               : 44.1 KHz / 22.05 KHz eC^UL5>%  
Frame rate                  : 21.533 fps (1024 spf) @O/Jy2>3H  
Compression mode            : Lossy $r`^8/Mq3  
Stream size                 : 34.0 MiB (1%) 6q[|U_3I@  
Default                     : Yes (5s$vcK  
Forced                      : No +!'\}"q  
&@O]'  
S <C'#vj  
%T hY6y(  
本部分内容设定了隐藏,需要回复后才能看到