切换到宽版
  • 574阅读
  • 0回复

购物女王/天堂之吻(4K版).22nd.Catch.2016.2160p.4k.WEB-DL.x264.AAC-SeeHD [复制链接]

上一主题 下一主题
 

只看楼主 倒序阅读 使用道具 0 发表于: 2016-07-22
G%'h'AV"  
◎译  名 购物女王/天堂之吻 0imz }Z]  
◎片  名 22nd Catch PT\5P&2o@  
◎年  代 2016 ?$r+#'asd(  
◎国  家  中国 dIM:U :c  
◎类  别  喜剧/爱情 m=y6E, _  
◎语  言  普通话 egP3q5~  
◎字  幕  简体中文 n,V`Y'v)  
◎IMDb评分  N/A R` X$@iM  
◎IMDb链接  N/A av`b8cGg  
◎文件格式  x264 + AAC 8mCr6$|%  
◎视频尺寸  3840 x 1632 <v5toyA  
◎文件大小 2.61 GiB  I s8|  
◎片  长 1h 14mn e3(0L I  
◎导  演 柳广辉  Guang Hui Liu y`(z_5ClT  
◎主  演 秦海璐  Hailu Qin lg!1q8  
                  范逸臣  Van Fan KJ(zLwQ:  
                  翁家明  Jiaming Weng K-vso4@BJ  
                  包小柏  Tino Bao -u 8 @ .  
                  徐洁儿  Jill Hsu A Y! zXJ_$  
   w#JF7;  
   2\s-4H| q  
◎简   介 9&2kuLp?P  
Gg-<3z  
Nwu#,f=X  
  购物频道主持人陈美智(秦海璐 饰)在遭到未婚夫背叛后意外坠海,被自已的婚纱摄影师广清(范逸臣 饰)救起。随着坠海,似乎一切都陷入谷底,美智不仅无家可归,就连在购物台的工作也出现危机! +<3tv&"  
4Y-9W2s  
  广清暂时收留美智了,但个性大相迳庭的两人摩擦不断,却渐渐在摩擦中产生了情愫。直到追求美智的土豪老板(翁家明 饰)出现。 9k83wACry  
 OSSMIPr  
  在土豪老板和疑似真爱的广清中,她究竟会选择谁? x80~j(uVf  
FPcgQ v;p  
Format                      : Matroska KDn`XCnk,  
Format version              : Version 4 / Version 2 (tVY /(~#  
File size                   : 2.61 GiB <-lz_  
Duration                    : 1h 14mn <BO|. (ys  
Overall bit rate            : 4 998 Kbps xt3IR0  
Encoded date                : UTC 2016-07-10 01:02:40 xJO[pT v  
*nH?o* #  
_xmM~q[c7p  
Video }4bwLO  
ID                          : 1 y"){?  
Format                      : AVC w5&UG/z%l  
Format/Info                 : Advanced Video Codec k @wT,?kD  
Format profile              : High@L5.1 . t~I[J\<  
Format settings, CABAC      : Yes  c<4pu  
Format settings, ReFrames   : 3 frames rc;| ,\  
Codec ID                    : V_MPEG4/ISO/AVC ;>CmVC'/  
Duration                    : 1h 14mn /}M@MbGMM  
Bit rate                    : 4 933 Kbps yV`!Fq 1k  
Width                       : 3 840 pixels !\!fd(BN  
Height                      : 1 632 pixels IWMqmCbv  
Display aspect ratio        : 2.35:1 8, WQ}cC  
Frame rate mode             : Constant Z NuyGo;  
Frame rate                  : 25.000 fps ?j $z[_K  
Color space                 : YUV ^ qE4:|e  
Chroma subsampling          : 4:2:0 Mr`u!T&sc  
Bit depth                   : 8 bits Q)Ppx7)  
Scan type                   : Progressive MKQa&Dvw  
Bits/(Pixel*Frame)          : 0.031 \!631FcQ   
Stream size                 : 2.58 GiB (99%) 35c9c(A  
Writing library             : qiyi.com vtc-test ;Y)?6^"  
Default                     : Yes kmP0gT{Sj  
Forced                      : No >j$f$*x  
Color range                 : Limited YjsaTdZ!&  
Color primaries             : BT.709 !E$S&zVMQ  
Transfer characteristics    : BT.709 T!/$ @]%\7  
Matrix coefficients         : BT.709 H,\c"  
@NV$!FB<  
Z0-W%W  
Audio W Q6E8t)  
ID                          : 2 8LkC/  
Format                      : AAC m_St"`6 .  
Format/Info                 : Advanced Audio Codec (6.0gB$aTu  
Format profile              : HE-AAC / LC E8?Q>%_  
Codec ID                    : A_AAC H:0-.a^ZS  
Duration                    : 1h 14mn 43 |zjE  
Bit rate                    : 63.6 Kbps Ujw ^j  
Channel(s)                  : 2 channels ch< zpo:  
Channel positions           : Front: L R VS 8|lgQ  
Sampling rate               : 44.1 KHz / 22.05 KHz yqB{QFXO  
Frame rate                  : 21.533 fps (1024 spf) W_kJb  
Compression mode            : Lossy ;rk}\M$+  
Stream size                 : 34.0 MiB (1%) M,mj{OY~x  
Default                     : Yes Y`c\{&M6  
Forced                      : No 3 :f5xF  
v[HxO?x^  
s7&% _!4  
<Oy%  
本部分内容设定了隐藏,需要回复后才能看到