切换到宽版
  • 470阅读
  • 0回复

购物女王/天堂之吻(4K版).22nd.Catch.2016.2160p.4k.WEB-DL.x264.AAC-SeeHD [复制链接]

上一主题 下一主题
 

只看楼主 倒序阅读 使用道具 0 发表于: 2016-07-22
e-&0f);i  
◎译  名 购物女王/天堂之吻 P3e}G-Oz  
◎片  名 22nd Catch %[l#S*)~  
◎年  代 2016 !3*:6  
◎国  家  中国 ta  
◎类  别  喜剧/爱情 .&Ik(792Z&  
◎语  言  普通话 f.e4 C,  
◎字  幕  简体中文 6+.8nx:9X  
◎IMDb评分  N/A m[w 8|[  
◎IMDb链接  N/A _N1UL?  
◎文件格式  x264 + AAC  ?S2!'L  
◎视频尺寸  3840 x 1632 mo*ClU7  
◎文件大小 2.61 GiB -. J@  
◎片  长 1h 14mn kN8?.V%Utw  
◎导  演 柳广辉  Guang Hui Liu 7 nl  
◎主  演 秦海璐  Hailu Qin )BX-Y@fpA  
                  范逸臣  Van Fan JQO%-=t  
                  翁家明  Jiaming Weng 2E/yZ ~2s  
                  包小柏  Tino Bao S!{Kn ;@  
                  徐洁儿  Jill Hsu _VFL}<i  
   !<AY0fpY  
   PTf.(B"z  
◎简   介 se^(1R k  
L\/YS;Y  
C+<z ;9`  
  购物频道主持人陈美智(秦海璐 饰)在遭到未婚夫背叛后意外坠海,被自已的婚纱摄影师广清(范逸臣 饰)救起。随着坠海,似乎一切都陷入谷底,美智不仅无家可归,就连在购物台的工作也出现危机! qcdENIy0b  
?[~)D}] j  
  广清暂时收留美智了,但个性大相迳庭的两人摩擦不断,却渐渐在摩擦中产生了情愫。直到追求美智的土豪老板(翁家明 饰)出现。 WC ZDS>  
B'` jdyaE9  
  在土豪老板和疑似真爱的广清中,她究竟会选择谁? ?&>H^}gDZ  
o7#Mr`6H  
Format                      : Matroska 8QaF(?  
Format version              : Version 4 / Version 2 #{L !o5  
File size                   : 2.61 GiB u, Rhm-`  
Duration                    : 1h 14mn YkqauyV^  
Overall bit rate            : 4 998 Kbps GP,xGZZ  
Encoded date                : UTC 2016-07-10 01:02:40 q=|0lZ$`V_  
sxBRg=  
h1uD>heGl  
Video TR([u  
ID                          : 1 !s:v UY58  
Format                      : AVC g :Z, ab4  
Format/Info                 : Advanced Video Codec 9X2 lH~C  
Format profile              : High@L5.1 [ queXDn"m  
Format settings, CABAC      : Yes T2$V5RyX  
Format settings, ReFrames   : 3 frames /Dn  
Codec ID                    : V_MPEG4/ISO/AVC l .wf= /  
Duration                    : 1h 14mn l8_TeO  
Bit rate                    : 4 933 Kbps M+N7JpR  
Width                       : 3 840 pixels LpJ_HU7@lk  
Height                      : 1 632 pixels  ,B<Tt|'  
Display aspect ratio        : 2.35:1 .+"SDt oX  
Frame rate mode             : Constant /rqaUC)A  
Frame rate                  : 25.000 fps D|Tv`47ntu  
Color space                 : YUV `Y`QxU!d%  
Chroma subsampling          : 4:2:0 #(`@D7S"  
Bit depth                   : 8 bits 3C8W]yw/s  
Scan type                   : Progressive 1jhGshhp  
Bits/(Pixel*Frame)          : 0.031 |F'k5Lh  
Stream size                 : 2.58 GiB (99%) pSq3\#Twr  
Writing library             : qiyi.com vtc-test Kb#}f/  
Default                     : Yes M!s@w%0?'  
Forced                      : No uW,L<;HnQ  
Color range                 : Limited "16-K%}  
Color primaries             : BT.709 ?=]*r>a3  
Transfer characteristics    : BT.709  uT}Jw  
Matrix coefficients         : BT.709 3-Q*umh  
?6bk&"T?  
cJ%u&2J_  
Audio SRN:!-  
ID                          : 2 hr<E%J1k%  
Format                      : AAC s'V8PN+-  
Format/Info                 : Advanced Audio Codec vYD>m~Qc^  
Format profile              : HE-AAC / LC I [J0r  
Codec ID                    : A_AAC TXi$Q%0W  
Duration                    : 1h 14mn fNi&1J-/  
Bit rate                    : 63.6 Kbps ><X!~by  
Channel(s)                  : 2 channels dm Lgt)-t  
Channel positions           : Front: L R eo4<RDe<  
Sampling rate               : 44.1 KHz / 22.05 KHz sX3Vr&r  
Frame rate                  : 21.533 fps (1024 spf) >?,arER  
Compression mode            : Lossy 4 []R?lL  
Stream size                 : 34.0 MiB (1%) YZCPS6PuE  
Default                     : Yes qVFz-!6b  
Forced                      : No yKO84cSl  
RGGP6SDc  
kRgyvA,*;  
g  S;p::  
本部分内容设定了隐藏,需要回复后才能看到