切换到宽版
  • 545阅读
  • 0回复

购物女王/天堂之吻(4K版).22nd.Catch.2016.2160p.4k.WEB-DL.x264.AAC-SeeHD [复制链接]

上一主题 下一主题
 

只看楼主 倒序阅读 使用道具 0 发表于: 2016-07-22
)k.[Ve  
◎译  名 购物女王/天堂之吻 Ua^'KRSO  
◎片  名 22nd Catch ;^Vsd\ac0  
◎年  代 2016 pN)9 GO5  
◎国  家  中国 i '5Q.uX  
◎类  别  喜剧/爱情 K.Tfu"6  
◎语  言  普通话 /.<T^p@\&  
◎字  幕  简体中文 [=Y@Ul  
◎IMDb评分  N/A (I d]'w4  
◎IMDb链接  N/A n# %mL<  
◎文件格式  x264 + AAC h7NS9CgO  
◎视频尺寸  3840 x 1632 gc 14 %  
◎文件大小 2.61 GiB Zu\(XN?62  
◎片  长 1h 14mn x?:[:Hf   
◎导  演 柳广辉  Guang Hui Liu M ]dS>W%U  
◎主  演 秦海璐  Hailu Qin G SXe=?  
                  范逸臣  Van Fan )v-sde\  
                  翁家明  Jiaming Weng ;^}gC}tq  
                  包小柏  Tino Bao ; /fZh:V2  
                  徐洁儿  Jill Hsu ~Cx07I_lf  
   L\Uf+d:&}G  
   bu[v[U4  
◎简   介 U5]{`C0H?  
#YM5P  
ErK5iTSD  
  购物频道主持人陈美智(秦海璐 饰)在遭到未婚夫背叛后意外坠海,被自已的婚纱摄影师广清(范逸臣 饰)救起。随着坠海,似乎一切都陷入谷底,美智不仅无家可归,就连在购物台的工作也出现危机! .v36xXK(  
hBf0kl  
  广清暂时收留美智了,但个性大相迳庭的两人摩擦不断,却渐渐在摩擦中产生了情愫。直到追求美智的土豪老板(翁家明 饰)出现。 kzqW&`xn?  
^[no Gjy  
  在土豪老板和疑似真爱的广清中,她究竟会选择谁? c(. 2D  
 `Nn=6[]  
Format                      : Matroska a$p?r3y  
Format version              : Version 4 / Version 2 #Jv|zf5Z  
File size                   : 2.61 GiB t<M^/xe2  
Duration                    : 1h 14mn .7Zb,r  
Overall bit rate            : 4 998 Kbps WG8}}`F|  
Encoded date                : UTC 2016-07-10 01:02:40 P#(BdKjM  
V?Y;.n&y  
pe>R2<!$  
Video =7@N'xX  
ID                          : 1 cXiNO ke&  
Format                      : AVC )-q#hY  
Format/Info                 : Advanced Video Codec l2"{uCcA  
Format profile              : High@L5.1 luYkC@I@a  
Format settings, CABAC      : Yes HV-c DL  
Format settings, ReFrames   : 3 frames ?!=yp#  
Codec ID                    : V_MPEG4/ISO/AVC ES[H^}|Gi  
Duration                    : 1h 14mn +G';no\h  
Bit rate                    : 4 933 Kbps 1'or[Os3=  
Width                       : 3 840 pixels G. Z:00x  
Height                      : 1 632 pixels XdX1GH*C  
Display aspect ratio        : 2.35:1 h I.@!$~=  
Frame rate mode             : Constant xT7JGQ[|  
Frame rate                  : 25.000 fps  n4;  
Color space                 : YUV r>4HF"Nm  
Chroma subsampling          : 4:2:0 hh/C{ l  
Bit depth                   : 8 bits 'NyIy:  
Scan type                   : Progressive kR2kV"-l  
Bits/(Pixel*Frame)          : 0.031 jC3ta  
Stream size                 : 2.58 GiB (99%) ol QT r  
Writing library             : qiyi.com vtc-test oc+TsVt  
Default                     : Yes 22aS <@}  
Forced                      : No ru#,pJ=O(  
Color range                 : Limited #9-qF9M  
Color primaries             : BT.709 |[apLQ6  
Transfer characteristics    : BT.709 Z<L|WRe  
Matrix coefficients         : BT.709 s8L=:hiSf)  
a*?bnw?  
] TY$  
Audio 28,Hd!{  
ID                          : 2 `@%hz%8Y  
Format                      : AAC 84g$ V}mp  
Format/Info                 : Advanced Audio Codec a6\0XVU  
Format profile              : HE-AAC / LC |>_e& }Y%L  
Codec ID                    : A_AAC @r7ekyO8)  
Duration                    : 1h 14mn i\~@2  
Bit rate                    : 63.6 Kbps |q0F*\z3  
Channel(s)                  : 2 channels :;Z?2P5i  
Channel positions           : Front: L R 9e5XS\  
Sampling rate               : 44.1 KHz / 22.05 KHz \ZN>7?Vs  
Frame rate                  : 21.533 fps (1024 spf) !1G6ZC:z  
Compression mode            : Lossy r<< ]41  
Stream size                 : 34.0 MiB (1%) =PU! hZj"L  
Default                     : Yes @">^2  
Forced                      : No Y:f"Zx  
9)P-<  
"[A]tklP  
90g=&O5@O  
本部分内容设定了隐藏,需要回复后才能看到