切换到宽版
  • 406阅读
  • 0回复

购物女王/天堂之吻(4K版).22nd.Catch.2016.2160p.4k.WEB-DL.x264.AAC-SeeHD [复制链接]

上一主题 下一主题
 

只看楼主 倒序阅读 使用道具 0 发表于: 2016-07-22
Z-rHYfa4  
◎译  名 购物女王/天堂之吻 ~)IiF.I b  
◎片  名 22nd Catch Zp <^|=D  
◎年  代 2016 !t!\b9=  
◎国  家  中国 oVja$;>  
◎类  别  喜剧/爱情 $ {5|{`  
◎语  言  普通话 QK@[ b3-h1  
◎字  幕  简体中文 KkD&|&!Q7u  
◎IMDb评分  N/A TjLW<D(i>  
◎IMDb链接  N/A o=y0=,:a?9  
◎文件格式  x264 + AAC (bo-JOOdY(  
◎视频尺寸  3840 x 1632 xdkC>o4>  
◎文件大小 2.61 GiB xmBGZ4f%  
◎片  长 1h 14mn _0EKE  
◎导  演 柳广辉  Guang Hui Liu #jd&f, Tt  
◎主  演 秦海璐  Hailu Qin {bD:OF  
                  范逸臣  Van Fan r`5svY  
                  翁家明  Jiaming Weng Z[?zaQ$  
                  包小柏  Tino Bao (~OP)F).  
                  徐洁儿  Jill Hsu =&"x6F.`  
   $ v0beN6MG  
   "z9 p(|oZ  
◎简   介 $s"{C"4q  
?3Y~q;I]O  
;?.w!|6  
  购物频道主持人陈美智(秦海璐 饰)在遭到未婚夫背叛后意外坠海,被自已的婚纱摄影师广清(范逸臣 饰)救起。随着坠海,似乎一切都陷入谷底,美智不仅无家可归,就连在购物台的工作也出现危机! =]m,7v Rq  
()o[(Hx+ph  
  广清暂时收留美智了,但个性大相迳庭的两人摩擦不断,却渐渐在摩擦中产生了情愫。直到追求美智的土豪老板(翁家明 饰)出现。 AtYqD<hl:  
}C!g x6  
  在土豪老板和疑似真爱的广清中,她究竟会选择谁? @M&qH[tK-A  
`Y_G*b.Rm  
Format                      : Matroska 8"yZS)09  
Format version              : Version 4 / Version 2 br%l>Y\"  
File size                   : 2.61 GiB gnN"6r1  
Duration                    : 1h 14mn }BI|M_q.1~  
Overall bit rate            : 4 998 Kbps o8h` 9_  
Encoded date                : UTC 2016-07-10 01:02:40 14z ?X%  
0,5)L\{ R  
M2pFXU?]  
Video TXo`P_SE  
ID                          : 1 \[&&4CN{  
Format                      : AVC %0 0cC~}4  
Format/Info                 : Advanced Video Codec zvK'j"Wq=  
Format profile              : High@L5.1 $8WWN} OC  
Format settings, CABAC      : Yes eI,H  
Format settings, ReFrames   : 3 frames (\UpJlW  
Codec ID                    : V_MPEG4/ISO/AVC +t%1FkI\  
Duration                    : 1h 14mn (7Ln~J*  
Bit rate                    : 4 933 Kbps FxmHy{JG  
Width                       : 3 840 pixels =SD^Jl{H  
Height                      : 1 632 pixels L%jIU<?Z7  
Display aspect ratio        : 2.35:1  JKV&c= I  
Frame rate mode             : Constant Q^bYx (r5w  
Frame rate                  : 25.000 fps XAZPbvG|$  
Color space                 : YUV [}!0PN?z~A  
Chroma subsampling          : 4:2:0 +Fb+dU  
Bit depth                   : 8 bits 8([ MR  
Scan type                   : Progressive :b] \*  
Bits/(Pixel*Frame)          : 0.031 V*DDU]0k  
Stream size                 : 2.58 GiB (99%) C\4d.~C:w3  
Writing library             : qiyi.com vtc-test WLA&K]  
Default                     : Yes ^a<kp69qS  
Forced                      : No 8@Bm2?$}g  
Color range                 : Limited rp+]f\] h  
Color primaries             : BT.709 XFYa+]B2q  
Transfer characteristics    : BT.709 IXG@$O?y/  
Matrix coefficients         : BT.709 W,"Re,`H  
CF 3V)3}  
C`R<55x6  
Audio \E[6wB>uN%  
ID                          : 2 ik #Wlz`4  
Format                      : AAC cUr!U\X[  
Format/Info                 : Advanced Audio Codec KK6fRtKv>q  
Format profile              : HE-AAC / LC BeN]D  
Codec ID                    : A_AAC 8t. QFze?  
Duration                    : 1h 14mn ALV(fv$cD  
Bit rate                    : 63.6 Kbps ?O3d Sxi  
Channel(s)                  : 2 channels @%G?Nht]o  
Channel positions           : Front: L R C fM[<w   
Sampling rate               : 44.1 KHz / 22.05 KHz wZN_YFwQ  
Frame rate                  : 21.533 fps (1024 spf) $8xb|S[  
Compression mode            : Lossy 7BL)FJ]UR]  
Stream size                 : 34.0 MiB (1%) T2/:C7zL  
Default                     : Yes r @m]#4  
Forced                      : No ,wM4X'] HR  
%1:caa@_p  
7F6 B  
[8^q3o7n  
本部分内容设定了隐藏,需要回复后才能看到