切换到宽版
  • 505阅读
  • 0回复

购物女王/天堂之吻(4K版).22nd.Catch.2016.2160p.4k.WEB-DL.x264.AAC-SeeHD [复制链接]

上一主题 下一主题
 

只看楼主 倒序阅读 使用道具 0 发表于: 2016-07-22
|$:y8H'J  
◎译  名 购物女王/天堂之吻 x9!3i{_  
◎片  名 22nd Catch j0wpaIp  
◎年  代 2016 :HiAjaA1pg  
◎国  家  中国 14DHU  
◎类  别  喜剧/爱情 x$L(!ZDh  
◎语  言  普通话 jL6ZHEi#d7  
◎字  幕  简体中文 nDU=B.?E{O  
◎IMDb评分  N/A Ip_deP@  
◎IMDb链接  N/A WeiDg,]e$b  
◎文件格式  x264 + AAC BN>t"9XpW  
◎视频尺寸  3840 x 1632 `k;MGs)&  
◎文件大小 2.61 GiB ud grZ/w]  
◎片  长 1h 14mn P]^ BE;7T  
◎导  演 柳广辉  Guang Hui Liu x>!bvZ2  
◎主  演 秦海璐  Hailu Qin S.,5vI"s,  
                  范逸臣  Van Fan *,FU*zi  
                  翁家明  Jiaming Weng ` EdZ  
                  包小柏  Tino Bao 4 \Ig<C9  
                  徐洁儿  Jill Hsu <zWMTVaC  
   T0e- X  
   ZBuh(be  
◎简   介 e 2_p7   
]8+ D  
nh'TyUd!  
  购物频道主持人陈美智(秦海璐 饰)在遭到未婚夫背叛后意外坠海,被自已的婚纱摄影师广清(范逸臣 饰)救起。随着坠海,似乎一切都陷入谷底,美智不仅无家可归,就连在购物台的工作也出现危机! :B7dxE9[r  
uc>]-4  
  广清暂时收留美智了,但个性大相迳庭的两人摩擦不断,却渐渐在摩擦中产生了情愫。直到追求美智的土豪老板(翁家明 饰)出现。 HT%'dZ1  
BqtUL_jm  
  在土豪老板和疑似真爱的广清中,她究竟会选择谁? 'ju'O#A9  
7R7e3p,K  
Format                      : Matroska "&%Lhyt  
Format version              : Version 4 / Version 2 8G )O,F7z  
File size                   : 2.61 GiB 1smKU9B2)  
Duration                    : 1h 14mn ua!43Bp  
Overall bit rate            : 4 998 Kbps O|AY2QH\  
Encoded date                : UTC 2016-07-10 01:02:40 f\vMdY  
8pXqgIbmb  
2DNB?,uP,'  
Video @%"r69\  
ID                          : 1 ;DgQ8"f  
Format                      : AVC z'&tmje[?  
Format/Info                 : Advanced Video Codec uGpLh0  
Format profile              : High@L5.1 -2B3 xIZJ  
Format settings, CABAC      : Yes 'Px}#f0IR  
Format settings, ReFrames   : 3 frames ^AF~k#R  
Codec ID                    : V_MPEG4/ISO/AVC 7 MS-Gs|  
Duration                    : 1h 14mn B:96E&  
Bit rate                    : 4 933 Kbps Aa+<4 R  
Width                       : 3 840 pixels WX* uhR  
Height                      : 1 632 pixels )kEH}P&  
Display aspect ratio        : 2.35:1 T STkMlCG  
Frame rate mode             : Constant a0&L,7mu<'  
Frame rate                  : 25.000 fps K=1prv2  
Color space                 : YUV \0n<6^y  
Chroma subsampling          : 4:2:0 w0X})&,{`m  
Bit depth                   : 8 bits gsY Q"/S9  
Scan type                   : Progressive f^)iv ]p  
Bits/(Pixel*Frame)          : 0.031 Dkg^B@5Xr  
Stream size                 : 2.58 GiB (99%) 9aBz%* xo  
Writing library             : qiyi.com vtc-test 8ZCR9%  
Default                     : Yes O7oq1JI]Y  
Forced                      : No .@0@Y  
Color range                 : Limited Vn65:" O  
Color primaries             : BT.709 }wZsM[NDB  
Transfer characteristics    : BT.709 ojyP.R  
Matrix coefficients         : BT.709 \M;cF "e-S  
[!#}#  
t?H sfN  
Audio OF0v0Y/a  
ID                          : 2 |AXV4{j_i  
Format                      : AAC rZ&li/Z  
Format/Info                 : Advanced Audio Codec V 4&a+MJ@  
Format profile              : HE-AAC / LC t&i4kS^y  
Codec ID                    : A_AAC $Wu|4]o>9  
Duration                    : 1h 14mn }`aT=_B  
Bit rate                    : 63.6 Kbps m@']%X*(,  
Channel(s)                  : 2 channels }USOWsLSt  
Channel positions           : Front: L R #qARcxbK|  
Sampling rate               : 44.1 KHz / 22.05 KHz TR%8O;  
Frame rate                  : 21.533 fps (1024 spf) a'g&1N0Rc  
Compression mode            : Lossy :`>tCYy;  
Stream size                 : 34.0 MiB (1%) \Xe{vlo>h  
Default                     : Yes O^q~dda  
Forced                      : No ?zf 3AZ9  
/A+5q\8G  
3a&HW JBSx  
FOteN QTj  
本部分内容设定了隐藏,需要回复后才能看到