切换到宽版
  • 614阅读
  • 0回复

购物女王/天堂之吻(4K版).22nd.Catch.2016.2160p.4k.WEB-DL.x264.AAC-SeeHD [复制链接]

上一主题 下一主题
 

只看楼主 倒序阅读 使用道具 0 发表于: 2016-07-22
.e5d#gE0  
◎译  名 购物女王/天堂之吻 HbRv U}C1  
◎片  名 22nd Catch Z2t\4|wr:  
◎年  代 2016 9a]{|M9  
◎国  家  中国 *M)M!jTv  
◎类  别  喜剧/爱情 u M\5GK  
◎语  言  普通话 /xSFW7d1  
◎字  幕  简体中文  &1Cs'  
◎IMDb评分  N/A 84!Hd.H  
◎IMDb链接  N/A n@L@pgo%~  
◎文件格式  x264 + AAC %Z p|1J'"  
◎视频尺寸  3840 x 1632 B Dp")[l  
◎文件大小 2.61 GiB _, E/HAX  
◎片  长 1h 14mn K9-9 c"cz  
◎导  演 柳广辉  Guang Hui Liu p|(SR~;6  
◎主  演 秦海璐  Hailu Qin v;`>pCal  
                  范逸臣  Van Fan ah%Ws#&  
                  翁家明  Jiaming Weng $ x:N/mMu`  
                  包小柏  Tino Bao wTD}c1J(  
                  徐洁儿  Jill Hsu 1_b*j-j  
   Mg2e0}{  
    \_  
◎简   介 | dz"uIrT  
8ok=&Gq4  
zO---}[9a  
  购物频道主持人陈美智(秦海璐 饰)在遭到未婚夫背叛后意外坠海,被自已的婚纱摄影师广清(范逸臣 饰)救起。随着坠海,似乎一切都陷入谷底,美智不仅无家可归,就连在购物台的工作也出现危机! Z+u.LXc|c  
m8;w7S7,j~  
  广清暂时收留美智了,但个性大相迳庭的两人摩擦不断,却渐渐在摩擦中产生了情愫。直到追求美智的土豪老板(翁家明 饰)出现。 LP=y$B  
L$ i:~6  
  在土豪老板和疑似真爱的广清中,她究竟会选择谁?  DR{O.TX  
y%X! l(gQ  
Format                      : Matroska MI'"Xzp{s  
Format version              : Version 4 / Version 2 C[}UQod0  
File size                   : 2.61 GiB }lDX3h  
Duration                    : 1h 14mn .9J}Z^FD  
Overall bit rate            : 4 998 Kbps YVwpqOE.=  
Encoded date                : UTC 2016-07-10 01:02:40 k qL.ZR  
x+j@YWDpG"  
l=b!O  
Video cFt&Efj  
ID                          : 1 e M Hz/;I  
Format                      : AVC /OWwC%tM/  
Format/Info                 : Advanced Video Codec 1f<R,>  
Format profile              : High@L5.1 A[8m3L#k  
Format settings, CABAC      : Yes u5Vgi0}A  
Format settings, ReFrames   : 3 frames +8C }%6aX  
Codec ID                    : V_MPEG4/ISO/AVC Q"ZpT  
Duration                    : 1h 14mn bY2R/FNL=  
Bit rate                    : 4 933 Kbps }%8ZN :  
Width                       : 3 840 pixels x};~8lGT>t  
Height                      : 1 632 pixels e`s 1z|h  
Display aspect ratio        : 2.35:1 c )LG+K  
Frame rate mode             : Constant ^8;MY5Wbs  
Frame rate                  : 25.000 fps g{ Al:}u>  
Color space                 : YUV CNefk$/cR  
Chroma subsampling          : 4:2:0 aTTkj\4  
Bit depth                   : 8 bits Xg96I: r'p  
Scan type                   : Progressive gK QJ^a\!  
Bits/(Pixel*Frame)          : 0.031 h@Ea5x  
Stream size                 : 2.58 GiB (99%) *qm|A{FQR  
Writing library             : qiyi.com vtc-test ?W{+[OXs  
Default                     : Yes ?UAuUFueA  
Forced                      : No <@"rI>=  
Color range                 : Limited J<;io!  
Color primaries             : BT.709 &U7v=a  
Transfer characteristics    : BT.709 tkT,M,]?9  
Matrix coefficients         : BT.709 dazNw n  
3"7Q[9Oj  
Ik$$Tn&;  
Audio !:!(=(4$P  
ID                          : 2 AN Fes*8j  
Format                      : AAC ZK8)FmT_<O  
Format/Info                 : Advanced Audio Codec LDc EjFK(  
Format profile              : HE-AAC / LC lc[6Mpi7s[  
Codec ID                    : A_AAC B=TUZ)  
Duration                    : 1h 14mn hK3-j;eg  
Bit rate                    : 63.6 Kbps .oyAi||  
Channel(s)                  : 2 channels {&,p<5o  
Channel positions           : Front: L R P!W%KobZ7|  
Sampling rate               : 44.1 KHz / 22.05 KHz 0[l}@K?  
Frame rate                  : 21.533 fps (1024 spf) +PjTT 6  
Compression mode            : Lossy |+q_kx@?l  
Stream size                 : 34.0 MiB (1%) ;[}OZt  
Default                     : Yes V|MHDMD=  
Forced                      : No Pp-N2t86#2  
<=">2W P{  
v:P]o9Oj8  
%=UD~5!G0  
本部分内容设定了隐藏,需要回复后才能看到