切换到宽版
  • 886阅读
  • 0回复

魔兽/魔兽争霸.Warcraft.2016.1080p.KORSUB.HDRIP.x264.AAC-Showscen [复制链接]

上一主题 下一主题
 

只看楼主 倒序阅读 使用道具 0 发表于: 2016-07-21
W euV+}\b  
◎译  名 魔兽/魔兽:崛起(台)/魔兽争霸:战雄崛起(港)/魔兽争霸/魔兽世界 Mn>dI@/gM  
◎片  名 Warcraft _I~TpH^1K  
◎年  代 2016 R|V <2  
◎国  家 美国/中国/加拿大 P)1@HDN==  
◎类  别 动作/奇幻/冒险 J}jK_  
◎语  言 英语 ^ eM=h   
◎字  幕 韩文(内嵌) aU^>kRGc  
◎IMDb评分  7.5/10 from 90,258 users oCy52Bm.!  
◎IMDb链接  http://www.imdb.com/title/tt0803096/ E|97zc  
◎文件格式 x264 x AAC  cD0  
◎视频尺寸 1920x800 hp-< 8Mf  
◎文件大小 4.42 GiB c::x.B"w  
◎片  长 2h 1mn 4Xz6JJ1U[H  
◎导  演 邓肯·琼斯 Duncan Jones H7Y}qP5X  
◎主  演 崔维斯·费米尔 Travis Fimmel {!N4|  
      托比·凯贝尔 Toby Kebbell 15yIPv+5  
      宝拉·巴顿 Paula Patton 07(E/A]  
      吴彦祖 Daniel Wu q{U -kuui  
      本·福斯特 Ben Foster wW%I < M  
      多米尼克·库珀 Dominic Cooper 7[D 0n7B@  
      鲁丝·内伽 Ruth Negga GGJ_,S*  
      克兰西·布朗 Clancy Brown jQb=N%5s  
      丹尼尔·库德摩尔 Daniel Cudmore UBqK$2 #  
      罗伯特·卡辛斯基 Robert Kazinsky _KZ(Yq>SdY  
      本·施耐泽 Ben Schnetzer T&R`s+7  
      格伦·克洛斯 Glenn Close Bs##3{ylu  
      考乐姆·吉斯·雷尼 Callum Keith Rennie @%#(Hse  
      泰瑞·诺塔里 Terry Notary  fx;5j;  
      瑞安·罗宾斯 Ryan Robbins Ce:R p?  
      博尔克利·杜菲尔德 Burkely Duffield vi5~Rd`  
      丹·佩恩 Dan Payne Ys<wWfW  
      迪伦·肖明 Dylan Schombing " Y%\qw/wq  
      唐尼·麦克尼尔 Donnie MacNeil CC)9Ks\  
      迈克·安东纳科斯 Mike Antonakos wR;l"*j  
      拉吉·拉尔 Raj Lal ;JZ XSM-3  
AGv;8'`  
◎简  介 AoR`/tr,  
#-@{rgH  
  艾泽拉斯与德拉诺本是两颗祥和安宁的星球,人类在艾泽拉斯大陆上世代繁衍生息,兽人则在德拉诺的土地上辛勤耕耘。直到兽人古尔丹(吴彦祖 饰)的出现,打破了两个星球的和平。邪恶的古尔丹为了一己私利,使用恶魔能量打开了一扇传送门——黑暗之门,并残忍的破坏兽人的家园,将原本爱好和平的兽人变成一个个野蛮残暴的战士,迫使他们穿过黑暗之门到达人类的领地作恶。霜狼氏族的酋长杜隆坦(托比·凯贝尔 Toby Kebbell 饰)虽然发现了古尔丹的阴谋却为时已晚,不得不带领着自己的族人离开支离破碎的德拉诺,在举步维艰的艾泽拉斯大陆上寻找着庇护所。面临家园危机的人类在领袖洛萨(崔维斯·费米尔 Travis Fimmel 饰)的带领下一边痛击着野蛮的入侵者,一边苦苦寻求着战争之外的解救方法。两个种族面临着同样的危机,他们能够顺利的渡过这场灾难吗? WEsH@ [  
B}MJ?uvA  
花絮 xJ"KR:CD>  
ScTqnY$v  
.拍摄地点位于温哥华的加拿大电影公园的某座摄影棚,场地足有12个网球场大小。几十部摄像机加上360度环绕的特效专用蓝幕,构成了迄今为止最大的动作捕捉场景。 w+MdQ@'5  
<]9MgfAe  
.扮演兽人的演员穿着标准的灰色动作捕捉服,电脑搜集他们的骨架数据,并且通过名为“大脑吧”的视觉特效系统塑造了800磅的肌肉,还有獠牙,为此特技演员必须以腰围仿佛增加了一倍的步伐走路。 jNyC%$  
%/^d]#  
.《魔兽世界》的战争已持续11年,回顾电子游戏的历史它无疑是最大赢家之一。开发公司暴雪娱乐每年从600多万玩家那里获得超十亿美元。拥有如此庞大忠实的粉丝,这么长时间才改编电影实在令人惊讶。 NRl"!FSD;"  
gO/(/e>P  
.山姆·雷米一度非常接近合适的人选,然而他的构想还是无法与暴雪娱乐服务粉丝的理念达成一致。后来他决定把工作重心转向《魔境仙踪》,于是,两位原本就是魔兽玩家的电影制片人等到了机会。 7'8O*EoB'  
: 1{j&$  
.导演邓肯在魔兽世界游戏中的角色是部落战士,制片人斯图尔特·菲尼根则有个60级人类圣骑士,每周和伙伴们刷两次熔火之心,扮演奥格瑞姆的罗伯特·卡辛斯基拥有全部职业的满级角色。 nY8UJy}<oL  
PWmz7*/  
.当邓肯·琼斯加入时,剧本仍然倾向于以人类为中心,把人类作为正面人物,兽人作为反面人物。作为一个忠实的部落玩家,邓肯讲影片的主线转变为由冲突的双方引出两条同等重要的故事线。 [x)e6p)  
MCCZh{uo  
.片方认为与《指环王》相比,《猩球崛起》和《魔兽世界》的定位更为接近,这是一部比较另类的奇幻电影。兽人不是一群没有个性的敌人,人类和兽人的战争也不再只是善良和邪恶的对抗。 0l##M06>  
s +GF- kJ*  
.《魔兽世界》不仅要与《指环王》、《权力的游戏》等奇幻作品风格划清界限,还要在游戏改编电影领域创造全新的高度,此前很少有游戏改编电影获得成功。 Jt)~h,68  
J#kdyBmuO  
.扮演兽人酋长黑手的克兰西·布朗原本曾经为暴雪曾经打算制作的一款游戏《魔兽争霸:氏族之王》中的主角萨尔配过音,很遗憾这款游戏最终没能面市。 @Dy.HQ~  
Cb6MD  
.扮演奥格瑞姆的罗伯·卡辛斯基堪称《魔兽世界》游戏的忠实粉丝。他的游戏排名曾一度跻身全球前十,当他第一次走进剧组搭建的王宫大殿场景时,立刻热泪盈眶。 &8pXkD#A  
w=`z!x![/  
.《魔兽世界》电影里准备了给游戏玩家们的彩蛋,另外还有一个彩蛋是献给本片最初的导演人选萨姆·雷米。 aYgJTep>r  
}*'ha=`J  
.暴雪游戏设计师Chris Metzen担任了影片顾问,很多暴雪概念艺术家都参与了影片的场景、道具设计。 Z]Y4NO;  
1FJ[_ l  
.《魔兽世界》并不只是给游戏玩家拍摄的,也是给对这款游戏一无所知的其他电影观众拍摄的。邓肯想成为将游戏翻译成电影的人,让魔兽粉丝能把这部电影展示给那些不了解《魔兽》的人看。 c{Kl?0#[  
E1C_d'  
.片中将会出现矮人族,但没一个主要的鱼人角色。 ]'Yw#YB  
=#tQIhX`  
.法师麦迪文、统帅安度因·洛萨、国王莱恩·乌瑞恩一世三个人从小一起长大,他们的矛盾贯穿整部影片。 p5l$On  
@QG1\W'  
.整部影片的实景拍摄部分只用了两天时间,因为大部分时间都是在摄影棚里。剧组原本也想用真实的森林田野取景,但考虑到与游戏画风的统一,最终还是选择用CG环境。 P1wRt5  
! cb#fl  
.影片大部分时间都是在艾泽拉斯,伍德森林、卡拉赞、狮王之傲旅店、黑石等都会出现。艾尔文森林是剧组搭建的最大最全的场景之一,长60米、宽30米,每一片树叶都必须手工绘画。 +][P*/Ek  
'EV  *-_k  
.剧组用到了许多真马,它们被牵到剧组搭建的艾尔文森林场景里拍摄骑马飞奔的戏。为了防止马儿受片场噪音惊吓,剧组用卫生棉条做了耳塞。这些马还被扫描进电脑,以制作专属于它们的盔甲。 !P$xh  
E<uOk  
.影片里的盔甲和武器都是Weta设计制作的。武器大部分都是实物,但是兽人奥格瑞姆的“毁灭之锤”在片中基本是用CG制作的。兽人们的戏服都是在现实中设计、缝纫、制作,然后扫描到电脑里的。 )^H9C"7T  
Note : the movie have hardcoded Korean subs. MPbPq3an  
happy Eid for all Muslims around the world YZRB4T9  
GiXde}bm  
General 3 \r@f_p  
Complete name : C:\Users\MrBlu\Desktop\ellen\wrcrft.mp4 fR4l4 GU?)  
Format : MPEG-4 W_\L_)^X  
Format profile : Base Media "5:f{GfO#v  
Codec ID : isom b:Kw_Q  
File size : 4.42 GiB _a$DY ,;  
Duration : 2h 1mn |o zoc"'  
Overall bit rate : 5 224 Kbps |HG b.^f?  
Writing application : Lavf55.37.101 ZT8J i?_n  
I<./(X[H:#  
Video yM:~{;HLF  
ID : 1 QX.6~*m1  
Format : AVC >B/&V|E  
Format/Info : Advanced Video Codec 1{x~iZa  
Format profile : High@L5 KM}4^Qc  
Format settings, CABAC : Yes \h7J/es^p!  
Format settings, ReFrames : 8 frames *rcuhw"^b#  
Codec ID : avc1 RyOT[J  
Codec ID/Info : Advanced Video Coding (SsH uNt.  
Duration : 2h 1mn hLbT\J`I  
Bit rate : 5 000 Kbps e9@fQ  
Width : 1 920 pixels (_qBsng:  
Height : 800 pixels nj^q@h  
Display aspect ratio : 2.40:1 (Ef2 w[ '  
Frame rate mode : Constant \W`}L  
Frame rate : 29.970 fps T dP{{&'9  
Color space : YUV #EmffVtY  
Chroma subsampling : 4:2:0 q"+ q  
Bit depth : 8 bits qSoBj&6y  
Scan type : Progressive foz5D9sQ  
Bits/(Pixel*Frame) : 0.109 +# RlX3P  
Stream size : 4.19 GiB (95%) @ojg`!,  
Writing library : x264 core 119 Xh0wWU*  
#OD@q;  
Audio #'4<> G]  
ID : 2 ci ,o8 [Y  
Format : AAC <RoX|zJw  
Format/Info : Advanced Audio Codec 53`9^|:  
Format profile : LC D]pK=247  
Codec ID : 40 RD6h=n4B  
Duration : 2h 1mn S< EB&P  
Duration_LastFrame : -13ms P34LV+e  
Bit rate mode : Constant h \=p= M  
Bit rate : 257 Kbps R(2HY Z  
Channel(s) : 2 channels eg$5z Z  
Channel positions : Front: L R |5O >>a()  
Sampling rate : 44.1 KHz {+ C%D'  
Compression mode : Lossy (>rS _#^  
Stream size : 223 MiB (5%) *R_'$+  
mJ8{lXq3!  
{?EEIfg  
x{NNx:T1  
本部分内容设定了隐藏,需要回复后才能看到