切换到宽版
  • 1028阅读
  • 0回复

魔兽/魔兽争霸.Warcraft.2016.1080p.KORSUB.HDRIP.x264.AAC-Showscen [复制链接]

上一主题 下一主题
 

只看楼主 倒序阅读 使用道具 0 发表于: 2016-07-21
LxD >eA  
◎译  名 魔兽/魔兽:崛起(台)/魔兽争霸:战雄崛起(港)/魔兽争霸/魔兽世界 b4TZnO  
◎片  名 Warcraft l!r2[T]I@7  
◎年  代 2016 SvR:tyF  
◎国  家 美国/中国/加拿大 =W+ h.?  
◎类  别 动作/奇幻/冒险 <cC0l-=  
◎语  言 英语 lw/zgR#|  
◎字  幕 韩文(内嵌) 6T3uv,2  
◎IMDb评分  7.5/10 from 90,258 users zJ-_{GiM*L  
◎IMDb链接  http://www.imdb.com/title/tt0803096/ o }EipTL  
◎文件格式 x264 x AAC "9mVBa|Q  
◎视频尺寸 1920x800 LJ^n6 m|_  
◎文件大小 4.42 GiB \}CQo0v  
◎片  长 2h 1mn hN0Y8Ia/5%  
◎导  演 邓肯·琼斯 Duncan Jones #&Xr2?E@  
◎主  演 崔维斯·费米尔 Travis Fimmel RM^3Snd=V  
      托比·凯贝尔 Toby Kebbell SZ/}2_;  
      宝拉·巴顿 Paula Patton ZkbaUIQ  
      吴彦祖 Daniel Wu $e(]L(o;  
      本·福斯特 Ben Foster R$[nYw  
      多米尼克·库珀 Dominic Cooper XctSw  
      鲁丝·内伽 Ruth Negga Eqx2.S  
      克兰西·布朗 Clancy Brown rL{3O4O  
      丹尼尔·库德摩尔 Daniel Cudmore ;3\oU$'  
      罗伯特·卡辛斯基 Robert Kazinsky kzMul<>sl  
      本·施耐泽 Ben Schnetzer Y}db<Cz X  
      格伦·克洛斯 Glenn Close C!]R0L*  
      考乐姆·吉斯·雷尼 Callum Keith Rennie 0?DD!H)&w  
      泰瑞·诺塔里 Terry Notary 4r'QP .h  
      瑞安·罗宾斯 Ryan Robbins _(#HQd,i  
      博尔克利·杜菲尔德 Burkely Duffield Y|'0bujr  
      丹·佩恩 Dan Payne cr}T ? $\K  
      迪伦·肖明 Dylan Schombing s^atBqw,  
      唐尼·麦克尼尔 Donnie MacNeil }}R?pU_  
      迈克·安东纳科斯 Mike Antonakos H2f!c{t$p  
      拉吉·拉尔 Raj Lal P}YtT3. K  
& XS2q0-x  
◎简  介 h8nJt>h  
qh|t}#DrR  
  艾泽拉斯与德拉诺本是两颗祥和安宁的星球,人类在艾泽拉斯大陆上世代繁衍生息,兽人则在德拉诺的土地上辛勤耕耘。直到兽人古尔丹(吴彦祖 饰)的出现,打破了两个星球的和平。邪恶的古尔丹为了一己私利,使用恶魔能量打开了一扇传送门——黑暗之门,并残忍的破坏兽人的家园,将原本爱好和平的兽人变成一个个野蛮残暴的战士,迫使他们穿过黑暗之门到达人类的领地作恶。霜狼氏族的酋长杜隆坦(托比·凯贝尔 Toby Kebbell 饰)虽然发现了古尔丹的阴谋却为时已晚,不得不带领着自己的族人离开支离破碎的德拉诺,在举步维艰的艾泽拉斯大陆上寻找着庇护所。面临家园危机的人类在领袖洛萨(崔维斯·费米尔 Travis Fimmel 饰)的带领下一边痛击着野蛮的入侵者,一边苦苦寻求着战争之外的解救方法。两个种族面临着同样的危机,他们能够顺利的渡过这场灾难吗? \a_75^2  
]xx}\k  
花絮 i~};5j(  
,M4G_U[  
.拍摄地点位于温哥华的加拿大电影公园的某座摄影棚,场地足有12个网球场大小。几十部摄像机加上360度环绕的特效专用蓝幕,构成了迄今为止最大的动作捕捉场景。 E{LLxGAEZ  
?L%BD7  
.扮演兽人的演员穿着标准的灰色动作捕捉服,电脑搜集他们的骨架数据,并且通过名为“大脑吧”的视觉特效系统塑造了800磅的肌肉,还有獠牙,为此特技演员必须以腰围仿佛增加了一倍的步伐走路。 L|?$F*bs  
cO8':P5Q  
.《魔兽世界》的战争已持续11年,回顾电子游戏的历史它无疑是最大赢家之一。开发公司暴雪娱乐每年从600多万玩家那里获得超十亿美元。拥有如此庞大忠实的粉丝,这么长时间才改编电影实在令人惊讶。 Aof)WKo  
-Kas9\VWEw  
.山姆·雷米一度非常接近合适的人选,然而他的构想还是无法与暴雪娱乐服务粉丝的理念达成一致。后来他决定把工作重心转向《魔境仙踪》,于是,两位原本就是魔兽玩家的电影制片人等到了机会。 ?%|w?Fdx-  
~wtK(U  
.导演邓肯在魔兽世界游戏中的角色是部落战士,制片人斯图尔特·菲尼根则有个60级人类圣骑士,每周和伙伴们刷两次熔火之心,扮演奥格瑞姆的罗伯特·卡辛斯基拥有全部职业的满级角色。 }@)r\t4m  
mp !S<m  
.当邓肯·琼斯加入时,剧本仍然倾向于以人类为中心,把人类作为正面人物,兽人作为反面人物。作为一个忠实的部落玩家,邓肯讲影片的主线转变为由冲突的双方引出两条同等重要的故事线。 ab}Kt($  
Mr0<b?I  
.片方认为与《指环王》相比,《猩球崛起》和《魔兽世界》的定位更为接近,这是一部比较另类的奇幻电影。兽人不是一群没有个性的敌人,人类和兽人的战争也不再只是善良和邪恶的对抗。 m{ w k0  
EJCf[#Sf  
.《魔兽世界》不仅要与《指环王》、《权力的游戏》等奇幻作品风格划清界限,还要在游戏改编电影领域创造全新的高度,此前很少有游戏改编电影获得成功。 8Q{"W"]O7  
7J[DD5   
.扮演兽人酋长黑手的克兰西·布朗原本曾经为暴雪曾经打算制作的一款游戏《魔兽争霸:氏族之王》中的主角萨尔配过音,很遗憾这款游戏最终没能面市。 6>yfm4o  
?M/H{  
.扮演奥格瑞姆的罗伯·卡辛斯基堪称《魔兽世界》游戏的忠实粉丝。他的游戏排名曾一度跻身全球前十,当他第一次走进剧组搭建的王宫大殿场景时,立刻热泪盈眶。 & t.G4  
vcmB)P-T`O  
.《魔兽世界》电影里准备了给游戏玩家们的彩蛋,另外还有一个彩蛋是献给本片最初的导演人选萨姆·雷米。 PeX^aEc  
/e:kBjysJ  
.暴雪游戏设计师Chris Metzen担任了影片顾问,很多暴雪概念艺术家都参与了影片的场景、道具设计。 >=6 j:  
A2 r\=for  
.《魔兽世界》并不只是给游戏玩家拍摄的,也是给对这款游戏一无所知的其他电影观众拍摄的。邓肯想成为将游戏翻译成电影的人,让魔兽粉丝能把这部电影展示给那些不了解《魔兽》的人看。 CE|iu!-4  
FxFRrRRH@  
.片中将会出现矮人族,但没一个主要的鱼人角色。 mA?fCs  
=d*5TyAcu  
.法师麦迪文、统帅安度因·洛萨、国王莱恩·乌瑞恩一世三个人从小一起长大,他们的矛盾贯穿整部影片。 > u!# 4  
x 8/I"!gI  
.整部影片的实景拍摄部分只用了两天时间,因为大部分时间都是在摄影棚里。剧组原本也想用真实的森林田野取景,但考虑到与游戏画风的统一,最终还是选择用CG环境。 .eHOG]H  
Q,m&XpZ  
.影片大部分时间都是在艾泽拉斯,伍德森林、卡拉赞、狮王之傲旅店、黑石等都会出现。艾尔文森林是剧组搭建的最大最全的场景之一,长60米、宽30米,每一片树叶都必须手工绘画。 L25v 7U  
3J_B uMV  
.剧组用到了许多真马,它们被牵到剧组搭建的艾尔文森林场景里拍摄骑马飞奔的戏。为了防止马儿受片场噪音惊吓,剧组用卫生棉条做了耳塞。这些马还被扫描进电脑,以制作专属于它们的盔甲。 F1q6 3  
S8dX8,qg  
.影片里的盔甲和武器都是Weta设计制作的。武器大部分都是实物,但是兽人奥格瑞姆的“毁灭之锤”在片中基本是用CG制作的。兽人们的戏服都是在现实中设计、缝纫、制作,然后扫描到电脑里的。 m<e_Z~^G  
Note : the movie have hardcoded Korean subs. CX}==0od  
happy Eid for all Muslims around the world z[sP/{~z  
{8pN]=SaJ~  
General _/5#A+ ?  
Complete name : C:\Users\MrBlu\Desktop\ellen\wrcrft.mp4 ;{Nc9d  
Format : MPEG-4 wj{[g^y%  
Format profile : Base Media di4>Ir~]  
Codec ID : isom IZs NMY  
File size : 4.42 GiB 6%B)  
Duration : 2h 1mn <}Hs@`jS  
Overall bit rate : 5 224 Kbps SMn(c  
Writing application : Lavf55.37.101 @~CXnc0  
$.F.xYS9IJ  
Video _]t^F9l  
ID : 1 tyU'[LF?  
Format : AVC Fnc MIzp  
Format/Info : Advanced Video Codec U}R  (  
Format profile : High@L5 +GvPJI  
Format settings, CABAC : Yes ^oMdx2Ow#  
Format settings, ReFrames : 8 frames e|d~&Bk0  
Codec ID : avc1 4q)+nh~s  
Codec ID/Info : Advanced Video Coding cd(YH! 3  
Duration : 2h 1mn 0^83:C ^{  
Bit rate : 5 000 Kbps se@ ?:n1)  
Width : 1 920 pixels U [{vA6  
Height : 800 pixels n.7-$1  
Display aspect ratio : 2.40:1 Z</57w#-7  
Frame rate mode : Constant LDY3Ya`6m  
Frame rate : 29.970 fps )?{jD  
Color space : YUV %+iAL<S  
Chroma subsampling : 4:2:0 [=TD)o>W(p  
Bit depth : 8 bits slQEAqG)B  
Scan type : Progressive 4x-K0  
Bits/(Pixel*Frame) : 0.109 Nj{;  
Stream size : 4.19 GiB (95%) qH(HcsgD  
Writing library : x264 core 119 x c|1?AFj  
Ip |=NQL>  
Audio .dsB\ C  
ID : 2 <-DQ(0xg  
Format : AAC @~bP|a  
Format/Info : Advanced Audio Codec xri(j,mU  
Format profile : LC FEdFGT  
Codec ID : 40 9v/=o`J#  
Duration : 2h 1mn srhI%Zj  
Duration_LastFrame : -13ms PlR$s  
Bit rate mode : Constant n.XgGT=L  
Bit rate : 257 Kbps LKBh{X0%(  
Channel(s) : 2 channels uann'ho?q  
Channel positions : Front: L R L=dQ,yA  
Sampling rate : 44.1 KHz 1&RB=7.h  
Compression mode : Lossy =E62N7_`=  
Stream size : 223 MiB (5%) (aLjW=  
+g;{c+Kw:  
~ga WZQXyu  
&crR nv ?  
本部分内容设定了隐藏,需要回复后才能看到