切换到宽版
  • 914阅读
  • 0回复

魔兽/魔兽争霸.Warcraft.2016.1080p.KORSUB.HDRIP.x264.AAC-Showscen [复制链接]

上一主题 下一主题
 

只看楼主 倒序阅读 使用道具 0 发表于: 2016-07-21
/CX<k gz@  
◎译  名 魔兽/魔兽:崛起(台)/魔兽争霸:战雄崛起(港)/魔兽争霸/魔兽世界 HX<5i>]0\u  
◎片  名 Warcraft cuSXv)  
◎年  代 2016 W cqYpPv  
◎国  家 美国/中国/加拿大 z6Mf>q  
◎类  别 动作/奇幻/冒险 -><?q t  
◎语  言 英语 I[F.M}5:z  
◎字  幕 韩文(内嵌) */Y@:Sjf  
◎IMDb评分  7.5/10 from 90,258 users P+Hs6Q  
◎IMDb链接  http://www.imdb.com/title/tt0803096/ p\!+j@H:  
◎文件格式 x264 x AAC 6lZhV[~Z/  
◎视频尺寸 1920x800 pX2 Ki^)]  
◎文件大小 4.42 GiB 6BMRl%3>Z  
◎片  长 2h 1mn ? 8'4~1g`}  
◎导  演 邓肯·琼斯 Duncan Jones &d6'$h:kHb  
◎主  演 崔维斯·费米尔 Travis Fimmel ;=_KLG <  
      托比·凯贝尔 Toby Kebbell b$M? _<G  
      宝拉·巴顿 Paula Patton ybB/sShGM  
      吴彦祖 Daniel Wu 9]d$G$Kv9  
      本·福斯特 Ben Foster `U?;9!|;6  
      多米尼克·库珀 Dominic Cooper Y&+<'FA  
      鲁丝·内伽 Ruth Negga LM<OYRB(  
      克兰西·布朗 Clancy Brown '8dgYj  
      丹尼尔·库德摩尔 Daniel Cudmore Jzfz y0$  
      罗伯特·卡辛斯基 Robert Kazinsky F"9q Bl~  
      本·施耐泽 Ben Schnetzer cMtkdIO  
      格伦·克洛斯 Glenn Close /FB'  
      考乐姆·吉斯·雷尼 Callum Keith Rennie -a/5   
      泰瑞·诺塔里 Terry Notary 8R-?x/:  
      瑞安·罗宾斯 Ryan Robbins 6g7 X1C  
      博尔克利·杜菲尔德 Burkely Duffield ?p6+?\H  
      丹·佩恩 Dan Payne HnU}Lhjzj  
      迪伦·肖明 Dylan Schombing #  ,GpZ  
      唐尼·麦克尼尔 Donnie MacNeil 8m-ryr)  
      迈克·安东纳科斯 Mike Antonakos I~#'76L[  
      拉吉·拉尔 Raj Lal n,n]V$HFGh  
y%3Yr?]  
◎简  介 Ugrcy7  
.Ml}cE$L  
  艾泽拉斯与德拉诺本是两颗祥和安宁的星球,人类在艾泽拉斯大陆上世代繁衍生息,兽人则在德拉诺的土地上辛勤耕耘。直到兽人古尔丹(吴彦祖 饰)的出现,打破了两个星球的和平。邪恶的古尔丹为了一己私利,使用恶魔能量打开了一扇传送门——黑暗之门,并残忍的破坏兽人的家园,将原本爱好和平的兽人变成一个个野蛮残暴的战士,迫使他们穿过黑暗之门到达人类的领地作恶。霜狼氏族的酋长杜隆坦(托比·凯贝尔 Toby Kebbell 饰)虽然发现了古尔丹的阴谋却为时已晚,不得不带领着自己的族人离开支离破碎的德拉诺,在举步维艰的艾泽拉斯大陆上寻找着庇护所。面临家园危机的人类在领袖洛萨(崔维斯·费米尔 Travis Fimmel 饰)的带领下一边痛击着野蛮的入侵者,一边苦苦寻求着战争之外的解救方法。两个种族面临着同样的危机,他们能够顺利的渡过这场灾难吗? epz2d~;  
>fQ-( io  
花絮 6g( 2O[n.  
a?&oOQd-iP  
.拍摄地点位于温哥华的加拿大电影公园的某座摄影棚,场地足有12个网球场大小。几十部摄像机加上360度环绕的特效专用蓝幕,构成了迄今为止最大的动作捕捉场景。 uFG]8pj2V1  
IjJ3./L!5  
.扮演兽人的演员穿着标准的灰色动作捕捉服,电脑搜集他们的骨架数据,并且通过名为“大脑吧”的视觉特效系统塑造了800磅的肌肉,还有獠牙,为此特技演员必须以腰围仿佛增加了一倍的步伐走路。 W=]QTx,J  
Vc c/  
.《魔兽世界》的战争已持续11年,回顾电子游戏的历史它无疑是最大赢家之一。开发公司暴雪娱乐每年从600多万玩家那里获得超十亿美元。拥有如此庞大忠实的粉丝,这么长时间才改编电影实在令人惊讶。 s+o/:rrx Y  
p@>_1A}qh_  
.山姆·雷米一度非常接近合适的人选,然而他的构想还是无法与暴雪娱乐服务粉丝的理念达成一致。后来他决定把工作重心转向《魔境仙踪》,于是,两位原本就是魔兽玩家的电影制片人等到了机会。 C$ nT&06o  
g]z,*d  
.导演邓肯在魔兽世界游戏中的角色是部落战士,制片人斯图尔特·菲尼根则有个60级人类圣骑士,每周和伙伴们刷两次熔火之心,扮演奥格瑞姆的罗伯特·卡辛斯基拥有全部职业的满级角色。 r|6S&Ia>  
(fb&5=Wzw  
.当邓肯·琼斯加入时,剧本仍然倾向于以人类为中心,把人类作为正面人物,兽人作为反面人物。作为一个忠实的部落玩家,邓肯讲影片的主线转变为由冲突的双方引出两条同等重要的故事线。 SJj0*ry:  
j<wWPv  
.片方认为与《指环王》相比,《猩球崛起》和《魔兽世界》的定位更为接近,这是一部比较另类的奇幻电影。兽人不是一群没有个性的敌人,人类和兽人的战争也不再只是善良和邪恶的对抗。 B,, f$h!  
U!^\DocAY  
.《魔兽世界》不仅要与《指环王》、《权力的游戏》等奇幻作品风格划清界限,还要在游戏改编电影领域创造全新的高度,此前很少有游戏改编电影获得成功。  :v8j3 =  
r9z/hm}E  
.扮演兽人酋长黑手的克兰西·布朗原本曾经为暴雪曾经打算制作的一款游戏《魔兽争霸:氏族之王》中的主角萨尔配过音,很遗憾这款游戏最终没能面市。 Z/6B[,V  
BTgL:  
.扮演奥格瑞姆的罗伯·卡辛斯基堪称《魔兽世界》游戏的忠实粉丝。他的游戏排名曾一度跻身全球前十,当他第一次走进剧组搭建的王宫大殿场景时,立刻热泪盈眶。 Cf J@|Rh  
Bp>%' L  
.《魔兽世界》电影里准备了给游戏玩家们的彩蛋,另外还有一个彩蛋是献给本片最初的导演人选萨姆·雷米。 TZ?va@2  
?4(uwX p  
.暴雪游戏设计师Chris Metzen担任了影片顾问,很多暴雪概念艺术家都参与了影片的场景、道具设计。 srO {Ci0  
d]$z&E  
.《魔兽世界》并不只是给游戏玩家拍摄的,也是给对这款游戏一无所知的其他电影观众拍摄的。邓肯想成为将游戏翻译成电影的人,让魔兽粉丝能把这部电影展示给那些不了解《魔兽》的人看。 <0 k(d:H-  
wQlK[F]!>  
.片中将会出现矮人族,但没一个主要的鱼人角色。 9)3ok#pQ/  
Uw)?u$+ P  
.法师麦迪文、统帅安度因·洛萨、国王莱恩·乌瑞恩一世三个人从小一起长大,他们的矛盾贯穿整部影片。 >A7),6  
+\?#8U/k  
.整部影片的实景拍摄部分只用了两天时间,因为大部分时间都是在摄影棚里。剧组原本也想用真实的森林田野取景,但考虑到与游戏画风的统一,最终还是选择用CG环境。 g\OPidY  
Jou~>0,/j  
.影片大部分时间都是在艾泽拉斯,伍德森林、卡拉赞、狮王之傲旅店、黑石等都会出现。艾尔文森林是剧组搭建的最大最全的场景之一,长60米、宽30米,每一片树叶都必须手工绘画。 .3 m^yo c/  
3)Wi? -  
.剧组用到了许多真马,它们被牵到剧组搭建的艾尔文森林场景里拍摄骑马飞奔的戏。为了防止马儿受片场噪音惊吓,剧组用卫生棉条做了耳塞。这些马还被扫描进电脑,以制作专属于它们的盔甲。 `LEk/b1(P  
d_-{-@  
.影片里的盔甲和武器都是Weta设计制作的。武器大部分都是实物,但是兽人奥格瑞姆的“毁灭之锤”在片中基本是用CG制作的。兽人们的戏服都是在现实中设计、缝纫、制作,然后扫描到电脑里的。 XTXRC$B  
Note : the movie have hardcoded Korean subs. ?tQ UZO  
happy Eid for all Muslims around the world s>9w+|6Ji  
"9Sxj  
General h? p&9[e`  
Complete name : C:\Users\MrBlu\Desktop\ellen\wrcrft.mp4 W1w)SS  
Format : MPEG-4 2v0lWO~c7z  
Format profile : Base Media 7N+No.vR.  
Codec ID : isom q*SX.A>YR  
File size : 4.42 GiB s_y Y,Z:  
Duration : 2h 1mn EX7gTf#  
Overall bit rate : 5 224 Kbps U~azI(1"W  
Writing application : Lavf55.37.101 P ^R224R  
w^sM,c5d  
Video +O`0Mc$%'  
ID : 1 ]7}2"?J4v  
Format : AVC n a])bBn  
Format/Info : Advanced Video Codec ^n"ve2   
Format profile : High@L5 44B)=p7  
Format settings, CABAC : Yes rLGh>bw#`3  
Format settings, ReFrames : 8 frames y+\nj3v6  
Codec ID : avc1 P^#<h"Ht  
Codec ID/Info : Advanced Video Coding }@_F( B  
Duration : 2h 1mn ;>{B K,  
Bit rate : 5 000 Kbps 0&E{[~Pv  
Width : 1 920 pixels P(8zJk6h),  
Height : 800 pixels tbrjTeC  
Display aspect ratio : 2.40:1 -bdF=  
Frame rate mode : Constant Ho9 a#9  
Frame rate : 29.970 fps .e%PK  
Color space : YUV ^$c+r%9k  
Chroma subsampling : 4:2:0 8Ih+^Y a  
Bit depth : 8 bits jk,: IG  
Scan type : Progressive 6 6WAD$8$  
Bits/(Pixel*Frame) : 0.109 fT9$0:eO  
Stream size : 4.19 GiB (95%) NCbn< ojb  
Writing library : x264 core 119 ue@ fry  
?(UeWLC#  
Audio *}DC xv  
ID : 2 NPF"_[RoeV  
Format : AAC *J,VvO 9  
Format/Info : Advanced Audio Codec ")T;3/c  
Format profile : LC ~'k.'O{  
Codec ID : 40 1Ys6CJ#  
Duration : 2h 1mn #e:cB'f  
Duration_LastFrame : -13ms N# $ob 9  
Bit rate mode : Constant Ry9kGdqO  
Bit rate : 257 Kbps g.$a]pZz  
Channel(s) : 2 channels 1'ts>6b  
Channel positions : Front: L R I~ Q2jg2  
Sampling rate : 44.1 KHz a hQdBoj  
Compression mode : Lossy ^ z!g3  
Stream size : 223 MiB (5%) G+&ug`0]5  
*9Eep~ 6  
gD`|N@W$5  
W>$2BsO  
本部分内容设定了隐藏,需要回复后才能看到