切换到宽版
  • 1113阅读
  • 0回复

魔兽/魔兽争霸.Warcraft.2016.1080p.KORSUB.HDRIP.x264.AAC-Showscen [复制链接]

上一主题 下一主题
 

只看楼主 倒序阅读 使用道具 0 发表于: 2016-07-21
CMI%jyiX  
◎译  名 魔兽/魔兽:崛起(台)/魔兽争霸:战雄崛起(港)/魔兽争霸/魔兽世界 JUt 7  
◎片  名 Warcraft T'"aStt6  
◎年  代 2016 yn)K1f^  
◎国  家 美国/中国/加拿大 3Gubq4r  
◎类  别 动作/奇幻/冒险 nm_]2z O  
◎语  言 英语 ]<V[H  
◎字  幕 韩文(内嵌) gu7mGHn-  
◎IMDb评分  7.5/10 from 90,258 users uckag/tv  
◎IMDb链接  http://www.imdb.com/title/tt0803096/ c,:xm=&  
◎文件格式 x264 x AAC ?| s1Cuc  
◎视频尺寸 1920x800 }K! }6?17T  
◎文件大小 4.42 GiB NTkGLD1e.  
◎片  长 2h 1mn F#*vJb)  
◎导  演 邓肯·琼斯 Duncan Jones XXBN Nr_CK  
◎主  演 崔维斯·费米尔 Travis Fimmel =* oFs|v  
      托比·凯贝尔 Toby Kebbell 4Z12Z@A#7  
      宝拉·巴顿 Paula Patton w]J9Kv1)-  
      吴彦祖 Daniel Wu CkKr@.dV  
      本·福斯特 Ben Foster ~ODm?k  
      多米尼克·库珀 Dominic Cooper BT.;l I  
      鲁丝·内伽 Ruth Negga a{v1[i\  
      克兰西·布朗 Clancy Brown }RowAGWL  
      丹尼尔·库德摩尔 Daniel Cudmore o{f|==<t3#  
      罗伯特·卡辛斯基 Robert Kazinsky [*GIR0  
      本·施耐泽 Ben Schnetzer `xMmo8u4  
      格伦·克洛斯 Glenn Close Ue^2H[zs-  
      考乐姆·吉斯·雷尼 Callum Keith Rennie $6e&sDJ  
      泰瑞·诺塔里 Terry Notary 7=(r k  
      瑞安·罗宾斯 Ryan Robbins (LbAP9Zj#f  
      博尔克利·杜菲尔德 Burkely Duffield kscZ zXv  
      丹·佩恩 Dan Payne Cp` [0v~0  
      迪伦·肖明 Dylan Schombing %5Hsd  
      唐尼·麦克尼尔 Donnie MacNeil 9JYrP6I!_  
      迈克·安东纳科斯 Mike Antonakos >77N5 >]e  
      拉吉·拉尔 Raj Lal i`U:uwW`  
ACm9H9:Vd  
◎简  介 /n;Ll](ri  
KJ M :-z@  
  艾泽拉斯与德拉诺本是两颗祥和安宁的星球,人类在艾泽拉斯大陆上世代繁衍生息,兽人则在德拉诺的土地上辛勤耕耘。直到兽人古尔丹(吴彦祖 饰)的出现,打破了两个星球的和平。邪恶的古尔丹为了一己私利,使用恶魔能量打开了一扇传送门——黑暗之门,并残忍的破坏兽人的家园,将原本爱好和平的兽人变成一个个野蛮残暴的战士,迫使他们穿过黑暗之门到达人类的领地作恶。霜狼氏族的酋长杜隆坦(托比·凯贝尔 Toby Kebbell 饰)虽然发现了古尔丹的阴谋却为时已晚,不得不带领着自己的族人离开支离破碎的德拉诺,在举步维艰的艾泽拉斯大陆上寻找着庇护所。面临家园危机的人类在领袖洛萨(崔维斯·费米尔 Travis Fimmel 饰)的带领下一边痛击着野蛮的入侵者,一边苦苦寻求着战争之外的解救方法。两个种族面临着同样的危机,他们能够顺利的渡过这场灾难吗? >{?~cNO&  
,#:*dl  
花絮 3omFd#EP  
D!< [\ G  
.拍摄地点位于温哥华的加拿大电影公园的某座摄影棚,场地足有12个网球场大小。几十部摄像机加上360度环绕的特效专用蓝幕,构成了迄今为止最大的动作捕捉场景。 4+2XPaI m  
nm5zX,  
.扮演兽人的演员穿着标准的灰色动作捕捉服,电脑搜集他们的骨架数据,并且通过名为“大脑吧”的视觉特效系统塑造了800磅的肌肉,还有獠牙,为此特技演员必须以腰围仿佛增加了一倍的步伐走路。 y=7WnQc  
H'7AIY }  
.《魔兽世界》的战争已持续11年,回顾电子游戏的历史它无疑是最大赢家之一。开发公司暴雪娱乐每年从600多万玩家那里获得超十亿美元。拥有如此庞大忠实的粉丝,这么长时间才改编电影实在令人惊讶。 q_S`@2Dzz,  
"h?;)Ye  
.山姆·雷米一度非常接近合适的人选,然而他的构想还是无法与暴雪娱乐服务粉丝的理念达成一致。后来他决定把工作重心转向《魔境仙踪》,于是,两位原本就是魔兽玩家的电影制片人等到了机会。 b~dm+5W7  
D#Fe\8!l  
.导演邓肯在魔兽世界游戏中的角色是部落战士,制片人斯图尔特·菲尼根则有个60级人类圣骑士,每周和伙伴们刷两次熔火之心,扮演奥格瑞姆的罗伯特·卡辛斯基拥有全部职业的满级角色。 tl9=u-D13@  
kzU ;24"K  
.当邓肯·琼斯加入时,剧本仍然倾向于以人类为中心,把人类作为正面人物,兽人作为反面人物。作为一个忠实的部落玩家,邓肯讲影片的主线转变为由冲突的双方引出两条同等重要的故事线。 |<tZ|  
=.NZ {G  
.片方认为与《指环王》相比,《猩球崛起》和《魔兽世界》的定位更为接近,这是一部比较另类的奇幻电影。兽人不是一群没有个性的敌人,人类和兽人的战争也不再只是善良和邪恶的对抗。 8fA9yQ 8  
&S[tI$  
.《魔兽世界》不仅要与《指环王》、《权力的游戏》等奇幻作品风格划清界限,还要在游戏改编电影领域创造全新的高度,此前很少有游戏改编电影获得成功。 hd{Vz{;W  
7yp7`|,p  
.扮演兽人酋长黑手的克兰西·布朗原本曾经为暴雪曾经打算制作的一款游戏《魔兽争霸:氏族之王》中的主角萨尔配过音,很遗憾这款游戏最终没能面市。 B^g+_;  
1&N|k;#QS  
.扮演奥格瑞姆的罗伯·卡辛斯基堪称《魔兽世界》游戏的忠实粉丝。他的游戏排名曾一度跻身全球前十,当他第一次走进剧组搭建的王宫大殿场景时,立刻热泪盈眶。 2ED^uc: 0S  
=5=D)x~  
.《魔兽世界》电影里准备了给游戏玩家们的彩蛋,另外还有一个彩蛋是献给本片最初的导演人选萨姆·雷米。 /xf4*zr  
m| 8%%E}d  
.暴雪游戏设计师Chris Metzen担任了影片顾问,很多暴雪概念艺术家都参与了影片的场景、道具设计。 h<;kj#qbb  
{T|sU\|Q  
.《魔兽世界》并不只是给游戏玩家拍摄的,也是给对这款游戏一无所知的其他电影观众拍摄的。邓肯想成为将游戏翻译成电影的人,让魔兽粉丝能把这部电影展示给那些不了解《魔兽》的人看。 L(tS]yWHw  
NCbl|v=  
.片中将会出现矮人族,但没一个主要的鱼人角色。 G tI]6t  
AdBF$nn[  
.法师麦迪文、统帅安度因·洛萨、国王莱恩·乌瑞恩一世三个人从小一起长大,他们的矛盾贯穿整部影片。 CY2DxP%  
BkfWZ O{7  
.整部影片的实景拍摄部分只用了两天时间,因为大部分时间都是在摄影棚里。剧组原本也想用真实的森林田野取景,但考虑到与游戏画风的统一,最终还是选择用CG环境。 ] =ar&1}J  
k<W n  
.影片大部分时间都是在艾泽拉斯,伍德森林、卡拉赞、狮王之傲旅店、黑石等都会出现。艾尔文森林是剧组搭建的最大最全的场景之一,长60米、宽30米,每一片树叶都必须手工绘画。 p_h)|*W{  
^ei[#I  
.剧组用到了许多真马,它们被牵到剧组搭建的艾尔文森林场景里拍摄骑马飞奔的戏。为了防止马儿受片场噪音惊吓,剧组用卫生棉条做了耳塞。这些马还被扫描进电脑,以制作专属于它们的盔甲。 {6MLbL{  
Q|eRek  
.影片里的盔甲和武器都是Weta设计制作的。武器大部分都是实物,但是兽人奥格瑞姆的“毁灭之锤”在片中基本是用CG制作的。兽人们的戏服都是在现实中设计、缝纫、制作,然后扫描到电脑里的。 #:Z"V8n'  
Note : the movie have hardcoded Korean subs. [P#^nyOh(  
happy Eid for all Muslims around the world R :=C  
. 2_t/2  
General {MX_t/o=f  
Complete name : C:\Users\MrBlu\Desktop\ellen\wrcrft.mp4 _Y F~DU  
Format : MPEG-4 )US|&> o8  
Format profile : Base Media CORX .PQ  
Codec ID : isom ?3 J  
File size : 4.42 GiB +o&E)S}wP  
Duration : 2h 1mn ;:xOW$  
Overall bit rate : 5 224 Kbps il^SGH  
Writing application : Lavf55.37.101 H -('!^  
3$f%{~3  
Video YbZ<=ZzO4  
ID : 1 {m5tgVi&  
Format : AVC f M 8kS  
Format/Info : Advanced Video Codec ^Q8m) 0DP  
Format profile : High@L5 i[FcY2  
Format settings, CABAC : Yes ]e+IaZ[Wo  
Format settings, ReFrames : 8 frames TnET1$@qr*  
Codec ID : avc1 y@g{:/cmO  
Codec ID/Info : Advanced Video Coding $IUP;  
Duration : 2h 1mn 5vIuH+0  
Bit rate : 5 000 Kbps (?-5p;  
Width : 1 920 pixels -k\ 7k2  
Height : 800 pixels ;aYPv8s~,:  
Display aspect ratio : 2.40:1 J{72%S  
Frame rate mode : Constant qg#WDx /  
Frame rate : 29.970 fps R`=IYnoOA  
Color space : YUV lv9Ss-c4  
Chroma subsampling : 4:2:0 j9C=m"O  
Bit depth : 8 bits p}uT qI  
Scan type : Progressive uE:#m.Q  
Bits/(Pixel*Frame) : 0.109 +T[3wL~  
Stream size : 4.19 GiB (95%) ,u QLXF2  
Writing library : x264 core 119 gUDd2T#  
}|f\'S   
Audio IBl}.o&]B#  
ID : 2 , 6\i  
Format : AAC AF D/ J  
Format/Info : Advanced Audio Codec oMda)5 &  
Format profile : LC jM J[6qj  
Codec ID : 40 {npKdX  
Duration : 2h 1mn {neE(0 c  
Duration_LastFrame : -13ms OB3AZH$  
Bit rate mode : Constant ;}K1c+m!5V  
Bit rate : 257 Kbps H^"BK-`hs  
Channel(s) : 2 channels i2b\` 805  
Channel positions : Front: L R Cq1t[a  
Sampling rate : 44.1 KHz n]4)~ZIAU  
Compression mode : Lossy d T/*O8  
Stream size : 223 MiB (5%) '.~vN L+ O  
[$3Zid  
M4M 4*o  
7=om /  
本部分内容设定了隐藏,需要回复后才能看到