切换到宽版
  • 300阅读
  • 0回复

轩辕大帝/始祖轩辕.Xuan.Yuan.The.Great.Emperor.2016.1080p.WEB-DL.x264.AC3-SeeHD [复制链接]

上一主题 下一主题
 

只看楼主 倒序阅读 使用道具 0 发表于: 2016-07-21
}Gm>`cw-  
◎译  名 轩辕大帝/始祖轩辕   7<#U(,YEA  
◎片  名 Xuan Yuan:The Great Emperor g._]8{K  
◎年  代  2016 2M#Q.F  
◎国  家  中国 0oZ= yh  
◎类  别  剧情/历史/古装 M2>Vj/  
◎语  言  普通话 TA`1U;c{n  
◎字  幕  简体中文/英文 vkx7paY_  
◎IMDb评分 N/A %G_B^p4  
◎IMDB链接 N/A b_#m}yZ6  
◎文件格式 x264 + AC3 JPc+rfF  
◎视频尺寸 1920 x 800 rJT^H5!o"  
◎文件大小 2.20GiB j_!F*yul  
◎片  长 1h 31mn L_uVL#To  
◎导  演 李晓军  Xiaojun Li Pg0x/X{t  
◎主  演 于波  Bo Yu n.`($yR_  
      王德顺  Deshun Wang u~M q*  
      周韦彤  Weitong Zhou nQX:T;WL@  
      班嘉佳  Jiajia Ban /ivJsPH  
      苏登扎木苏 @uqd.Q  
      李卫 Wei Li b9KP( _  
      李倩 Qian Li 7a =gH2]&  
      李咨墨 Zimo Li hYT0l$Ng  
      赵南阳 Nanyang Zhao ]YnD  
   w(*vj  
   zUkgG61  
   BOb">6C  
◎简        介 -LoZs ru  
t9kzw*U9  
  影片以中华人文始祖轩辕黄帝(于波 饰)与元妃嫘祖(周韦彤 饰)的传奇爱情故事为线索,讲述了五千年前有熊氏部落首领姬地率领族人渡黄河、斗猛兽、联合氏族战蚩尤(苏登扎木苏 饰)、最终统一华夏各部落的壮阔史诗。演绎黄帝、炎帝(王顺德 饰)、蚩尤三大部落的兴衰聚散,成功再现了远古华夏民族壮阔感人的发展历程。 ??-[eB.  
^e2VE_8L  
General IXMop7~  
Format : Matroska *KZYv=s,u  
Format version : Version 4 / Version 2 NR 5gj-B[  
File size : 2.20 GiB 1y4|{7bb  
Duration : 1h 31mn }>pknc?  
Overall bit rate : 3 455 Kbps  acajHs  
MnsJEvn/  
Video |B?m,U$A!  
ID : 1 m)ky*"(  
Format : AVC )Ys x}vSZ  
Format/Info : Advanced Video Codec ,8S/t+H  
Format profile : High@L4.0 2@n{yYwy  
Format settings, CABAC : Yes lK?uXr7^  
Format settings, ReFrames : 4 frames R$h<<v)%  
Codec ID : V_MPEG4/ISO/AVC m4[;(1  
Duration : 1h 31mn FZ{h?#2?  
Bit rate : 2 938 Kbps j nkR}wAA  
Width : 1 920 pixels B?eCe}*f;B  
Height : 800 pixels }kw#7m54  
Display aspect ratio : 2.40:1 7cuE7"  
Frame rate mode : Constant 5N#aXG^9  
Frame rate : 24.038 fps NlA,'`,  
Original frame rate : 24.000 fps 8 `v-<J  
Color space : YUV NJ%P/\ C  
Chroma subsampling : 4:2:0 _>o:R$ %}  
Bit depth : 8 bits +r�  
Scan type : Progressive [ $ubNk;!z  
Bits/(Pixel*Frame) : 0.080 lne|5{h  
Stream size : 1.87 GiB (85%) pE3 ?"YO  
Writing library : H.264/MPEG-4 AVC codec -V 1.6.09-20151125 rP'me2 B  
Default : Yes %HhBt5w  
Forced : No [CTnXb  
Color primaries : BT.709 `_6C {<O  
Transfer characteristics : BT.709 9sM!`Lz{  
Matrix coefficients : BT.709 1>.Ev,X+e  
DcS+_>a\{l  
Audio x f'V{9*  
ID : 2 &.F4 b~A7  
Format : AC-3 ,Y@Gyx!4  
Format/Info : Audio Coding 3 b35fs]}u-6  
Mode extension : CM (complete main) lPe&h]@ >  
Format settings, Endianness : Big 9V a}I-  
Codec ID : A_AC3 #QZe,"C9`  
Duration : 1h 31mn Q@=Q0  
Bit rate mode : Constant d.aS{;pse  
Bit rate : 448 Kbps g% aYDl  
Channel(s) : 2 channels .zf~.R;>  
Channel positions : Front: L R n5|fHk^s  
Sampling rate : 44.1 KHz @s*-%N^:[L  
Bit depth : 16 bits EX*HiZU>  
Compression mode : Lossy 2bz2KB5>  
Stream size : 292 MiB (13%) -$\y_?}  
Default : Yes Xa[.3=bV?  
Forced : No L]7=?vN=8  
pR<`H'  
b\f O8{k  
, };& tR  
本部分内容设定了隐藏,需要回复后才能看到