切换到宽版
  • 459阅读
  • 0回复

轩辕大帝/始祖轩辕.Xuan.Yuan.The.Great.Emperor.2016.1080p.WEB-DL.x264.AC3-SeeHD [复制链接]

上一主题 下一主题
 

只看楼主 倒序阅读 使用道具 0 发表于: 2016-07-21
rQ:+LVfXjA  
◎译  名 轩辕大帝/始祖轩辕   5i eF8F%  
◎片  名 Xuan Yuan:The Great Emperor ^rX5C2}G\D  
◎年  代  2016 fhp+Ep!0Y  
◎国  家  中国 R/|2s  
◎类  别  剧情/历史/古装 DQ{"6-  
◎语  言  普通话 tm#[.  
◎字  幕  简体中文/英文 ,mY3oyu  
◎IMDb评分 N/A #FwTV@  
◎IMDB链接 N/A 9N* !C{VW  
◎文件格式 x264 + AC3 !=B=1th4  
◎视频尺寸 1920 x 800 tT`{xM  
◎文件大小 2.20GiB rJ^*8C!  
◎片  长 1h 31mn 'X(Sn 3  
◎导  演 李晓军  Xiaojun Li 0/~20KD{s  
◎主  演 于波  Bo Yu Y2&hf6BE  
      王德顺  Deshun Wang %'3Y?d  
      周韦彤  Weitong Zhou yM`QVO!;  
      班嘉佳  Jiajia Ban OY'6~w9  
      苏登扎木苏 '6zk> rN  
      李卫 Wei Li U_oei3QP  
      李倩 Qian Li k>W}9^ cK  
      李咨墨 Zimo Li Q!`   
      赵南阳 Nanyang Zhao )>+J`NFa  
   zLS=>iLD{  
   f`Wces=5  
   eGE[4Z  
◎简        介 ,Z aPY  
k.K;7GZC  
  影片以中华人文始祖轩辕黄帝(于波 饰)与元妃嫘祖(周韦彤 饰)的传奇爱情故事为线索,讲述了五千年前有熊氏部落首领姬地率领族人渡黄河、斗猛兽、联合氏族战蚩尤(苏登扎木苏 饰)、最终统一华夏各部落的壮阔史诗。演绎黄帝、炎帝(王顺德 饰)、蚩尤三大部落的兴衰聚散,成功再现了远古华夏民族壮阔感人的发展历程。 ^QbaMX  
&?(472<f**  
General nX\Q{R2  
Format : Matroska ,Jqk0cW2  
Format version : Version 4 / Version 2 ("T8mt[w>  
File size : 2.20 GiB rG"QK!R5  
Duration : 1h 31mn =!P  
Overall bit rate : 3 455 Kbps Y V#|qb  
jQRl-[n  
Video Y>a2w zr  
ID : 1 S/H!a:_5r  
Format : AVC b _%W*Q  
Format/Info : Advanced Video Codec p({)ZU3  
Format profile : High@L4.0 _;8+L\  
Format settings, CABAC : Yes yE>f.|(  
Format settings, ReFrames : 4 frames [&H?--I  
Codec ID : V_MPEG4/ISO/AVC  OYwH$5  
Duration : 1h 31mn 6j5?&)xJ  
Bit rate : 2 938 Kbps M%@ =BT  
Width : 1 920 pixels * u{CnH  
Height : 800 pixels 0$e]?]X6  
Display aspect ratio : 2.40:1 $kCXp.#k@~  
Frame rate mode : Constant W y%'<f  
Frame rate : 24.038 fps I15g G.)  
Original frame rate : 24.000 fps {H$m1=S  
Color space : YUV i=DoK{`L  
Chroma subsampling : 4:2:0 aVbv.>  
Bit depth : 8 bits eq(Xzh  
Scan type : Progressive dX>l"))yR  
Bits/(Pixel*Frame) : 0.080 '@ C\,E  
Stream size : 1.87 GiB (85%) q)E J?-  
Writing library : H.264/MPEG-4 AVC codec -V 1.6.09-20151125 q"%;),@  
Default : Yes {<}kqn83sT  
Forced : No {8a s _  
Color primaries : BT.709 Ne 9R u'B6  
Transfer characteristics : BT.709 ~IP3~m D  
Matrix coefficients : BT.709 1XvB,DhJ  
2gC.Z:}  
Audio $Y Cy,Ew   
ID : 2 ?]bZ6|;2  
Format : AC-3 d,0Yi u.p  
Format/Info : Audio Coding 3 l<l6Ey(  
Mode extension : CM (complete main) ,0=@cJ  
Format settings, Endianness : Big B U^3Ux$  
Codec ID : A_AC3 1]l m0bfs  
Duration : 1h 31mn ]/y&5X  
Bit rate mode : Constant 5I(gP  
Bit rate : 448 Kbps (!^(74  
Channel(s) : 2 channels (8*& 42W  
Channel positions : Front: L R Vgh_F8G!V  
Sampling rate : 44.1 KHz t6)wR  
Bit depth : 16 bits 8yDu(.Q  
Compression mode : Lossy [|\JIr=of5  
Stream size : 292 MiB (13%) Jm+h DZrW  
Default : Yes fem>WPvG  
Forced : No ^dzg'6M  
U_UX *  
b]NSCu*)s  
}cL9`a9j  
本部分内容设定了隐藏,需要回复后才能看到