切换到宽版
  • 533阅读
  • 0回复

轩辕大帝/始祖轩辕.Xuan.Yuan.The.Great.Emperor.2016.1080p.WEB-DL.x264.AC3-SeeHD [复制链接]

上一主题 下一主题
 

只看楼主 倒序阅读 使用道具 0 发表于: 2016-07-21
dkTX  
◎译  名 轩辕大帝/始祖轩辕   jm/`iXnMf  
◎片  名 Xuan Yuan:The Great Emperor uHzU-FZ|B  
◎年  代  2016 Feq]U?  
◎国  家  中国 OA;XiR$xP  
◎类  别  剧情/历史/古装 i<Zc"v;  
◎语  言  普通话 lX4 x*  
◎字  幕  简体中文/英文 Q /0Tj]D  
◎IMDb评分 N/A /7^4O(iG  
◎IMDB链接 N/A meO:@Z0  
◎文件格式 x264 + AC3 7~.9=I'A  
◎视频尺寸 1920 x 800 ;iL#7NG-R  
◎文件大小 2.20GiB lq; P ch  
◎片  长 1h 31mn #.)0xfGW)n  
◎导  演 李晓军  Xiaojun Li je=a/Y=%U{  
◎主  演 于波  Bo Yu c 3)jccWTc  
      王德顺  Deshun Wang s9DYi~/,  
      周韦彤  Weitong Zhou w_K1]<Q*  
      班嘉佳  Jiajia Ban fuf"Ae  
      苏登扎木苏 \"OG6G_>$  
      李卫 Wei Li \\;jw[P0  
      李倩 Qian Li }N6.Uu 5zI  
      李咨墨 Zimo Li VTY 5]|;  
      赵南阳 Nanyang Zhao R8Fv{7]c  
   ~U&AI1t+J  
   5K8^WK  
   k>si5'W  
◎简        介 -k "/X8  
dJNe+ MB`  
  影片以中华人文始祖轩辕黄帝(于波 饰)与元妃嫘祖(周韦彤 饰)的传奇爱情故事为线索,讲述了五千年前有熊氏部落首领姬地率领族人渡黄河、斗猛兽、联合氏族战蚩尤(苏登扎木苏 饰)、最终统一华夏各部落的壮阔史诗。演绎黄帝、炎帝(王顺德 饰)、蚩尤三大部落的兴衰聚散,成功再现了远古华夏民族壮阔感人的发展历程。 7Kxp=-k  
>e5 qv(y]  
General pB0 \\wR  
Format : Matroska G mA< g  
Format version : Version 4 / Version 2 tJ$_lk ~6q  
File size : 2.20 GiB 07{)?1cod4  
Duration : 1h 31mn bdE[;+58  
Overall bit rate : 3 455 Kbps 4zFW-yy  
)|# sfHv7  
Video &`2)V;t  
ID : 1 m#\ dSl }  
Format : AVC hf&9uHN%7m  
Format/Info : Advanced Video Codec ml }{|Yz  
Format profile : High@L4.0 }`m/bgtFX  
Format settings, CABAC : Yes /R wjCUf  
Format settings, ReFrames : 4 frames p>8D;#Hm L  
Codec ID : V_MPEG4/ISO/AVC LyFN.2qw  
Duration : 1h 31mn _u QOHwn  
Bit rate : 2 938 Kbps :& ."ttf=  
Width : 1 920 pixels #Ki[$bS~6  
Height : 800 pixels sdw(R#GE  
Display aspect ratio : 2.40:1 j*r{2f4Rt  
Frame rate mode : Constant IF:;`r@%  
Frame rate : 24.038 fps }b.%Im<3R  
Original frame rate : 24.000 fps I^$fMdT  
Color space : YUV g{&ui.ml&  
Chroma subsampling : 4:2:0 gV_}-VvP  
Bit depth : 8 bits toC^LZgZ_6  
Scan type : Progressive uJ v-4H  
Bits/(Pixel*Frame) : 0.080 &6nWzF  
Stream size : 1.87 GiB (85%) [Y| t]^M  
Writing library : H.264/MPEG-4 AVC codec -V 1.6.09-20151125 \(2sW^fY  
Default : Yes &&>ekG 9@  
Forced : No YS"=yye 3e  
Color primaries : BT.709 9CD_ os\h  
Transfer characteristics : BT.709 0YDR1dO(*  
Matrix coefficients : BT.709 nZYBE030  
</*6wpN  
Audio I9ep`X6Y  
ID : 2 o|["SYIf  
Format : AC-3 ##"HF  
Format/Info : Audio Coding 3 ]~3V}z,T*  
Mode extension : CM (complete main) r mg}N  
Format settings, Endianness : Big -e:`|(Mo  
Codec ID : A_AC3 C e$w8z  
Duration : 1h 31mn ;u)I\3`*!  
Bit rate mode : Constant A2Gevj?F$  
Bit rate : 448 Kbps [`7ThHX  
Channel(s) : 2 channels 3)ywX&4"L  
Channel positions : Front: L R $-sHWYZ  
Sampling rate : 44.1 KHz qY!Zt_Be6  
Bit depth : 16 bits #KZBsa@p  
Compression mode : Lossy }&D32\  
Stream size : 292 MiB (13%) <7jW _R@  
Default : Yes (<C3Vts))  
Forced : No I b5rqU\  
j&qub_j"xX  
gRcQt:  
Xc&9Glf  
本部分内容设定了隐藏,需要回复后才能看到