切换到宽版
  • 500阅读
  • 0回复

轩辕大帝/始祖轩辕.Xuan.Yuan.The.Great.Emperor.2016.1080p.WEB-DL.x264.AC3-SeeHD [复制链接]

上一主题 下一主题
 

只看楼主 倒序阅读 使用道具 0 发表于: 2016-07-21
<am7t[G."  
◎译  名 轩辕大帝/始祖轩辕   R}Y=!qjYE=  
◎片  名 Xuan Yuan:The Great Emperor E;Hjw0M'k  
◎年  代  2016 jdp: G  
◎国  家  中国 u"T^DrRlQ  
◎类  别  剧情/历史/古装 T}TP.!0E  
◎语  言  普通话 /0uinx  
◎字  幕  简体中文/英文 c%!wKoD  
◎IMDb评分 N/A 8(;i~f:bCW  
◎IMDB链接 N/A 3"n8B6  
◎文件格式 x264 + AC3 F)w83[5_d  
◎视频尺寸 1920 x 800 c53`E U  
◎文件大小 2.20GiB 2cl~Va=  
◎片  长 1h 31mn tK H!xit  
◎导  演 李晓军  Xiaojun Li WGx>{'LJ  
◎主  演 于波  Bo Yu %R>S"  
      王德顺  Deshun Wang uSJP"Lw  
      周韦彤  Weitong Zhou -EaZ<d[|0  
      班嘉佳  Jiajia Ban "tARJW  
      苏登扎木苏 QEKFuY<E+  
      李卫 Wei Li xn8B|axB  
      李倩 Qian Li 8|GpfW3p 2  
      李咨墨 Zimo Li i#=X#_ +El  
      赵南阳 Nanyang Zhao ]Dg0@Y  
   tV9C33  
   2A|6o*s"  
   !X8R  
◎简        介 !?/bK[ P,  
9A(K_d-!H  
  影片以中华人文始祖轩辕黄帝(于波 饰)与元妃嫘祖(周韦彤 饰)的传奇爱情故事为线索,讲述了五千年前有熊氏部落首领姬地率领族人渡黄河、斗猛兽、联合氏族战蚩尤(苏登扎木苏 饰)、最终统一华夏各部落的壮阔史诗。演绎黄帝、炎帝(王顺德 饰)、蚩尤三大部落的兴衰聚散,成功再现了远古华夏民族壮阔感人的发展历程。 UD`Z;F  
=[+&({  
General C>dJ:.K%H  
Format : Matroska x?'%  
Format version : Version 4 / Version 2 8-ssiiJ}gh  
File size : 2.20 GiB 8v 1%H8  
Duration : 1h 31mn ;%alZ  
Overall bit rate : 3 455 Kbps vP?S0>gh  
q: EQ,  
Video ]#.&f]6l  
ID : 1 eE%yo3  
Format : AVC H> iZVE  
Format/Info : Advanced Video Codec ~HRWKPb  
Format profile : High@L4.0 @I6A9do  
Format settings, CABAC : Yes <h51KPo^P  
Format settings, ReFrames : 4 frames r.^X>?  
Codec ID : V_MPEG4/ISO/AVC F$ p*G][  
Duration : 1h 31mn  89=JC[c  
Bit rate : 2 938 Kbps Ec*7n6~9  
Width : 1 920 pixels $ _Bu,;  
Height : 800 pixels D D;+& fe  
Display aspect ratio : 2.40:1 0]W]#X4A  
Frame rate mode : Constant < DZ76  
Frame rate : 24.038 fps Ytwv=;h-   
Original frame rate : 24.000 fps 3|r!*+.  
Color space : YUV k]9>V@C  
Chroma subsampling : 4:2:0 c.A/{a  
Bit depth : 8 bits ]mo<qWRc>p  
Scan type : Progressive ps y(]Pf  
Bits/(Pixel*Frame) : 0.080 >1pH 91c'  
Stream size : 1.87 GiB (85%) DB'KIw  
Writing library : H.264/MPEG-4 AVC codec -V 1.6.09-20151125 Yf)|ws?!  
Default : Yes  ^-*Tn  
Forced : No U]EuDNkO{  
Color primaries : BT.709 gJ8 c]2c  
Transfer characteristics : BT.709 &|"I0|tJ  
Matrix coefficients : BT.709 wK`ieHmp  
M #=5u`h  
Audio YGV#.  
ID : 2 y&=19 A#  
Format : AC-3 o ]jP3 $t;  
Format/Info : Audio Coding 3 %R*vSRG/U  
Mode extension : CM (complete main) @&xaaqQ-  
Format settings, Endianness : Big EQOP?>mWx!  
Codec ID : A_AC3 g74z]Uj.B  
Duration : 1h 31mn !v4j`A;%  
Bit rate mode : Constant S}Y|s]6  
Bit rate : 448 Kbps C 3XZD4.2  
Channel(s) : 2 channels B"Kce"!  
Channel positions : Front: L R J[Yg]6  
Sampling rate : 44.1 KHz >g"M.gW  
Bit depth : 16 bits C"^hMsU8  
Compression mode : Lossy \pD=Lv9  
Stream size : 292 MiB (13%) V]kGcS}  
Default : Yes i@R$g~~-D  
Forced : No 9}jq`xSL  
]F* a PV  
L8]{B  
5H :~6z  
本部分内容设定了隐藏,需要回复后才能看到