切换到宽版
  • 376阅读
  • 0回复

轩辕大帝/始祖轩辕.Xuan.Yuan.The.Great.Emperor.2016.1080p.WEB-DL.x264.AC3-SeeHD [复制链接]

上一主题 下一主题
 

只看楼主 倒序阅读 使用道具 0 发表于: 2016-07-21
4|ML#aRz  
◎译  名 轩辕大帝/始祖轩辕   *S%~0=  
◎片  名 Xuan Yuan:The Great Emperor a9}7K/Y=d  
◎年  代  2016 bwG$\Oe6  
◎国  家  中国 5%Hw,h   
◎类  别  剧情/历史/古装 8eGq.+5G  
◎语  言  普通话 !Z]#1"A8  
◎字  幕  简体中文/英文 +-"uJIwMD  
◎IMDb评分 N/A +#ufW%ZG  
◎IMDB链接 N/A ObnQ,x(  
◎文件格式 x264 + AC3 pL 2P .  
◎视频尺寸 1920 x 800 h9-^aB$8^  
◎文件大小 2.20GiB }w&W\g+E$  
◎片  长 1h 31mn PuO5@SP~  
◎导  演 李晓军  Xiaojun Li nM#/uuRl|  
◎主  演 于波  Bo Yu  r`-=<@[  
      王德顺  Deshun Wang "}*5'e.*  
      周韦彤  Weitong Zhou ^`iqa-1  
      班嘉佳  Jiajia Ban e\)r"!?H`  
      苏登扎木苏 \*yH33B9  
      李卫 Wei Li U-+o6XX  
      李倩 Qian Li AcHr X=O  
      李咨墨 Zimo Li +-2W{lX  
      赵南阳 Nanyang Zhao S(2_s,J^  
   db*yA@2Lg  
   }vK8P r%  
   NdxPC~Z+  
◎简        介 t4d^DZDh!  
0q6xXNAX  
  影片以中华人文始祖轩辕黄帝(于波 饰)与元妃嫘祖(周韦彤 饰)的传奇爱情故事为线索,讲述了五千年前有熊氏部落首领姬地率领族人渡黄河、斗猛兽、联合氏族战蚩尤(苏登扎木苏 饰)、最终统一华夏各部落的壮阔史诗。演绎黄帝、炎帝(王顺德 饰)、蚩尤三大部落的兴衰聚散,成功再现了远古华夏民族壮阔感人的发展历程。 9z#z9|hj)3  
~v>3lEGn*  
General 3-Bz5sj9  
Format : Matroska >q&X#E<w  
Format version : Version 4 / Version 2 P(xgIMc H  
File size : 2.20 GiB lJvfgP-j  
Duration : 1h 31mn (&i c3/-  
Overall bit rate : 3 455 Kbps 6c6w w"  
Bv xLbl}  
Video ]y9u5H^  
ID : 1 .k -!/^  
Format : AVC oM^VtH=>  
Format/Info : Advanced Video Codec 7}L.(Jp9  
Format profile : High@L4.0 k 1l K`p  
Format settings, CABAC : Yes ~K@p`CRbV  
Format settings, ReFrames : 4 frames =d BK,/  
Codec ID : V_MPEG4/ISO/AVC ujWC!*W(Q  
Duration : 1h 31mn SFjRSMi  
Bit rate : 2 938 Kbps %RX!Pi}5+g  
Width : 1 920 pixels 9 K>~9Za  
Height : 800 pixels 5SEGV| %  
Display aspect ratio : 2.40:1 (qw;-A W8  
Frame rate mode : Constant o'_eLp  
Frame rate : 24.038 fps L fvNO/:,  
Original frame rate : 24.000 fps %O9P|04]3  
Color space : YUV I6i qC"BK  
Chroma subsampling : 4:2:0 N C3XJ 4  
Bit depth : 8 bits vt#&YXu{A  
Scan type : Progressive *XI- nH  
Bits/(Pixel*Frame) : 0.080 p^C$(}Yh  
Stream size : 1.87 GiB (85%) 8iPA^b|sz{  
Writing library : H.264/MPEG-4 AVC codec -V 1.6.09-20151125 J;k8 a2$_  
Default : Yes Tdxc%'l  
Forced : No PKZMuEEy,  
Color primaries : BT.709 swg*fhJFB  
Transfer characteristics : BT.709 WtlLqD!_D  
Matrix coefficients : BT.709 )&[ol9+\  
G%dzJpC(  
Audio 0pBG^I`_  
ID : 2 *iUR1V Y  
Format : AC-3 }-@h H(  
Format/Info : Audio Coding 3 >&JS-j Fg  
Mode extension : CM (complete main) @`nU=kY/  
Format settings, Endianness : Big au+ a7~0~  
Codec ID : A_AC3 l M a||  
Duration : 1h 31mn hM[I}$M&O  
Bit rate mode : Constant fS4 R u  
Bit rate : 448 Kbps J@IF='{  
Channel(s) : 2 channels Bam 4%G5  
Channel positions : Front: L R ={I( i6  
Sampling rate : 44.1 KHz ]eI|_O^u  
Bit depth : 16 bits DuRC1@e  
Compression mode : Lossy /< \do 1  
Stream size : 292 MiB (13%) fK4NmdT V  
Default : Yes :&m0eZZ%  
Forced : No -V52?Hq  
~./M5P!\  
Y~ Nt9L  
+?Y(6$o  
本部分内容设定了隐藏,需要回复后才能看到