切换到宽版
  • 561阅读
  • 0回复

轩辕大帝/始祖轩辕.Xuan.Yuan.The.Great.Emperor.2016.1080p.WEB-DL.x264.AC3-SeeHD [复制链接]

上一主题 下一主题
 

只看楼主 倒序阅读 使用道具 0 发表于: 2016-07-21
MekT?KPQ{L  
◎译  名 轩辕大帝/始祖轩辕   RNv{n mf  
◎片  名 Xuan Yuan:The Great Emperor o,S!RG&  
◎年  代  2016 v%H"_T  
◎国  家  中国 J6)efX)j-p  
◎类  别  剧情/历史/古装  OLk9A  
◎语  言  普通话 hH <6E  
◎字  幕  简体中文/英文 pT("2:)x  
◎IMDb评分 N/A Rro?q  
◎IMDB链接 N/A 42b.7E  
◎文件格式 x264 + AC3 dV5PhP>6  
◎视频尺寸 1920 x 800 GXT]K>LA  
◎文件大小 2.20GiB ZhhI@_sz  
◎片  长 1h 31mn E:08%4O  
◎导  演 李晓军  Xiaojun Li 0n4g $JK7  
◎主  演 于波  Bo Yu \p5|}<Sr)  
      王德顺  Deshun Wang a$C2}  
      周韦彤  Weitong Zhou +mJ :PAy4  
      班嘉佳  Jiajia Ban G;2R]H#p  
      苏登扎木苏 y=[gQJ6~r  
      李卫 Wei Li J+{Ou rWt  
      李倩 Qian Li b->eg 8|  
      李咨墨 Zimo Li n 11LxGwk  
      赵南阳 Nanyang Zhao -h>Z,-DE6  
   \:]DFZ=!  
   Oq*n9V  
    5JS ZLC  
◎简        介 *R5`.j =  
Dq?E\  
  影片以中华人文始祖轩辕黄帝(于波 饰)与元妃嫘祖(周韦彤 饰)的传奇爱情故事为线索,讲述了五千年前有熊氏部落首领姬地率领族人渡黄河、斗猛兽、联合氏族战蚩尤(苏登扎木苏 饰)、最终统一华夏各部落的壮阔史诗。演绎黄帝、炎帝(王顺德 饰)、蚩尤三大部落的兴衰聚散,成功再现了远古华夏民族壮阔感人的发展历程。 &svx@wW  
$[[?;g  
General p={Jf}v  
Format : Matroska W0Ktw6  
Format version : Version 4 / Version 2 /r276Q  
File size : 2.20 GiB ITVQLQ  
Duration : 1h 31mn q<n[.u1@  
Overall bit rate : 3 455 Kbps *~c qr  
G;/Q>V  
Video !6M Bxg>  
ID : 1 -^yXLa;D  
Format : AVC <x0)7xX  
Format/Info : Advanced Video Codec nt=x]wEC  
Format profile : High@L4.0 M~als3  
Format settings, CABAC : Yes (/&;jV2DD[  
Format settings, ReFrames : 4 frames ba8 6 N  
Codec ID : V_MPEG4/ISO/AVC >W r$Y{  
Duration : 1h 31mn  }<=3W5+  
Bit rate : 2 938 Kbps @@Q6TB  
Width : 1 920 pixels 3 -tO;GKb  
Height : 800 pixels N&"QKd l  
Display aspect ratio : 2.40:1 YJd8l>mz  
Frame rate mode : Constant S.: 7k9  
Frame rate : 24.038 fps {=3B)+N  
Original frame rate : 24.000 fps fuMN"T 6%+  
Color space : YUV |=O1Hn  
Chroma subsampling : 4:2:0 )Ob]T{GY  
Bit depth : 8 bits #,&8&  
Scan type : Progressive L=RGL+f1 _  
Bits/(Pixel*Frame) : 0.080 wZ jlHe  
Stream size : 1.87 GiB (85%) oE1M/*myS  
Writing library : H.264/MPEG-4 AVC codec -V 1.6.09-20151125 :N2E}hxk  
Default : Yes b0 &  
Forced : No Yrxk Kw#  
Color primaries : BT.709 !4t`Hv?'  
Transfer characteristics : BT.709 :k~dj C  
Matrix coefficients : BT.709 Q ]"jD#F  
Wwhgo.Wx  
Audio o&z!6"S<  
ID : 2 C',6%6P  
Format : AC-3 #-{N Ws\  
Format/Info : Audio Coding 3 &cc9}V)M  
Mode extension : CM (complete main) ($62o& I  
Format settings, Endianness : Big zJY']8ah  
Codec ID : A_AC3 BqB |Fo  
Duration : 1h 31mn Q_]~0PoH  
Bit rate mode : Constant .*Vkua  
Bit rate : 448 Kbps (rcMA>2=  
Channel(s) : 2 channels 90fs:.  
Channel positions : Front: L R k][h9'  
Sampling rate : 44.1 KHz r P'AJDuq  
Bit depth : 16 bits NEV p8)w  
Compression mode : Lossy _R^y\1Qu  
Stream size : 292 MiB (13%) ?YBaO,G9o  
Default : Yes 'Jydu   
Forced : No >b48>@~bY  
<bUXC@3W  
!n<o)DsZR  
<6jFKA<  
本部分内容设定了隐藏,需要回复后才能看到