切换到宽版
  • 532阅读
  • 0回复

轩辕大帝/始祖轩辕.Xuan.Yuan.The.Great.Emperor.2016.1080p.WEB-DL.x264.AC3-SeeHD [复制链接]

上一主题 下一主题
 

只看楼主 倒序阅读 使用道具 0 发表于: 2016-07-21
P%:?"t+J`;  
◎译  名 轩辕大帝/始祖轩辕   *OA(v^@tx7  
◎片  名 Xuan Yuan:The Great Emperor ^mL X}E]  
◎年  代  2016 g)6>=Qo`8E  
◎国  家  中国 QKjn/%l"@  
◎类  别  剧情/历史/古装 poAJl;T  
◎语  言  普通话 `<g]p-=":  
◎字  幕  简体中文/英文 3: GwX4yW  
◎IMDb评分 N/A 2OUx@Vj  
◎IMDB链接 N/A %.d.h;^T  
◎文件格式 x264 + AC3 <-.@,HQ+  
◎视频尺寸 1920 x 800 IM1&g7Qs2  
◎文件大小 2.20GiB i[[.1MnS  
◎片  长 1h 31mn E"'u2jEG^  
◎导  演 李晓军  Xiaojun Li #M~yt`R~  
◎主  演 于波  Bo Yu J&j5@  
      王德顺  Deshun Wang c1E{J <pZ  
      周韦彤  Weitong Zhou CJk"yW[,|  
      班嘉佳  Jiajia Ban .#~!w!T  
      苏登扎木苏 y7/4u-_c  
      李卫 Wei Li &wlD`0v  
      李倩 Qian Li :4AIYk=q  
      李咨墨 Zimo Li D]_6OlIE#'  
      赵南阳 Nanyang Zhao ^.:&ZsqV  
   &jY| :Fe  
   3Iqvc v  
   .u\$wJ9Ai  
◎简        介 9ye!kYF,  
j5DCc,s  
  影片以中华人文始祖轩辕黄帝(于波 饰)与元妃嫘祖(周韦彤 饰)的传奇爱情故事为线索,讲述了五千年前有熊氏部落首领姬地率领族人渡黄河、斗猛兽、联合氏族战蚩尤(苏登扎木苏 饰)、最终统一华夏各部落的壮阔史诗。演绎黄帝、炎帝(王顺德 饰)、蚩尤三大部落的兴衰聚散,成功再现了远古华夏民族壮阔感人的发展历程。 1n<4yfJ  
;:Z5Ft m  
General l@&-be  
Format : Matroska 0rL.~2)V  
Format version : Version 4 / Version 2 \)5mO 8w  
File size : 2.20 GiB sSfP.R  
Duration : 1h 31mn 7 q!==P=  
Overall bit rate : 3 455 Kbps -ysNo4#e&  
L{VnsY V  
Video ~ S<aIk0l  
ID : 1 uDND o  
Format : AVC |J4sQ!%K  
Format/Info : Advanced Video Codec ]&H"EHC<$  
Format profile : High@L4.0 Z$INmo6  
Format settings, CABAC : Yes Wu* 4r0  
Format settings, ReFrames : 4 frames fZpi+I  
Codec ID : V_MPEG4/ISO/AVC sN8pwRjb  
Duration : 1h 31mn eCR^$z=c  
Bit rate : 2 938 Kbps 3 1c*^ZE.  
Width : 1 920 pixels eI"pRH*f  
Height : 800 pixels 1K#[Ef4  
Display aspect ratio : 2.40:1 ML'y`S  
Frame rate mode : Constant 59{X;  
Frame rate : 24.038 fps ]e),#_M  
Original frame rate : 24.000 fps bK!h{Rr  
Color space : YUV IagM#}m@  
Chroma subsampling : 4:2:0 }wRm ~  
Bit depth : 8 bits ),vDn}>  
Scan type : Progressive )V~=B]  
Bits/(Pixel*Frame) : 0.080  :QP1!  
Stream size : 1.87 GiB (85%) @Ol(:{<  
Writing library : H.264/MPEG-4 AVC codec -V 1.6.09-20151125 G=[<KtWa  
Default : Yes -5  
Forced : No /0qbRk i  
Color primaries : BT.709 7'e sJ)2  
Transfer characteristics : BT.709 ^%zhj3#  
Matrix coefficients : BT.709 )%S@l<%@?  
'W hJ}Uo\  
Audio %w[Z/  
ID : 2 aL[6}U0(}  
Format : AC-3 x5MS#c!7  
Format/Info : Audio Coding 3 e`b#,=  
Mode extension : CM (complete main) 6d/Q"As  
Format settings, Endianness : Big p%meuWV%5  
Codec ID : A_AC3 mrRid}2  
Duration : 1h 31mn >w<w*pC  
Bit rate mode : Constant m-azd ~r[  
Bit rate : 448 Kbps gIz!~I_U  
Channel(s) : 2 channels Z5(9=8h B/  
Channel positions : Front: L R }R 16WY_'  
Sampling rate : 44.1 KHz yIn$A pSGY  
Bit depth : 16 bits kd!?N  
Compression mode : Lossy fWq*Op.]c  
Stream size : 292 MiB (13%) 2`riI*fQ  
Default : Yes N8pL2y:R[P  
Forced : No 8u~  
In_"iEo,  
F<b'{qf"  
:!g|pd[{ag  
本部分内容设定了隐藏,需要回复后才能看到