切换到宽版
  • 560阅读
  • 0回复

轩辕大帝/始祖轩辕.Xuan.Yuan.The.Great.Emperor.2016.1080p.WEB-DL.x264.AC3-SeeHD [复制链接]

上一主题 下一主题
 

只看楼主 倒序阅读 使用道具 0 发表于: 2016-07-21
c0rU&+:Ry  
◎译  名 轩辕大帝/始祖轩辕   2eeFaFif  
◎片  名 Xuan Yuan:The Great Emperor @D=%J!!*  
◎年  代  2016 GUqG1u z9  
◎国  家  中国 c3ru4o*K  
◎类  别  剧情/历史/古装 Lccy~2v>  
◎语  言  普通话 tPN CdA  
◎字  幕  简体中文/英文 j;V\~[I^u  
◎IMDb评分 N/A r} ^1dO  
◎IMDB链接 N/A <|?)^;R5!  
◎文件格式 x264 + AC3 aaw[ia_EL  
◎视频尺寸 1920 x 800 bu<d>XR  
◎文件大小 2.20GiB d!}oS<6  
◎片  长 1h 31mn Jc}6kFgO6  
◎导  演 李晓军  Xiaojun Li g6P^JW}.  
◎主  演 于波  Bo Yu >;Vfs{Z(q  
      王德顺  Deshun Wang +kEM%z  
      周韦彤  Weitong Zhou :).NA ]  
      班嘉佳  Jiajia Ban  ;Ss!OFK  
      苏登扎木苏 -y|']I^ &  
      李卫 Wei Li _KkaseR  
      李倩 Qian Li jb,a>9 ]p  
      李咨墨 Zimo Li dT% eq7=  
      赵南阳 Nanyang Zhao jF j'6LT9/  
   izGU&VeB  
   @>.a QE  
    U#K4)(C  
◎简        介 nTD%i~t~o  
r79 P|)\  
  影片以中华人文始祖轩辕黄帝(于波 饰)与元妃嫘祖(周韦彤 饰)的传奇爱情故事为线索,讲述了五千年前有熊氏部落首领姬地率领族人渡黄河、斗猛兽、联合氏族战蚩尤(苏登扎木苏 饰)、最终统一华夏各部落的壮阔史诗。演绎黄帝、炎帝(王顺德 饰)、蚩尤三大部落的兴衰聚散,成功再现了远古华夏民族壮阔感人的发展历程。 TQNdBq5I6  
ts@Z5Yw*!  
General ^ <`SUBI  
Format : Matroska DR3om;Uk  
Format version : Version 4 / Version 2 K@xMPB8in  
File size : 2.20 GiB xgj'um  
Duration : 1h 31mn Mp!1xx  
Overall bit rate : 3 455 Kbps rw3tU0j  
EW vhT]<0  
Video Ta/zDc"e  
ID : 1  [ OUV!o  
Format : AVC +/eJ#Xw3u8  
Format/Info : Advanced Video Codec pY3/AO=  
Format profile : High@L4.0 +;,J0,Yn  
Format settings, CABAC : Yes eq8faC5  
Format settings, ReFrames : 4 frames kdlmj[=  
Codec ID : V_MPEG4/ISO/AVC );}M"W8  
Duration : 1h 31mn LVm']_K(f  
Bit rate : 2 938 Kbps DNgh#!\X  
Width : 1 920 pixels KnA BFH  
Height : 800 pixels *{k{  
Display aspect ratio : 2.40:1 C;/ONF   
Frame rate mode : Constant &{glwVKV  
Frame rate : 24.038 fps 5 -|7I7(G$  
Original frame rate : 24.000 fps Qjnh;uBO  
Color space : YUV B hx.q,X  
Chroma subsampling : 4:2:0 ' %ZKvZ-  
Bit depth : 8 bits KU{zzn;g  
Scan type : Progressive K0C"s 'q  
Bits/(Pixel*Frame) : 0.080 IBeorDIZ  
Stream size : 1.87 GiB (85%) wme#8/eUk  
Writing library : H.264/MPEG-4 AVC codec -V 1.6.09-20151125 gg^iYTpt  
Default : Yes O43"-  
Forced : No .>[l@x"  
Color primaries : BT.709 xr@;w8X`^  
Transfer characteristics : BT.709 7G;1n0m-T  
Matrix coefficients : BT.709 dMsS OP0E  
Sw; kUJ  
Audio ):Z #!O<  
ID : 2 qrj f  
Format : AC-3 @6+_0^  
Format/Info : Audio Coding 3 \>wQyz  
Mode extension : CM (complete main) ;Gn>W+Ae M  
Format settings, Endianness : Big W.cc!8  
Codec ID : A_AC3 i%<NKE;v7m  
Duration : 1h 31mn ;/wH/!b  
Bit rate mode : Constant lc~c=17  
Bit rate : 448 Kbps m;rr7{7X  
Channel(s) : 2 channels jVOq/o  
Channel positions : Front: L R ,ZrR*W?iF  
Sampling rate : 44.1 KHz FNOsw\Bo  
Bit depth : 16 bits /=AFle2(  
Compression mode : Lossy -EFdP]XO  
Stream size : 292 MiB (13%) )eZ}Kt+  
Default : Yes na9YlJ\  
Forced : No !t~tIJ>6  
4 $Kzh  
;~$Q;m 1  
S *J{  
本部分内容设定了隐藏,需要回复后才能看到