切换到宽版
  • 372阅读
  • 0回复

轩辕大帝/始祖轩辕.Xuan.Yuan.The.Great.Emperor.2016.1080p.WEB-DL.x264.AC3-SeeHD [复制链接]

上一主题 下一主题
 

只看楼主 倒序阅读 使用道具 0 发表于: 2016-07-21
;;XY&J  
◎译  名 轩辕大帝/始祖轩辕   cXf/  
◎片  名 Xuan Yuan:The Great Emperor &`vThs[x  
◎年  代  2016 MZcvr9y  
◎国  家  中国 f\q5{#"z  
◎类  别  剧情/历史/古装 =A{'57yP  
◎语  言  普通话 02%~HBS  
◎字  幕  简体中文/英文 ?MmQ'1N  
◎IMDb评分 N/A +F-Y^):  
◎IMDB链接 N/A DTo"{!  
◎文件格式 x264 + AC3  4 x4[  
◎视频尺寸 1920 x 800 5M #',(X  
◎文件大小 2.20GiB +opym !\  
◎片  长 1h 31mn KSEKoHJo  
◎导  演 李晓军  Xiaojun Li z[R dM#L  
◎主  演 于波  Bo Yu tSoF!@6  
      王德顺  Deshun Wang 3$ :F/H  
      周韦彤  Weitong Zhou !v9`oL26  
      班嘉佳  Jiajia Ban \+Y=}P>  
      苏登扎木苏 aj .7t =^  
      李卫 Wei Li O\Z!7UQ$  
      李倩 Qian Li /n>vPJvz  
      李咨墨 Zimo Li hgE :2@  
      赵南阳 Nanyang Zhao  ^4Xsdh5  
   P0OMu/  
   )t7 MD(  
   #8M^;4N >[  
◎简        介 h <$%y(lP  
u(f;4`  
  影片以中华人文始祖轩辕黄帝(于波 饰)与元妃嫘祖(周韦彤 饰)的传奇爱情故事为线索,讲述了五千年前有熊氏部落首领姬地率领族人渡黄河、斗猛兽、联合氏族战蚩尤(苏登扎木苏 饰)、最终统一华夏各部落的壮阔史诗。演绎黄帝、炎帝(王顺德 饰)、蚩尤三大部落的兴衰聚散,成功再现了远古华夏民族壮阔感人的发展历程。 gN[t  
~7g$T Ae{  
General q{b-2k  
Format : Matroska !^0vi3I  
Format version : Version 4 / Version 2 W7_m,{q  
File size : 2.20 GiB 3c wBPqH  
Duration : 1h 31mn FU .%td=:  
Overall bit rate : 3 455 Kbps JgKhrDx  
?vI2mr a+  
Video eK*oV}U-k  
ID : 1 }-XZ1qr  
Format : AVC VSV]6$~H  
Format/Info : Advanced Video Codec I2SH j6 -  
Format profile : High@L4.0 (RG "2I3  
Format settings, CABAC : Yes =Bm|9A1  
Format settings, ReFrames : 4 frames YN <vOv  
Codec ID : V_MPEG4/ISO/AVC ,2 W=/,5A  
Duration : 1h 31mn ^>Z7."uGY  
Bit rate : 2 938 Kbps |4 2;171  
Width : 1 920 pixels p$jAq~C  
Height : 800 pixels :?FHqfN?_  
Display aspect ratio : 2.40:1 8JF<SQ  
Frame rate mode : Constant P6ktA-Hv>  
Frame rate : 24.038 fps |_7k*:#q:  
Original frame rate : 24.000 fps WQiRbbX  
Color space : YUV j;z7T;!i  
Chroma subsampling : 4:2:0 Vky]In =  
Bit depth : 8 bits ;bg]H >$U7  
Scan type : Progressive )S`[ gK  
Bits/(Pixel*Frame) : 0.080 kTI5CoXzq  
Stream size : 1.87 GiB (85%) #-+Q]}fB4  
Writing library : H.264/MPEG-4 AVC codec -V 1.6.09-20151125 SDE$ymP x  
Default : Yes >$- YNZA   
Forced : No (S+/e5c)  
Color primaries : BT.709 K*b* ]hf{  
Transfer characteristics : BT.709 yFb" 2  
Matrix coefficients : BT.709 X;UEq]kcmn  
Cojs;`3iF:  
Audio QKq4kAaJ!  
ID : 2 ' v CMf  
Format : AC-3 6m(? (6+;K  
Format/Info : Audio Coding 3 ty"L&$bf  
Mode extension : CM (complete main) aQ\SV0PI  
Format settings, Endianness : Big N wNxO  
Codec ID : A_AC3 v^s?=9  
Duration : 1h 31mn U\qbr.<  
Bit rate mode : Constant >Ovz;  
Bit rate : 448 Kbps w+*rbJ  
Channel(s) : 2 channels p!=8Pq.  
Channel positions : Front: L R YlG#sBzl  
Sampling rate : 44.1 KHz +2 oZML  
Bit depth : 16 bits GBRiU &D  
Compression mode : Lossy =LK`m NA  
Stream size : 292 MiB (13%) N5=}0s]e  
Default : Yes .-& =\}^2l  
Forced : No 0Qvr g+  
tK{#kApHGG  
,Fkq/h  
h@ ZC{B  
本部分内容设定了隐藏,需要回复后才能看到