切换到宽版
  • 501阅读
  • 0回复

轩辕大帝/始祖轩辕.Xuan.Yuan.The.Great.Emperor.2016.1080p.WEB-DL.x264.AC3-SeeHD [复制链接]

上一主题 下一主题
 

只看楼主 倒序阅读 使用道具 0 发表于: 2016-07-21
({ 8-*  
◎译  名 轩辕大帝/始祖轩辕   `n.5f[wC  
◎片  名 Xuan Yuan:The Great Emperor Sj-n;F|=X  
◎年  代  2016 c-x,fS"&W  
◎国  家  中国 e|NG"<  
◎类  别  剧情/历史/古装 :iK(JE`   
◎语  言  普通话 O%Scjm-^X  
◎字  幕  简体中文/英文 Rvkedb  
◎IMDb评分 N/A 7G:s2432  
◎IMDB链接 N/A )s)I2Z+  
◎文件格式 x264 + AC3 NC8t) X7  
◎视频尺寸 1920 x 800 4{}FL  
◎文件大小 2.20GiB &)YQvTzs  
◎片  长 1h 31mn ;PF`Wj  
◎导  演 李晓军  Xiaojun Li N/[p <  
◎主  演 于波  Bo Yu kj|6iG  
      王德顺  Deshun Wang $CxKuB(  
      周韦彤  Weitong Zhou sWQfr$^A  
      班嘉佳  Jiajia Ban &Q9qq~  
      苏登扎木苏 0v6)t.]s  
      李卫 Wei Li Rh3eLt~|(  
      李倩 Qian Li Y_Eb'*PY  
      李咨墨 Zimo Li efSM`!%j  
      赵南阳 Nanyang Zhao )) Zf|86N  
   (ScxLf=]  
   hMzs*gK  
   ]fm'ZY&  
◎简        介 tN[L@t9#cr  
&w4?)#  
  影片以中华人文始祖轩辕黄帝(于波 饰)与元妃嫘祖(周韦彤 饰)的传奇爱情故事为线索,讲述了五千年前有熊氏部落首领姬地率领族人渡黄河、斗猛兽、联合氏族战蚩尤(苏登扎木苏 饰)、最终统一华夏各部落的壮阔史诗。演绎黄帝、炎帝(王顺德 饰)、蚩尤三大部落的兴衰聚散,成功再现了远古华夏民族壮阔感人的发展历程。 'QG xd!4  
cO- 7ke  
General [N FFB96  
Format : Matroska LU+3{O5y  
Format version : Version 4 / Version 2 ,V'o4]H  
File size : 2.20 GiB 32l3vv.j  
Duration : 1h 31mn r~[Ia!U?  
Overall bit rate : 3 455 Kbps Dw|}9;5:A  
h}-3\8 >  
Video l_3`G-`2  
ID : 1 Twh!X*uQ  
Format : AVC ;1#H62Z*  
Format/Info : Advanced Video Codec PEN \-*Pv  
Format profile : High@L4.0 wWgWWX GT}  
Format settings, CABAC : Yes X#d~zk[r2  
Format settings, ReFrames : 4 frames ,9?BcD1  
Codec ID : V_MPEG4/ISO/AVC U6=..K!q  
Duration : 1h 31mn ?=>+ LqP  
Bit rate : 2 938 Kbps S(QpM.9*  
Width : 1 920 pixels WJ)z6m]  
Height : 800 pixels |\w=u6jX  
Display aspect ratio : 2.40:1 ;sfb 4x4  
Frame rate mode : Constant 7ByTnYe~S  
Frame rate : 24.038 fps 3WN`y8l  
Original frame rate : 24.000 fps 8'n/?.7cX  
Color space : YUV NHB4y/2  
Chroma subsampling : 4:2:0 #btLa\HJ  
Bit depth : 8 bits [N1hWcfvd  
Scan type : Progressive U93}-){m  
Bits/(Pixel*Frame) : 0.080 `(T,+T4C5k  
Stream size : 1.87 GiB (85%) a5 *2h{i  
Writing library : H.264/MPEG-4 AVC codec -V 1.6.09-20151125 D@G\7 KH@  
Default : Yes og4UhP^UET  
Forced : No "-_fv5jL  
Color primaries : BT.709 ()t p>  
Transfer characteristics : BT.709 F1iGMf-8  
Matrix coefficients : BT.709 Tskq)NU  
P-`M  
Audio MzPzqm<  
ID : 2 X_qf"|i  
Format : AC-3 . 7zK@6i  
Format/Info : Audio Coding 3 CQZgMY1{  
Mode extension : CM (complete main) &GNxo$CG  
Format settings, Endianness : Big W-Fu-Cz=  
Codec ID : A_AC3 H1I{/g  
Duration : 1h 31mn Sa\!*e_sN  
Bit rate mode : Constant |nbf'  
Bit rate : 448 Kbps N+zKr/  
Channel(s) : 2 channels 1?)Xp|O  
Channel positions : Front: L R 6``' %S'#  
Sampling rate : 44.1 KHz h\7fp.  
Bit depth : 16 bits 7~&/_ 3  
Compression mode : Lossy Kh(ZU^{n  
Stream size : 292 MiB (13%) cHcmgW\4  
Default : Yes eFBeJZuE|  
Forced : No R-NS,i={  
DjI3?NN  
I<Ksi~*i  
k4,BNJt'Z  
本部分内容设定了隐藏,需要回复后才能看到