切换到宽版
  • 460阅读
  • 0回复

轩辕大帝/始祖轩辕.Xuan.Yuan.The.Great.Emperor.2016.1080p.WEB-DL.x264.AC3-SeeHD [复制链接]

上一主题 下一主题
 

只看楼主 倒序阅读 使用道具 0 发表于: 2016-07-21
F<R+]M:fa  
◎译  名 轩辕大帝/始祖轩辕   ^xz*%2@  
◎片  名 Xuan Yuan:The Great Emperor <WPLjgtn3  
◎年  代  2016 |t<Uh,Bt  
◎国  家  中国 VR:4|_o  
◎类  别  剧情/历史/古装 Eu;f~ V  
◎语  言  普通话 kF,_o/Jc  
◎字  幕  简体中文/英文 Lt 8J^}kwl  
◎IMDb评分 N/A ON r}{T%@/  
◎IMDB链接 N/A e #{,M8  
◎文件格式 x264 + AC3 CGYZEPRR  
◎视频尺寸 1920 x 800 <d`ksZ+  
◎文件大小 2.20GiB Ng=_#<  
◎片  长 1h 31mn w^/jlddF  
◎导  演 李晓军  Xiaojun Li @cc4] >4  
◎主  演 于波  Bo Yu +c&oF,=}!P  
      王德顺  Deshun Wang ;^yR,32F  
      周韦彤  Weitong Zhou d<,'9/a>  
      班嘉佳  Jiajia Ban 6 +2M$3_U  
      苏登扎木苏 * |dz.Tr  
      李卫 Wei Li }hoyjzv]L  
      李倩 Qian Li SO!|wag$  
      李咨墨 Zimo Li qL;T^ljP  
      赵南阳 Nanyang Zhao 8(jUCD  
   |O! G[|/3  
   ZUg ~8VVe  
   &xgKHbg  
◎简        介 A ,$CYLj+  
m,3H]  
  影片以中华人文始祖轩辕黄帝(于波 饰)与元妃嫘祖(周韦彤 饰)的传奇爱情故事为线索,讲述了五千年前有熊氏部落首领姬地率领族人渡黄河、斗猛兽、联合氏族战蚩尤(苏登扎木苏 饰)、最终统一华夏各部落的壮阔史诗。演绎黄帝、炎帝(王顺德 饰)、蚩尤三大部落的兴衰聚散,成功再现了远古华夏民族壮阔感人的发展历程。 V]{^}AKc  
;]c:0W '  
General ORdS|y;:  
Format : Matroska Dwx^hNh  
Format version : Version 4 / Version 2 l(~i>iQ 4  
File size : 2.20 GiB c04;2gR  
Duration : 1h 31mn g]mR;T3  
Overall bit rate : 3 455 Kbps FdcmA22k*  
J? 4E Hl  
Video z&Kh$ $)[  
ID : 1 Uv|?@zy#  
Format : AVC K'@lXA:  
Format/Info : Advanced Video Codec HB0DG<c-  
Format profile : High@L4.0 )?$zY5  
Format settings, CABAC : Yes s9\N{ar#  
Format settings, ReFrames : 4 frames 1Z_2s2`p  
Codec ID : V_MPEG4/ISO/AVC :|z.F+-/  
Duration : 1h 31mn E=&":I6O  
Bit rate : 2 938 Kbps 86f8b{_e"  
Width : 1 920 pixels j0.E!8Ae{  
Height : 800 pixels c`agrS:P  
Display aspect ratio : 2.40:1 Sa 8T'%W  
Frame rate mode : Constant 8iwH^+ h~  
Frame rate : 24.038 fps  JE=3V^k  
Original frame rate : 24.000 fps QP~Iz*J'  
Color space : YUV q}r{%ypf  
Chroma subsampling : 4:2:0 m2j]wUh"  
Bit depth : 8 bits %h9'kJzNk  
Scan type : Progressive   B'QcD  
Bits/(Pixel*Frame) : 0.080 ? \p,s-CR:  
Stream size : 1.87 GiB (85%) *Me&> "N"  
Writing library : H.264/MPEG-4 AVC codec -V 1.6.09-20151125 Nq >"vEq)  
Default : Yes DWXHx  
Forced : No "wj~KbT}&  
Color primaries : BT.709 l\"wdS}  
Transfer characteristics : BT.709 QnH;+k ln  
Matrix coefficients : BT.709 gaC [%M  
:7L[v9'  
Audio XQI!G_\+C  
ID : 2 =EQa Z8k  
Format : AC-3 &j!q9F  
Format/Info : Audio Coding 3 .:9XpKbt  
Mode extension : CM (complete main) xDO1gnH%  
Format settings, Endianness : Big 8o\KF( I  
Codec ID : A_AC3 <gLq?~e|A  
Duration : 1h 31mn 3\Tqs  
Bit rate mode : Constant iNG =x   
Bit rate : 448 Kbps ~@%#eg  
Channel(s) : 2 channels ,wB)hp  
Channel positions : Front: L R 9w}_CCj3  
Sampling rate : 44.1 KHz rvG0aqO `  
Bit depth : 16 bits }:1*@7eR  
Compression mode : Lossy Lj Y@b  
Stream size : 292 MiB (13%) N/8_0]Gf  
Default : Yes ot; ]?M  
Forced : No CQ h6;[\:  
ueu=$.^;g  
Ur,{ZGm  
ofy)}/i  
本部分内容设定了隐藏,需要回复后才能看到