切换到宽版
  • 303阅读
  • 0回复

轩辕大帝/始祖轩辕.Xuan.Yuan.The.Great.Emperor.2016.1080p.WEB-DL.x264.AC3-SeeHD [复制链接]

上一主题 下一主题
 

只看楼主 倒序阅读 使用道具 0 发表于: 2016-07-21
jN{Zw*  
◎译  名 轩辕大帝/始祖轩辕   yLB~P7K  
◎片  名 Xuan Yuan:The Great Emperor #s{aulx  
◎年  代  2016 - `4Ty*K  
◎国  家  中国 0T0/fg(o  
◎类  别  剧情/历史/古装 6?!I  
◎语  言  普通话 )2]a8JVf  
◎字  幕  简体中文/英文 |K)p]i+  
◎IMDb评分 N/A m  r2S!  
◎IMDB链接 N/A Q]T BQ&  
◎文件格式 x264 + AC3 -nG wuEngP  
◎视频尺寸 1920 x 800 Q ]0r:i= .  
◎文件大小 2.20GiB k{{hZ/om  
◎片  长 1h 31mn Mlwdha0  
◎导  演 李晓军  Xiaojun Li *:[b'D!A  
◎主  演 于波  Bo Yu *.3y2m,bZ  
      王德顺  Deshun Wang dEG ]riO  
      周韦彤  Weitong Zhou .8x@IWJD  
      班嘉佳  Jiajia Ban }biCQ*{'  
      苏登扎木苏 k{1b20  
      李卫 Wei Li F0&O/-w&u  
      李倩 Qian Li L W?&a3e  
      李咨墨 Zimo Li T $ IUKR  
      赵南阳 Nanyang Zhao vU{jda$$#  
   X+%u(>>  
   $Ba`VGP>)3  
   9':/Sab:7v  
◎简        介 ^1Yo-T(R  
l<Lz{)OR  
  影片以中华人文始祖轩辕黄帝(于波 饰)与元妃嫘祖(周韦彤 饰)的传奇爱情故事为线索,讲述了五千年前有熊氏部落首领姬地率领族人渡黄河、斗猛兽、联合氏族战蚩尤(苏登扎木苏 饰)、最终统一华夏各部落的壮阔史诗。演绎黄帝、炎帝(王顺德 饰)、蚩尤三大部落的兴衰聚散,成功再现了远古华夏民族壮阔感人的发展历程。 {>A 8g({i  
_\!0t  
General > R#9\/s  
Format : Matroska g&XhQ.aa  
Format version : Version 4 / Version 2 j 37:  
File size : 2.20 GiB a 1NCVZ  
Duration : 1h 31mn $M-NR||k  
Overall bit rate : 3 455 Kbps p#z;cjfSt  
\3M1.Q4$Gr  
Video !}y8S'Yjw  
ID : 1 W!y)Ho  
Format : AVC _m" ^lo  
Format/Info : Advanced Video Codec Up'."w_zE  
Format profile : High@L4.0 <e[!3,%L  
Format settings, CABAC : Yes S7Qen6lm  
Format settings, ReFrames : 4 frames JTjzT2`A.  
Codec ID : V_MPEG4/ISO/AVC vrQFx~ZztH  
Duration : 1h 31mn jzT;,4poy  
Bit rate : 2 938 Kbps 8Er[M  
Width : 1 920 pixels )ynA:LXx  
Height : 800 pixels ?!R %o  
Display aspect ratio : 2.40:1 9&&kgKKGQ  
Frame rate mode : Constant H7y&N5.V  
Frame rate : 24.038 fps ^Kb9@lz/  
Original frame rate : 24.000 fps 5c*p2:]  
Color space : YUV A>H*`{}  
Chroma subsampling : 4:2:0 {6-;P#Q0_  
Bit depth : 8 bits 5?D1][  
Scan type : Progressive S83]O!w0  
Bits/(Pixel*Frame) : 0.080 xU#]w6  
Stream size : 1.87 GiB (85%) cw*(L5b u  
Writing library : H.264/MPEG-4 AVC codec -V 1.6.09-20151125 vcaBL<io  
Default : Yes g%@]z8L  
Forced : No ,?P8m"  
Color primaries : BT.709 wjN`EF5$}&  
Transfer characteristics : BT.709 !&1}w86  
Matrix coefficients : BT.709 =d:R/Z%,  
wghFGHgw  
Audio azz#@f1  
ID : 2 H>g WxJ 5  
Format : AC-3 R^mu%dw)(%  
Format/Info : Audio Coding 3 Fh*q]1F  
Mode extension : CM (complete main) ^bZ<9}  
Format settings, Endianness : Big P_:?}h\  
Codec ID : A_AC3 PV5TG39qQ  
Duration : 1h 31mn ;EE{ ~  
Bit rate mode : Constant EF*oPn0|  
Bit rate : 448 Kbps ;] l{D}  
Channel(s) : 2 channels ]4LT#  
Channel positions : Front: L R Vq)|gF[6i  
Sampling rate : 44.1 KHz s>9z+;~!  
Bit depth : 16 bits %^Q@*+{:f  
Compression mode : Lossy h4$OXKme?  
Stream size : 292 MiB (13%) 3cV+A]i  
Default : Yes sqMNon`5  
Forced : No $_ I%1  
`E4!u=%  
h0Sy'] 3m  
e&FX7dsyy  
本部分内容设定了隐藏,需要回复后才能看到