切换到宽版
  • 499阅读
  • 0回复

妖医/泰国妖医/泰恋.Witch.Doctor.2016.080p.WEBRip.x264.AC3-SeeHD [复制链接]

上一主题 下一主题
 

只看楼主 倒序阅读 使用道具 0 发表于: 2016-07-21
KDUa0$"  
◎译  名 妖医/泰国妖医/泰恋 W2-1oS~ma  
◎片  名 Witch Doctor / Thailand's Love )cUFb:D*"  
◎年  代 2016 H}}g\|r&  
◎国  家 中国 V3] Z~@  
◎类  别 悬疑/惊悚/恐怖 Th%2pwvER  
◎语  言 普通话 G zw $M  
◎字  幕 简体中文 ~4{|  
◎IMDb评分  N/A $u-yw1FT  
◎IMDB链接 N/A 1Ka,u20  
◎文件格式 x264 + AC3 6B .x=  
◎视频尺寸 1920x800 aW.[3M;?v  
◎文件大小 1.83 GiB Q xg)Wb#  
◎片  长 1h 19mn !GL kAV  
◎导  演 柯瑞  Cory Chen 8IrA {UU  
      吴宗强  Zongqiang Wu s4uYp  
◎主  演 谭耀文 Patrick Tam   陈永霖   I%qZMoS1h  
      宝儿  Poy   邢潇   c u:1|gt  
      吕聿来  Yulai Lu   沙青   ^;[|,:8f7L  
      孟瑶  Yao Meng   邢慧 64jFbbd-/  
      高亚麟 Yalin Gao {iRXK   
SuuLB6{u3  
y^xEZD1X6-  
{=)g?!zC  
◎简  介 ;{%R'  
CQGq}.Jt!  
,y%4QvG7a  
  泰国魅力美女邢潇(POYD饰演)从小和双胞胎姐姐邢慧分离,她和男友沙青为了找回邢慧用尽了各种努力。在这过程中邢潇邂逅了陈永霖。好奇和悲悯让陈永霖介入了沙青和邢潇的生活。当他陷入邢潇的情网之后,才发现,这只是一个处处设防,步步惊心的迷局。 b!hs|emo;  
zFpM\{`[g  
General /6@~XO) w  
Format                         : Matroska M,V~oc5  
Format version                 : Version 4 / Version 2 ']]5xH*U  
File size                      : 1.83 GiB ? ^l{t4  
Duration                       : 1h 19mn Q#a<T4l  
Overall bit rate               : 3 286 Kbps L2GUrf  
Encoded date                   : UTC 2016-07-03 03:22:51 LL lt9(^d  
5:r*em  
Video ~0 5p+F)  
ID                             : 1 <!m'xO D  
Format                         : AVC BZr$x8%ki  
Format/Info                    : Advanced Video Codec 3LK]VuZE  
Format profile                 : High@L4.0 MfJ8+3@K  
Format settings, CABAC         : Yes M`jqU g  
Format settings, ReFrames      : 3 frames +&j&es  
Codec ID                       : V_MPEG4/ISO/AVC Q3OGU}F  
Duration                       : 1h 19mn fVJsVZ"6v`  
Bit rate                       : 2 773 Kbps njoU0 f1`  
Width                          : 1 920 pixels d \[cFe1d  
Height                         : 800 pixels J/ ! Mt  
Display aspect ratio           : 2.40:1 &Ub 0o2+y  
Frame rate mode                : Constant (}jYi*B  
Frame rate                     : 25.000 fps RqnT*  
Color space                    : YUV : U:>X6f  
Chroma subsampling             : 4:2:0 1>w Q&{  
Bit depth                      : 8 bits ;3 |Z}P  
Scan type                      : Progressive ^qgOgu  
Bits/(Pixel*Frame)             : 0.072 1+0DTqWz  
Stream size                    : 1.55 GiB (84%) *pMu,?uE  
Default                        : Yes U! xOJ  
Forced                         : No kl&9M!;:n  
+2WvGRC  
Audio oI/jGyY;  
ID                             : 2 t^Hte^#S  
Format                         : AC-3 h_{//W[  
Format/Info                    : Audio Coding 3 T+9#&  
Mode extension                 : CM (complete main) .&R j2d  
Format settings, Endianness    : Big sh|@X\EZO  
Codec ID                       : A_AC3 :% o32  
Duration                       : 1h 19mn kCoTz"Z-  
Bit rate mode                  : Constant H|]~(.w 1}  
Bit rate                       : 448 Kbps "h>B`S  
Channel(s)                     : 2 channels bF#1'W&  
Channel positions              : Front: L R  <m7T`5+  
Sampling rate                  : 44.1 KHz beN(7jo  
Bit depth                      : 16 bits a*fUMhIi  
Compression mode               : Lossy  ,m^@S  
Delay relative to video        : -80ms K/OE;;<IA  
Stream size                    : 256 MiB (14%) AnUOv 2  
Default                        : Yes {8YNmxF#  
Forced                         : No liuF;*  
E$w2S Q  
7j <:hF~  
本部分内容设定了隐藏,需要回复后才能看到