切换到宽版
  • 465阅读
  • 0回复

妖医/泰国妖医/泰恋.Witch.Doctor.2016.080p.WEBRip.x264.AC3-SeeHD [复制链接]

上一主题 下一主题
 

只看楼主 倒序阅读 使用道具 0 发表于: 2016-07-21
$Ned1@%[  
◎译  名 妖医/泰国妖医/泰恋 F13vc~$Ky  
◎片  名 Witch Doctor / Thailand's Love PM3fJhx  
◎年  代 2016 jGEmf<q&u  
◎国  家 中国 8 |~M!<  
◎类  别 悬疑/惊悚/恐怖 nk"nSXm3SR  
◎语  言 普通话 OU[ FiW-E  
◎字  幕 简体中文 FyqsFTh_  
◎IMDb评分  N/A d 0 mfqP=  
◎IMDB链接 N/A /Q2HN(Y  
◎文件格式 x264 + AC3 Rnw v/)  
◎视频尺寸 1920x800 &F.L* M  
◎文件大小 1.83 GiB 5s:g(gy3BR  
◎片  长 1h 19mn kd OIL2T  
◎导  演 柯瑞  Cory Chen BeFXC5-qat  
      吴宗强  Zongqiang Wu wPvYnhr|G-  
◎主  演 谭耀文 Patrick Tam   陈永霖   .>NPgd I  
      宝儿  Poy   邢潇   0RHjA& r3v  
      吕聿来  Yulai Lu   沙青   N~%~Q  
      孟瑶  Yao Meng   邢慧 ~iJ@x;`  
      高亚麟 Yalin Gao fv:&?gc  
Ee^>Q*wahw  
^qNZ!V4T  
m0N{%Mf-  
◎简  介 >NZJ-:t  
LZ8xh  
Go !{T  
  泰国魅力美女邢潇(POYD饰演)从小和双胞胎姐姐邢慧分离,她和男友沙青为了找回邢慧用尽了各种努力。在这过程中邢潇邂逅了陈永霖。好奇和悲悯让陈永霖介入了沙青和邢潇的生活。当他陷入邢潇的情网之后,才发现,这只是一个处处设防,步步惊心的迷局。 [0H]L{yV  
S"%W^)mZ  
General OE2r2ad  
Format                         : Matroska v[~Q   
Format version                 : Version 4 / Version 2 ,f$ftn\~j/  
File size                      : 1.83 GiB 5UvqE_  
Duration                       : 1h 19mn Ph17(APt,Q  
Overall bit rate               : 3 286 Kbps Qb@i_SX(fs  
Encoded date                   : UTC 2016-07-03 03:22:51 Asli<L(?`  
ldr~=<hsZ  
Video 4S*dNYc  
ID                             : 1 fz<GPw  
Format                         : AVC tHFBL M  
Format/Info                    : Advanced Video Codec R T/)<RT9  
Format profile                 : High@L4.0 ORhvo,.u  
Format settings, CABAC         : Yes :_pn|  
Format settings, ReFrames      : 3 frames 8>[o. xV  
Codec ID                       : V_MPEG4/ISO/AVC HJ;!'@  
Duration                       : 1h 19mn Amv:d h  
Bit rate                       : 2 773 Kbps ^<Zye>KO  
Width                          : 1 920 pixels kNoS% ?1,  
Height                         : 800 pixels c.}#.-b8  
Display aspect ratio           : 2.40:1 {=9"WN    
Frame rate mode                : Constant ->2m/d4a  
Frame rate                     : 25.000 fps !_>o2  
Color space                    : YUV =}2k+v-B  
Chroma subsampling             : 4:2:0 n"f: 6|<  
Bit depth                      : 8 bits 6!v$"u|[!'  
Scan type                      : Progressive Ym 1; /'  
Bits/(Pixel*Frame)             : 0.072 j {Sbf04  
Stream size                    : 1.55 GiB (84%) [m(n-Mu F  
Default                        : Yes m=V69 a#  
Forced                         : No 5?8jj  
bOD] `*q  
Audio O8/r-?4.  
ID                             : 2 YD] :3!MI  
Format                         : AC-3 2j=HxE  
Format/Info                    : Audio Coding 3 g:Ry.=F7W  
Mode extension                 : CM (complete main) ,Gy2$mglB  
Format settings, Endianness    : Big -AwkP  
Codec ID                       : A_AC3 =jvL2ps<  
Duration                       : 1h 19mn a!\^O).pA  
Bit rate mode                  : Constant R6\|:mI,$  
Bit rate                       : 448 Kbps r}-vOPn`E  
Channel(s)                     : 2 channels p:3 V-$4X  
Channel positions              : Front: L R ;nKhmcQ4  
Sampling rate                  : 44.1 KHz 0Z jE(3i  
Bit depth                      : 16 bits na_Wp^;  
Compression mode               : Lossy yv\ j&B|  
Delay relative to video        : -80ms K9) |b`E=  
Stream size                    : 256 MiB (14%) bZu2.?{  
Default                        : Yes E6#")2C~  
Forced                         : No lf_q6y  
(Ji=fh+  
 jRhRw;  
本部分内容设定了隐藏,需要回复后才能看到