切换到宽版
  • 554阅读
  • 0回复

妖医/泰国妖医/泰恋.Witch.Doctor.2016.080p.WEBRip.x264.AC3-SeeHD [复制链接]

上一主题 下一主题
 

只看楼主 倒序阅读 使用道具 0 发表于: 2016-07-21
RkXLE"G '  
◎译  名 妖医/泰国妖医/泰恋 %^@0tT  
◎片  名 Witch Doctor / Thailand's Love >a] s  
◎年  代 2016 [`n yq)  
◎国  家 中国 Q]koj!mMl  
◎类  别 悬疑/惊悚/恐怖 [(^''*7r+T  
◎语  言 普通话 5<ya;iK  
◎字  幕 简体中文 *q 9$SDm  
◎IMDb评分  N/A /SM#hwFxJ&  
◎IMDB链接 N/A )UU6\2^  
◎文件格式 x264 + AC3 oTa+ E'q  
◎视频尺寸 1920x800 cngPc]?N  
◎文件大小 1.83 GiB Vh-h{  
◎片  长 1h 19mn 5suSR;8  
◎导  演 柯瑞  Cory Chen Tf]VcEF  
      吴宗强  Zongqiang Wu HE .Dl7 {  
◎主  演 谭耀文 Patrick Tam   陈永霖   [8g\pPQ  
      宝儿  Poy   邢潇   @[ N~;>  
      吕聿来  Yulai Lu   沙青   w5G34[v  
      孟瑶  Yao Meng   邢慧 9 u89P  
      高亚麟 Yalin Gao s5|)4Z ac  
:z5I bas:  
Z`h_oK#y15  
*m Tc4&*  
◎简  介 4>eg@sN  
JZ0+VB-3U  
IaqN@IlWb  
  泰国魅力美女邢潇(POYD饰演)从小和双胞胎姐姐邢慧分离,她和男友沙青为了找回邢慧用尽了各种努力。在这过程中邢潇邂逅了陈永霖。好奇和悲悯让陈永霖介入了沙青和邢潇的生活。当他陷入邢潇的情网之后,才发现,这只是一个处处设防,步步惊心的迷局。 d~s-;T  
^O9m11  
General VFp)`+8  
Format                         : Matroska 9 CSz<[  
Format version                 : Version 4 / Version 2 fH {$LjH(  
File size                      : 1.83 GiB VH*(>^Of F  
Duration                       : 1h 19mn ag4^y&  
Overall bit rate               : 3 286 Kbps 'n`$c{N<tM  
Encoded date                   : UTC 2016-07-03 03:22:51 Z.f<6<gF  
obk v ]~  
Video 9GOyVKUv  
ID                             : 1 4SO{cs t  
Format                         : AVC lw lW.C  
Format/Info                    : Advanced Video Codec -2XIF}.Hu  
Format profile                 : High@L4.0 K_Gf\x  
Format settings, CABAC         : Yes 438> )=  
Format settings, ReFrames      : 3 frames U}5KAi 9Z  
Codec ID                       : V_MPEG4/ISO/AVC n m$G4Q  
Duration                       : 1h 19mn qt)mUq;>  
Bit rate                       : 2 773 Kbps RLr-xg$K-t  
Width                          : 1 920 pixels v<4X;4p^  
Height                         : 800 pixels +4RaN`I  
Display aspect ratio           : 2.40:1 LD"}$vfs  
Frame rate mode                : Constant $ :P~21,  
Frame rate                     : 25.000 fps ` OK }q  
Color space                    : YUV $a]dxRkz  
Chroma subsampling             : 4:2:0 lKSI5d  
Bit depth                      : 8 bits /qY(uPJ  
Scan type                      : Progressive Lf<9GYNy>`  
Bits/(Pixel*Frame)             : 0.072 b?^<';,5  
Stream size                    : 1.55 GiB (84%) ?q6eV~P  
Default                        : Yes N{@ eV][Q  
Forced                         : No n*|-"'j  
F:U_gW?  
Audio  iSax-Mc  
ID                             : 2 q3:' 69  
Format                         : AC-3 rJxT)bR  
Format/Info                    : Audio Coding 3 M>#S z  
Mode extension                 : CM (complete main) a+Nd%hoe  
Format settings, Endianness    : Big [!$>:_Vq/  
Codec ID                       : A_AC3 UJ&,9}L8  
Duration                       : 1h 19mn p5hP}Z4r  
Bit rate mode                  : Constant l\GNd6)H  
Bit rate                       : 448 Kbps C <)&qx3  
Channel(s)                     : 2 channels Sn,z$-;h;  
Channel positions              : Front: L R ;RYKqUE  
Sampling rate                  : 44.1 KHz :zoX Xo  
Bit depth                      : 16 bits 1jb@n xRjO  
Compression mode               : Lossy kDQXP p  
Delay relative to video        : -80ms u?i1n=Ne  
Stream size                    : 256 MiB (14%) S] a$w5ZP  
Default                        : Yes %(6WrE5F6  
Forced                         : No +cN2 KP  
:4TcCWG  
NI)nf;C  
本部分内容设定了隐藏,需要回复后才能看到