切换到宽版
  • 336阅读
  • 0回复

妖医/泰国妖医/泰恋.Witch.Doctor.2016.080p.WEBRip.x264.AC3-SeeHD [复制链接]

上一主题 下一主题
 

只看楼主 倒序阅读 使用道具 0 发表于: 2016-07-21
qK jUp"  
◎译  名 妖医/泰国妖医/泰恋 @xkI?vK6  
◎片  名 Witch Doctor / Thailand's Love CubBD+h l*  
◎年  代 2016 4 yDWVd;  
◎国  家 中国 pKzrdw-!  
◎类  别 悬疑/惊悚/恐怖 hmES@^n!_  
◎语  言 普通话 1 F+$\fLr  
◎字  幕 简体中文 J,_IHzO~Z  
◎IMDb评分  N/A 3f)!RKS9q  
◎IMDB链接 N/A 52v@zDY  
◎文件格式 x264 + AC3 JPmZ%]wA  
◎视频尺寸 1920x800 J]gtgt^   
◎文件大小 1.83 GiB KKGwMJku}  
◎片  长 1h 19mn g7`uWAxZa  
◎导  演 柯瑞  Cory Chen _>/OqYR_jQ  
      吴宗强  Zongqiang Wu &^JYIRn1\  
◎主  演 谭耀文 Patrick Tam   陈永霖   Y6OR I  
      宝儿  Poy   邢潇   N,?D<NjXl  
      吕聿来  Yulai Lu   沙青   -FW'i10\2+  
      孟瑶  Yao Meng   邢慧 l EsE]f  
      高亚麟 Yalin Gao tOVYA\ ]  
Ku<_N]9  
:}[[G2|9  
yL%k5cO$N  
◎简  介 ba"a!#wA  
JrVBd hLr  
n 7 m!   
  泰国魅力美女邢潇(POYD饰演)从小和双胞胎姐姐邢慧分离,她和男友沙青为了找回邢慧用尽了各种努力。在这过程中邢潇邂逅了陈永霖。好奇和悲悯让陈永霖介入了沙青和邢潇的生活。当他陷入邢潇的情网之后,才发现,这只是一个处处设防,步步惊心的迷局。 pTzfc`~xv  
-E>se8%"  
General ]J6+nA6)  
Format                         : Matroska MESPfS+  
Format version                 : Version 4 / Version 2 Gj(UA1~1  
File size                      : 1.83 GiB EL=}xug,?  
Duration                       : 1h 19mn C%+>uzVIw  
Overall bit rate               : 3 286 Kbps #$(w fb9  
Encoded date                   : UTC 2016-07-03 03:22:51 fl18x;^I  
^iwM(d]#5  
Video [j`-R 0Np  
ID                             : 1 ofA6EmQ37  
Format                         : AVC rO`n S<G  
Format/Info                    : Advanced Video Codec C'$}!p70  
Format profile                 : High@L4.0 &Jw4^ob  
Format settings, CABAC         : Yes e`Z3{H}  
Format settings, ReFrames      : 3 frames jn;b{*Lf  
Codec ID                       : V_MPEG4/ISO/AVC  8E!I9z  
Duration                       : 1h 19mn +6* .lRA  
Bit rate                       : 2 773 Kbps ;ckv$S[p  
Width                          : 1 920 pixels WxS=Aip'  
Height                         : 800 pixels Z0e+CEzq  
Display aspect ratio           : 2.40:1 [+st?;"GF  
Frame rate mode                : Constant q61 rNOw_  
Frame rate                     : 25.000 fps 4l?98  
Color space                    : YUV "Rp]2'?  
Chroma subsampling             : 4:2:0 N2_=^s7  
Bit depth                      : 8 bits 7=ZB;(`L1  
Scan type                      : Progressive o/fq  
Bits/(Pixel*Frame)             : 0.072 <>JDA(F"  
Stream size                    : 1.55 GiB (84%) +G_6Ek4  
Default                        : Yes ~^"cq S(  
Forced                         : No '+X9MzU*\  
=k[!p'~jD  
Audio ZH%[wQ~4  
ID                             : 2 )vS## -[_  
Format                         : AC-3 qgca4VV|z  
Format/Info                    : Audio Coding 3 r\[HR ^`  
Mode extension                 : CM (complete main) $}k"wI[  
Format settings, Endianness    : Big  aG\m 3r  
Codec ID                       : A_AC3 SAG) vmm  
Duration                       : 1h 19mn Ok 6Y&#'P  
Bit rate mode                  : Constant SQ5*?u\  
Bit rate                       : 448 Kbps fD\h5`-  
Channel(s)                     : 2 channels ;g m){ g  
Channel positions              : Front: L R ]V@! kg(p8  
Sampling rate                  : 44.1 KHz 4kg9R^0  
Bit depth                      : 16 bits &9s6p6 eb  
Compression mode               : Lossy {.,OPR"\  
Delay relative to video        : -80ms g'Xl>q  
Stream size                    : 256 MiB (14%) syZ-xE]}  
Default                        : Yes \R-u+ci$ZY  
Forced                         : No  Uero!+_  
KFV]2mFN  
<01B\t7  
本部分内容设定了隐藏,需要回复后才能看到