切换到宽版
  • 406阅读
  • 0回复

妖医/泰国妖医/泰恋.Witch.Doctor.2016.080p.WEBRip.x264.AC3-SeeHD [复制链接]

上一主题 下一主题
 

只看楼主 倒序阅读 使用道具 0 发表于: 2016-07-21
j?+X\PtQ  
◎译  名 妖医/泰国妖医/泰恋 ;&)-;l7M  
◎片  名 Witch Doctor / Thailand's Love 0i k7v<:  
◎年  代 2016 aS nF KB  
◎国  家 中国 gp\<p-}  
◎类  别 悬疑/惊悚/恐怖 N=7pK&NHSG  
◎语  言 普通话 ^\S~?0^m  
◎字  幕 简体中文 ]'=)2 .}  
◎IMDb评分  N/A W@I|Q -  
◎IMDB链接 N/A ?o|f':  
◎文件格式 x264 + AC3 4.5|2 \[  
◎视频尺寸 1920x800 K42K!8$  
◎文件大小 1.83 GiB jr:7?8cH0L  
◎片  长 1h 19mn }WH&iES@P  
◎导  演 柯瑞  Cory Chen @y\X R  
      吴宗强  Zongqiang Wu y#z  
◎主  演 谭耀文 Patrick Tam   陈永霖   x5- }h*  
      宝儿  Poy   邢潇   / ^#;d UB  
      吕聿来  Yulai Lu   沙青   SSWP~ t  
      孟瑶  Yao Meng   邢慧 fO[+LR 'ax  
      高亚麟 Yalin Gao A"dR{8&0  
c2'Lfgx4  
FwkuC09tI  
/n{omx  
◎简  介 @a0DT=>dT  
3@$,s~+ 3  
9\mLW"  
  泰国魅力美女邢潇(POYD饰演)从小和双胞胎姐姐邢慧分离,她和男友沙青为了找回邢慧用尽了各种努力。在这过程中邢潇邂逅了陈永霖。好奇和悲悯让陈永霖介入了沙青和邢潇的生活。当他陷入邢潇的情网之后,才发现,这只是一个处处设防,步步惊心的迷局。 zGkS^Z=(  
8y.wSu  
General pUQ/03dp  
Format                         : Matroska I%j|D#qY:T  
Format version                 : Version 4 / Version 2 P"IPcT%Ob%  
File size                      : 1.83 GiB Z8@J`0x  
Duration                       : 1h 19mn _M`--.{\O[  
Overall bit rate               : 3 286 Kbps $Y/ 9SV,  
Encoded date                   : UTC 2016-07-03 03:22:51 Uyg5i[&X@  
:* Z4yx  
Video mpU$ +  
ID                             : 1 (3 Two}  
Format                         : AVC F@'Jbd`   
Format/Info                    : Advanced Video Codec g9}DnCT*.  
Format profile                 : High@L4.0 Eg#K.5hJ  
Format settings, CABAC         : Yes |y!=J$ $_H  
Format settings, ReFrames      : 3 frames ff,pvk8N5  
Codec ID                       : V_MPEG4/ISO/AVC m.# VYN`+A  
Duration                       : 1h 19mn QkEvw<  
Bit rate                       : 2 773 Kbps c dl&9-}  
Width                          : 1 920 pixels dJeNbVd  
Height                         : 800 pixels 0WZ_7C?  
Display aspect ratio           : 2.40:1 r ~jm`y  
Frame rate mode                : Constant P;=n9hgHI  
Frame rate                     : 25.000 fps K6v6yn p/  
Color space                    : YUV lYVz 3p  
Chroma subsampling             : 4:2:0 LtWP0@JA  
Bit depth                      : 8 bits J%v=yBC2  
Scan type                      : Progressive NO "xL,  
Bits/(Pixel*Frame)             : 0.072 ww\CQ6/h  
Stream size                    : 1.55 GiB (84%) p Dx1z|@z  
Default                        : Yes bv]`!g: C  
Forced                         : No -LK B$   
L-jJg,eY  
Audio T! Y@`Ox  
ID                             : 2 y I HXg#  
Format                         : AC-3 YSr9VpqWV  
Format/Info                    : Audio Coding 3 GY6`JWk  
Mode extension                 : CM (complete main) ][gq#Vx@  
Format settings, Endianness    : Big 8p^bD}lN7  
Codec ID                       : A_AC3 1L%CJ+Q#0i  
Duration                       : 1h 19mn FOv=!'S o  
Bit rate mode                  : Constant W]"zctE  
Bit rate                       : 448 Kbps fM]+SMZy  
Channel(s)                     : 2 channels f/ ?_  
Channel positions              : Front: L R yh Yb'GK  
Sampling rate                  : 44.1 KHz 0t^M3+nc  
Bit depth                      : 16 bits F3N?Nk/  
Compression mode               : Lossy 54gBJEhg  
Delay relative to video        : -80ms (yu/l 6[  
Stream size                    : 256 MiB (14%) 9A/\h3HrJ  
Default                        : Yes EY^1Y3D w0  
Forced                         : No ;;_,~pI?k  
#ZJ _T`l  
`n#H5Oyn  
本部分内容设定了隐藏,需要回复后才能看到