切换到宽版
  • 408阅读
  • 0回复

妖医/泰国妖医/泰恋.Witch.Doctor.2016.080p.WEBRip.x264.AC3-SeeHD [复制链接]

上一主题 下一主题
 

只看楼主 倒序阅读 使用道具 0 发表于: 2016-07-21
&=8ZGjR< }  
◎译  名 妖医/泰国妖医/泰恋 D -e^b'l  
◎片  名 Witch Doctor / Thailand's Love Y\H4.$V  
◎年  代 2016 $YBH;^#  
◎国  家 中国 B]D51R\}VE  
◎类  别 悬疑/惊悚/恐怖 [xs`Pi  
◎语  言 普通话 I#yd/d5^  
◎字  幕 简体中文 +c'I7bBr  
◎IMDb评分  N/A QD[l 6  
◎IMDB链接 N/A Yk V-]%c  
◎文件格式 x264 + AC3 lVb;,C%K  
◎视频尺寸 1920x800 Z*5]q h2r8  
◎文件大小 1.83 GiB /Hc0~D4|x  
◎片  长 1h 19mn MU_ >+Wnf  
◎导  演 柯瑞  Cory Chen 1n ZE9;o  
      吴宗强  Zongqiang Wu 5al44[  
◎主  演 谭耀文 Patrick Tam   陈永霖   %hzNkyD)Y  
      宝儿  Poy   邢潇   iQaFR@  
      吕聿来  Yulai Lu   沙青   Z$@XMq!  
      孟瑶  Yao Meng   邢慧 w*N9p8hb]  
      高亚麟 Yalin Gao 1<9m^9_ro  
p&\x*~6u  
t #g6rh&  
[+y/qx79  
◎简  介 `Tf<w+H  
QPa&kl  
)6mv 7M{  
  泰国魅力美女邢潇(POYD饰演)从小和双胞胎姐姐邢慧分离,她和男友沙青为了找回邢慧用尽了各种努力。在这过程中邢潇邂逅了陈永霖。好奇和悲悯让陈永霖介入了沙青和邢潇的生活。当他陷入邢潇的情网之后,才发现,这只是一个处处设防,步步惊心的迷局。 \oGZM0j  
dkf?lmC+M  
General LNU9M>  
Format                         : Matroska J`3 p Xc$.  
Format version                 : Version 4 / Version 2 #/1,Cv yj  
File size                      : 1.83 GiB yz2NB?)  
Duration                       : 1h 19mn M+^+u 1QQ0  
Overall bit rate               : 3 286 Kbps {ByT,92  
Encoded date                   : UTC 2016-07-03 03:22:51 Z,,Wo % )o  
[XQoag;!  
Video DI!l.w5P_  
ID                             : 1 B)"WG7W E  
Format                         : AVC uoKC+8GA  
Format/Info                    : Advanced Video Codec zUxF"g-W  
Format profile                 : High@L4.0 66%kq [  
Format settings, CABAC         : Yes g;bkV q  
Format settings, ReFrames      : 3 frames QTK{JZf  
Codec ID                       : V_MPEG4/ISO/AVC 58MBG&a%  
Duration                       : 1h 19mn Ph.$]yQCc]  
Bit rate                       : 2 773 Kbps +;z4.C{gM  
Width                          : 1 920 pixels `&>!a  
Height                         : 800 pixels f.'o4HSj  
Display aspect ratio           : 2.40:1 Qo{^jDe,c*  
Frame rate mode                : Constant t/S~CIA  
Frame rate                     : 25.000 fps /)y~%0   
Color space                    : YUV /sdkQ{J!.  
Chroma subsampling             : 4:2:0 Tj*zlb4  
Bit depth                      : 8 bits BbiBtU  
Scan type                      : Progressive P67r+P,  
Bits/(Pixel*Frame)             : 0.072 5'>(|7~%\  
Stream size                    : 1.55 GiB (84%) F+Lq  
Default                        : Yes |2c'0Ibu  
Forced                         : No 35jP</  
~Cj+6CrT  
Audio FK={ %  
ID                             : 2 'n.eCd j  
Format                         : AC-3 +5);"71  
Format/Info                    : Audio Coding 3 {u46m  
Mode extension                 : CM (complete main) ybf`7KEP2A  
Format settings, Endianness    : Big >48zRi\N  
Codec ID                       : A_AC3 "PJ@Q9n__  
Duration                       : 1h 19mn Q} f=Ye(&}  
Bit rate mode                  : Constant 2fI?P  
Bit rate                       : 448 Kbps ZZFa<AK4  
Channel(s)                     : 2 channels ?exV:OKLb  
Channel positions              : Front: L R P7"g/j""  
Sampling rate                  : 44.1 KHz bv$)^  
Bit depth                      : 16 bits Alp9] 0(  
Compression mode               : Lossy kV6T#RVob  
Delay relative to video        : -80ms C8@SuJ  
Stream size                    : 256 MiB (14%) 9)T;.O  
Default                        : Yes =JNoC01D  
Forced                         : No i v&:X3iB  
SH5GW3\h  
qeSxE`E"  
本部分内容设定了隐藏,需要回复后才能看到