切换到宽版
  • 566阅读
  • 0回复

妖医/泰国妖医/泰恋.Witch.Doctor.2016.080p.WEBRip.x264.AC3-SeeHD [复制链接]

上一主题 下一主题
 

只看楼主 倒序阅读 使用道具 0 发表于: 2016-07-21
 #] n[  
◎译  名 妖医/泰国妖医/泰恋 D*_ F@}=  
◎片  名 Witch Doctor / Thailand's Love 0(0Ep(Vj  
◎年  代 2016 >uxak2nM-  
◎国  家 中国 ~H?RHYP~  
◎类  别 悬疑/惊悚/恐怖 Ho*S >Y  
◎语  言 普通话 IzkZ^;(N  
◎字  幕 简体中文 A qE,zW  
◎IMDb评分  N/A <g,xc)[  
◎IMDB链接 N/A '(I"54W  
◎文件格式 x264 + AC3 |0mh*+i  
◎视频尺寸 1920x800 } %rF}>$A  
◎文件大小 1.83 GiB wG19NX(  
◎片  长 1h 19mn *}3~8f u{  
◎导  演 柯瑞  Cory Chen XWk/S $-d  
      吴宗强  Zongqiang Wu <@e6zQG  
◎主  演 谭耀文 Patrick Tam   陈永霖   _MnMT9  
      宝儿  Poy   邢潇   trM8 p  
      吕聿来  Yulai Lu   沙青   B*K%&w10~  
      孟瑶  Yao Meng   邢慧 6lsU/`.  
      高亚麟 Yalin Gao Y`\zLX"_m  
(#7pGGp*E  
nn5S7!  
oa47TqFt  
◎简  介 7zpwP  
mqwN<:  
JA())0a  
  泰国魅力美女邢潇(POYD饰演)从小和双胞胎姐姐邢慧分离,她和男友沙青为了找回邢慧用尽了各种努力。在这过程中邢潇邂逅了陈永霖。好奇和悲悯让陈永霖介入了沙青和邢潇的生活。当他陷入邢潇的情网之后,才发现,这只是一个处处设防,步步惊心的迷局。 (w4#?_  
dYk)RX`}7!  
General d.2   
Format                         : Matroska 69\0$O  
Format version                 : Version 4 / Version 2 G2rxr  
File size                      : 1.83 GiB r'w5i1C+  
Duration                       : 1h 19mn Eq'YtqU  
Overall bit rate               : 3 286 Kbps ,T"(97"  
Encoded date                   : UTC 2016-07-03 03:22:51 In:h%4>  
eBtkTWx5[/  
Video H;Z{R@kf  
ID                             : 1 ]Cbht\Ag"  
Format                         : AVC X[grV e  
Format/Info                    : Advanced Video Codec X!nI{PE  
Format profile                 : High@L4.0 d ID] {  
Format settings, CABAC         : Yes u;1#eP\;  
Format settings, ReFrames      : 3 frames ]!0 BMZmf  
Codec ID                       : V_MPEG4/ISO/AVC hW _NARA  
Duration                       : 1h 19mn l.fNkLC#  
Bit rate                       : 2 773 Kbps eAm7*2  
Width                          : 1 920 pixels 5N`g  
Height                         : 800 pixels h TH"jAC+  
Display aspect ratio           : 2.40:1 &A=d7ASN=  
Frame rate mode                : Constant $aG]V-M>  
Frame rate                     : 25.000 fps )<IbQH|_  
Color space                    : YUV kZSe#'R's  
Chroma subsampling             : 4:2:0 ;,@3bu>r  
Bit depth                      : 8 bits LP#CA^*S  
Scan type                      : Progressive ]wdudvS@6r  
Bits/(Pixel*Frame)             : 0.072 }# w>>{Q  
Stream size                    : 1.55 GiB (84%) ely&'y!  
Default                        : Yes >3 qy'lm  
Forced                         : No V4/eGh_T  
69O?sIk  
Audio ~'v^__8  
ID                             : 2 {RwwSqJ  
Format                         : AC-3 \#G`$JD  
Format/Info                    : Audio Coding 3 ft:/-$&H  
Mode extension                 : CM (complete main) + +D(P=4hi  
Format settings, Endianness    : Big qd!$nr  
Codec ID                       : A_AC3 3l5q?"$  
Duration                       : 1h 19mn 0v+5&Jk  
Bit rate mode                  : Constant LTBqXh  
Bit rate                       : 448 Kbps Eu1s  
Channel(s)                     : 2 channels i&Xr+Zsec"  
Channel positions              : Front: L R x\I9J4Q  
Sampling rate                  : 44.1 KHz mY dU`j  
Bit depth                      : 16 bits cf@:rHB}  
Compression mode               : Lossy 'Kp|\T r  
Delay relative to video        : -80ms 1B,RRHXn6  
Stream size                    : 256 MiB (14%) LW ntZ.  
Default                        : Yes }[D[ZLv  
Forced                         : No `'+[Y;s_  
_pjpPSV6J  
B@.U\ .  
本部分内容设定了隐藏,需要回复后才能看到