切换到宽版
  • 514阅读
  • 0回复

妖医/泰国妖医/泰恋.Witch.Doctor.2016.080p.WEBRip.x264.AC3-SeeHD [复制链接]

上一主题 下一主题
 

只看楼主 倒序阅读 使用道具 0 发表于: 2016-07-21
FT73P0!8.  
◎译  名 妖医/泰国妖医/泰恋 N;tUrdgQ  
◎片  名 Witch Doctor / Thailand's Love Gxv@a   
◎年  代 2016 PCnE-$QH  
◎国  家 中国 <uNBsYMuC  
◎类  别 悬疑/惊悚/恐怖 x{<WJ|'B  
◎语  言 普通话 g[Ah> 5  
◎字  幕 简体中文 BZE Y^G  
◎IMDb评分  N/A @PuJre4!;L  
◎IMDB链接 N/A =Z_\8qc  
◎文件格式 x264 + AC3 b!SGQv(^M  
◎视频尺寸 1920x800 '-3A WBWI1  
◎文件大小 1.83 GiB 9'3%%o  
◎片  长 1h 19mn wl^bvHG  
◎导  演 柯瑞  Cory Chen L q8}z-?  
      吴宗强  Zongqiang Wu /S1EQ %_  
◎主  演 谭耀文 Patrick Tam   陈永霖   QE}S5#_"  
      宝儿  Poy   邢潇   3;~1rw=$<  
      吕聿来  Yulai Lu   沙青   Rct|"k_"Ys  
      孟瑶  Yao Meng   邢慧 1g9Q vz3  
      高亚麟 Yalin Gao Je2o('MA  
84)$ CA+NX  
r&)/3^S '  
n )YNt  
◎简  介 Tn2Z{.q$  
ZgF-.(GV  
4>>{}c!nf  
  泰国魅力美女邢潇(POYD饰演)从小和双胞胎姐姐邢慧分离,她和男友沙青为了找回邢慧用尽了各种努力。在这过程中邢潇邂逅了陈永霖。好奇和悲悯让陈永霖介入了沙青和邢潇的生活。当他陷入邢潇的情网之后,才发现,这只是一个处处设防,步步惊心的迷局。 HxAq& J;xu  
%]nY v#K  
General ZT4._|2   
Format                         : Matroska 2H;&E1:  
Format version                 : Version 4 / Version 2 Z"'rc.>a  
File size                      : 1.83 GiB +oBf\!{cW  
Duration                       : 1h 19mn (f5!36mz  
Overall bit rate               : 3 286 Kbps OP]=MZP|  
Encoded date                   : UTC 2016-07-03 03:22:51 rmpJG |(  
x,IU]YW@  
Video |xQG  
ID                             : 1 p.TR1BHw  
Format                         : AVC mu)?SGpyE  
Format/Info                    : Advanced Video Codec H`]nY`HYg  
Format profile                 : High@L4.0 7oA$aJQ  
Format settings, CABAC         : Yes 1QtT*{zm$F  
Format settings, ReFrames      : 3 frames r Efk5R  
Codec ID                       : V_MPEG4/ISO/AVC hD{+V!{  
Duration                       : 1h 19mn yxQxc5/X)  
Bit rate                       : 2 773 Kbps GV6!`@<  
Width                          : 1 920 pixels 'IP'g,o++  
Height                         : 800 pixels b')CGqbbmT  
Display aspect ratio           : 2.40:1 78#je=MDg  
Frame rate mode                : Constant 5fv eQI~!  
Frame rate                     : 25.000 fps dm,7OQ  
Color space                    : YUV iU9de  
Chroma subsampling             : 4:2:0 %\\l/{`eW  
Bit depth                      : 8 bits wfM$JYfI  
Scan type                      : Progressive +N"A5U  
Bits/(Pixel*Frame)             : 0.072 ?'CIt5n+\{  
Stream size                    : 1.55 GiB (84%) [%YA42_`LD  
Default                        : Yes Yfk[mo  
Forced                         : No Et(Q$/W  
@YdS_W  
Audio AR`X2m '  
ID                             : 2 YoGnk^$  
Format                         : AC-3 Ge@./SGT  
Format/Info                    : Audio Coding 3 D#x D-c  
Mode extension                 : CM (complete main) r^ S 4 I&  
Format settings, Endianness    : Big Vi23pDZ5  
Codec ID                       : A_AC3 ~Lhq7;=H?O  
Duration                       : 1h 19mn yJWgz`/L  
Bit rate mode                  : Constant &zlwV"W  
Bit rate                       : 448 Kbps A|CW 4f,  
Channel(s)                     : 2 channels Zq2dCp%  
Channel positions              : Front: L R @JT9utct  
Sampling rate                  : 44.1 KHz ,IA0n79  
Bit depth                      : 16 bits T.d+@ZV<#  
Compression mode               : Lossy qw&Wfk\}  
Delay relative to video        : -80ms iN0pYqY*  
Stream size                    : 256 MiB (14%) { > {|3  
Default                        : Yes (WR&Vt4Rh  
Forced                         : No cE/7B'cR  
A1{P"p!  
h/5n+*x(  
本部分内容设定了隐藏,需要回复后才能看到