切换到宽版
  • 481阅读
  • 0回复

妖医/泰国妖医/泰恋.Witch.Doctor.2016.080p.WEBRip.x264.AC3-SeeHD [复制链接]

上一主题 下一主题
 

只看楼主 倒序阅读 使用道具 0 发表于: 2016-07-21
!k)6r6  
◎译  名 妖医/泰国妖医/泰恋 {h@\C|nF  
◎片  名 Witch Doctor / Thailand's Love [j+:2@  
◎年  代 2016 :3n@].  
◎国  家 中国 [i`  
◎类  别 悬疑/惊悚/恐怖 V:kRr cX  
◎语  言 普通话 tk%f_"}  
◎字  幕 简体中文 = ^NvUrK  
◎IMDb评分  N/A %xg+UW }  
◎IMDB链接 N/A N&NBn(  
◎文件格式 x264 + AC3 ^HSxE  
◎视频尺寸 1920x800 H2s:M  
◎文件大小 1.83 GiB {Yj5Mj|#  
◎片  长 1h 19mn N `|A  
◎导  演 柯瑞  Cory Chen EL?(D  
      吴宗强  Zongqiang Wu !4vb{AH  
◎主  演 谭耀文 Patrick Tam   陈永霖   4!/JN J  
      宝儿  Poy   邢潇   E 5&Z={  
      吕聿来  Yulai Lu   沙青   j,M$l mR')  
      孟瑶  Yao Meng   邢慧 + Q-b}  
      高亚麟 Yalin Gao exb} y  
LTWkHy x  
c@t?R$c  
jSY[Y:6md  
◎简  介 qVn<c,8#  
,n/]ALz>~  
:,l7e  
  泰国魅力美女邢潇(POYD饰演)从小和双胞胎姐姐邢慧分离,她和男友沙青为了找回邢慧用尽了各种努力。在这过程中邢潇邂逅了陈永霖。好奇和悲悯让陈永霖介入了沙青和邢潇的生活。当他陷入邢潇的情网之后,才发现,这只是一个处处设防,步步惊心的迷局。 S<i$0p8J;  
m-AF&( ;K  
General kTb$lLG\xk  
Format                         : Matroska ]RCo@QW  
Format version                 : Version 4 / Version 2 ]Y\$U<YjO  
File size                      : 1.83 GiB iq; | i!  
Duration                       : 1h 19mn {D4FYr J  
Overall bit rate               : 3 286 Kbps U#3N90,N=  
Encoded date                   : UTC 2016-07-03 03:22:51 nGF +a[Z  
Xh@K89`uX  
Video mU/o%|h  
ID                             : 1 \O|SPhaIf  
Format                         : AVC h* S"]ye5  
Format/Info                    : Advanced Video Codec <]rayUyaf  
Format profile                 : High@L4.0 NL9.J @"b  
Format settings, CABAC         : Yes kKyU?/aj  
Format settings, ReFrames      : 3 frames $J7V]c*-b  
Codec ID                       : V_MPEG4/ISO/AVC Vebv!  
Duration                       : 1h 19mn ?H=YJK$k  
Bit rate                       : 2 773 Kbps >XgoN\w  
Width                          : 1 920 pixels Af|h*V4Xu  
Height                         : 800 pixels !M~: #k  
Display aspect ratio           : 2.40:1 HMq}){=S  
Frame rate mode                : Constant ytcLx77`:  
Frame rate                     : 25.000 fps s%jB Ieh  
Color space                    : YUV  Ng #psN  
Chroma subsampling             : 4:2:0 y3o q{Z>  
Bit depth                      : 8 bits v$}^$8`  
Scan type                      : Progressive 9)!Ks g(h  
Bits/(Pixel*Frame)             : 0.072 8SjCU+V  
Stream size                    : 1.55 GiB (84%) YgEd%Z%4  
Default                        : Yes !:+U-mb*  
Forced                         : No 3qWrSziD  
$[T ~<I  
Audio FWW4n_74  
ID                             : 2 Q7+WV`&  
Format                         : AC-3 ^%\a,~  
Format/Info                    : Audio Coding 3 ) 57'<  
Mode extension                 : CM (complete main) t #(NfzN  
Format settings, Endianness    : Big G@s:|oe  
Codec ID                       : A_AC3 k=)U  
Duration                       : 1h 19mn A[P7hMn  
Bit rate mode                  : Constant |r@;ulO  
Bit rate                       : 448 Kbps Q 8]X  
Channel(s)                     : 2 channels ?O 25k!7  
Channel positions              : Front: L R =9&2udV1  
Sampling rate                  : 44.1 KHz (u?s@/e:`/  
Bit depth                      : 16 bits ev&l=(hY  
Compression mode               : Lossy R&uPoY,f  
Delay relative to video        : -80ms #c|l|Xvq2  
Stream size                    : 256 MiB (14%) lg|6~=aQ  
Default                        : Yes SrA6}kS  
Forced                         : No ?"b __(3  
H;=yR]E  
]Jz=. F sO  
本部分内容设定了隐藏,需要回复后才能看到