切换到宽版
  • 332阅读
  • 0回复

妖医/泰国妖医/泰恋.Witch.Doctor.2016.080p.WEBRip.x264.AC3-SeeHD [复制链接]

上一主题 下一主题
 

只看楼主 倒序阅读 使用道具 0 发表于: 2016-07-21
q.FgX  
◎译  名 妖医/泰国妖医/泰恋 |/C>xunzz  
◎片  名 Witch Doctor / Thailand's Love bwUsE U 0  
◎年  代 2016 !=--pb  
◎国  家 中国 "2(lgxhj  
◎类  别 悬疑/惊悚/恐怖 c 6@!?8J  
◎语  言 普通话 L)&?$V  
◎字  幕 简体中文 YuSe~~F)j  
◎IMDb评分  N/A mza1Q~<  
◎IMDB链接 N/A JYOyz+wNd  
◎文件格式 x264 + AC3 .5|AX6p+^  
◎视频尺寸 1920x800 ,,S5 8\x  
◎文件大小 1.83 GiB 1B w CJ7?8  
◎片  长 1h 19mn %50}oD@  
◎导  演 柯瑞  Cory Chen hc2[,Hju{O  
      吴宗强  Zongqiang Wu 8:0QIkqk  
◎主  演 谭耀文 Patrick Tam   陈永霖   S9J<3 =  
      宝儿  Poy   邢潇   [5,aBf) X  
      吕聿来  Yulai Lu   沙青   5 :6^533]  
      孟瑶  Yao Meng   邢慧 ))cL+ r  
      高亚麟 Yalin Gao o $oW-U  
N[d*_KN.!  
6 /gh_'&  
&Z/aM?  
◎简  介 /c'3I  
\.2?951}  
lrB@n?hk  
  泰国魅力美女邢潇(POYD饰演)从小和双胞胎姐姐邢慧分离,她和男友沙青为了找回邢慧用尽了各种努力。在这过程中邢潇邂逅了陈永霖。好奇和悲悯让陈永霖介入了沙青和邢潇的生活。当他陷入邢潇的情网之后,才发现,这只是一个处处设防,步步惊心的迷局。 f305yo  
/+pbO-rW*  
General ,@jRe&6  
Format                         : Matroska H!Z=}>TN  
Format version                 : Version 4 / Version 2 Wk"4mq  
File size                      : 1.83 GiB u@5vK2  
Duration                       : 1h 19mn V.#,dDC@j  
Overall bit rate               : 3 286 Kbps 0b+OB pqN  
Encoded date                   : UTC 2016-07-03 03:22:51 CdgZq\  
-hj@^Auf  
Video {j@ S <PD  
ID                             : 1 3US}('  
Format                         : AVC - FV$Sne  
Format/Info                    : Advanced Video Codec (M5w:qbR  
Format profile                 : High@L4.0 Q*}#?g  
Format settings, CABAC         : Yes g^@ Kx5O\  
Format settings, ReFrames      : 3 frames 8rwkux >  
Codec ID                       : V_MPEG4/ISO/AVC Yh) yp?  
Duration                       : 1h 19mn :L#t?~  
Bit rate                       : 2 773 Kbps =8O057y  
Width                          : 1 920 pixels A]" $O&l  
Height                         : 800 pixels rq?:I:0  
Display aspect ratio           : 2.40:1 __r]@hY   
Frame rate mode                : Constant Cv862k P  
Frame rate                     : 25.000 fps /Y@^B,6 \  
Color space                    : YUV 3&'ll51t  
Chroma subsampling             : 4:2:0 yE[ -@3v  
Bit depth                      : 8 bits >y)(M(o  
Scan type                      : Progressive .WM0x{t/  
Bits/(Pixel*Frame)             : 0.072 y%)5r}S^  
Stream size                    : 1.55 GiB (84%) 7sKN`  
Default                        : Yes Ci6yH( RE  
Forced                         : No Z*S 9pkWcF  
>yFEUD:  
Audio k_%2Ok   
ID                             : 2 v( D{_  
Format                         : AC-3 S!Ue+jW  
Format/Info                    : Audio Coding 3 3|zqEGT*  
Mode extension                 : CM (complete main) CqX2R:#  
Format settings, Endianness    : Big P\ \4 w)C  
Codec ID                       : A_AC3 ?h UC#{  
Duration                       : 1h 19mn jqxeON  
Bit rate mode                  : Constant amq]&.M  
Bit rate                       : 448 Kbps 1~:7W  
Channel(s)                     : 2 channels 'teToE<i  
Channel positions              : Front: L R "3o{@TdU  
Sampling rate                  : 44.1 KHz *O-1zIlp  
Bit depth                      : 16 bits kG_ K&,;@  
Compression mode               : Lossy f`'? 2  
Delay relative to video        : -80ms ,JIjAm*2  
Stream size                    : 256 MiB (14%) :e>y= s>  
Default                        : Yes '9^+J7iO(+  
Forced                         : No RM\it"g  
Kp? ):6  
+c4]}9f!  
本部分内容设定了隐藏,需要回复后才能看到