切换到宽版
  • 769阅读
  • 1回复

007:幽灵党.Spectre.2015.1080p.BluRay.x264.DTS-WiKi [复制链接]

上一主题 下一主题
 

只看楼主 倒序阅读 使用道具 0 发表于: 2016-01-29
xgpf2y!{  
◎译  名 007:幽灵党/007:鬼影帝国(港)/007:恶魔四伏(台)/007:大破幽灵危机/007系列24:大破幽灵危机/邦德24 ?:-:m'jdU  
◎片  名 Spectre GG +T-  
◎年  代 2015 5Z5x\CcC3  
◎国  家 英国/美国 L[,19 ;(  
◎类  别 动作/惊悚/冒险 c %Cbq0+2  
◎语  言 英语/西班牙语/意大利语/德语/法语 zNdkwj p+  
◎上映日期 2015-10-26(英国)/2015-11-06(美国)/2015-11-13(中国大陆) XoL DqN!  
◎IMDb评分  7.0/10 from 182,546 users V/kndV[j  
◎IMDb链接  http://www.imdb.com/title/tt2379713/ gq/Za/ !6  
◎豆瓣评分 6.2/10 from 76,738 users { I\og  
◎豆瓣链接 http://movie.douban.com/subject/11620560/ !2Z"Lm  
◎片  长 148分钟 5gqs"trF  
◎导  演 萨姆·门德斯 Sam Mendes |D%mWQng  
◎主  演 丹尼尔·克雷格 Daniel Craig rjO{B`sV*  
      克里斯托弗·沃尔兹 Christoph Waltz rDa{Ve  
      蕾雅·赛杜 Léa Seydoux .R'M'a#*!A  
      本·卫肖 Ben Whishaw "J=Cy@SSa  
      娜奥米·哈里斯 Naomie Harris Jp+'"a  
      戴夫·巴蒂斯塔 Dave Batista WvSm !W  
      莫妮卡·贝鲁奇 Monica Bellucci TjYHoL5  
      拉尔夫·费因斯 Ralph Fiennes lw.[qP  
      斯黛芬妮·西格曼 Stephanie Sigman .9PT)^2  
      安德鲁·斯科特 Andrew Scott 0<NS1y  
      罗里·金奈尔 Rory Kinnear '?L^Fa_H  
      内芙·加切夫 Neve Gachev $Th)z}A}EA  
      加斯帕·克里斯滕森 Jesper Christensen 6w, "i#E!  
      丹尼尔·斯蒂森 Daniel Stisen ZDgT"53   
      丹尼尔·韦斯特伍德 Daniel Westwood zqXF`MAB=  
      拉斯科·阿特金斯 Lasco Atkins UU MB"3e  
Rqp#-04*W  
◎简  介 hr6j+p:  
/bB4ec8!  
  一个来自过去的加密信息让詹姆斯·邦德开始了一个神秘任务,从墨西哥城到最终的罗马,在那儿他邂逅了美艳的露琪亚·斯琪拉(莫妮卡·贝鲁奇 Monica Bellucci 饰),而她则是一名臭名昭著的意大利黑手党寡妇。邦德潜入到了一个密会中,揭开了一个名叫“幽灵党”的邪恶组织背后的秘密。 1BZ##xV*:G  
j&'6|s{  
  然而,远在伦敦的国家安全中心的新任负责人马克思·登彼(安德鲁·斯考特 Andrew Scott 饰)怀疑邦德这次行动的目的,并挑战M(拉尔夫·费恩斯 Ralph Fiennes 饰)掌权的军情六处的地位。邦德暗中召集了钱班霓(奈奥米·哈莉斯 Naomi Harries 饰)和Q博士(本·威肖 Ben Whishaw 饰),协助他寻找他宿敌的女儿——玛德琳·斯旺(蕾雅·赛杜 Léa Seydoux 饰)的下落,玛德琳·斯旺手里握有解开幽灵党秘密的线索。作为一名杀手的女儿,斯旺比绝大多数人更了解邦德。 /pPH D]  
h-?yed*?  
  正当邦德冒险潜入“幽灵党”中心时,他得知自己与他寻找的敌人(克里斯托弗·沃尔兹 Christoph Waltz 饰)之间有着骇人的联系…… 7Y(Dg`8G  
>19s:+  
◎获奖情况 i\ X3t5  
85q/|9D  
  第88届奥斯卡金像奖 (2016) -ZZJk-::  
/}8Au$nA  
  最佳原创歌曲(提名) Sq ]gU  
d$3md<lIB  
  第73届金球奖 (2016) k1f<(@*`  
pF- _yyQ  
  电影类 最佳原创歌曲 #NYnZ^6e  
A%Ka)UU+n  
  第21届美国评论家选择电影奖 (2016) YYYF a  
aH 'fAX0bF  
  最佳歌曲(提名) QhJN/v  
@qp6Y_,E[  
  动作片最佳男主角(提名) 丹尼尔·克雷格 (4/"uj5  
 Jc ze.t  
  第2届豆瓣电影年度榜单 (2015) K6p\ >J  
VPYLDg.'  
  11月最受关注电影(提名) 1LRP R@b^  
6dr 'nP  
General _Fa\y ZX  
Unique ID : 229737991405742230394353659295636090044 (0xACD5ED7DD2E810CFA825FB8A818F6CBC) G&{yM2:E  
Complete name : D:\PT\已完成任务\Spectre.2015.1080p.BluRay.x264.DTS-WiKi\Spectre.2015.1080p.BluRay.x264.DTS-WiKi.mkv N{HAWB{  
Format : Matroska c-XO}\?  
Format version : Version 4 / Version 2 Xpg -rxX  
File size : 15.8 GiB ?j.a >{  
Duration : 2h 28mn -EP1Rl`\  
Overall bit rate : 15.3 Mbps 92<+ug=  
Encoded date : UTC 2016-01-21 02:05:15 `+n#CWZ"Y  
Writing application : mkvmerge v7.9.0 ('Birds') 64bit Ne Y*l  
Writing library : libebml v1.3.1 + libmatroska v1.4.2 DPxx9lN_rx  
Sc>mw   
Video <$z[pw<  
ID : 1 FXJ0 G>F  
Format : AVC '2lzMc>wvP  
Format/Info : Advanced Video Codec M> WWP3  
Format profile : High@L4.1 -^m?%_<50l  
Format settings, CABAC : Yes |w|c!;,  
Format settings, ReFrames : 5 frames @e3+Gs  
Codec ID : V_MPEG4/ISO/AVC |JIlp"[  
Duration : 2h 28mn yO%^[c?  
Bit rate : 13.8 Mbps u'l 4=e  
Width : 1 920 pixels J Ha1lj  
Height : 804 pixels B1 }-   
Display aspect ratio : 2.40:1 q@bye4Ry%W  
Frame rate mode : Constant J\*uW|=F  
Frame rate : 23.976 (24000/1001) fps 1!MJ+?Jl  
Color space : YUV cmXbkM  
Chroma subsampling : 4:2:0 <?7qI85OT  
Bit depth : 8 bits TS6xF?  
Scan type : Progressive 3=uhy|f! /  
Bits/(Pixel*Frame) : 0.372 md+pS"8o;  
Stream size : 14.2 GiB (90%) Lf5zHUH  
Writing library : x264 core 129 r2245 bc13772 pV ^+X}  
Encoding settings : cabac=1 / ref=5 / deblock=1:-3:-3 / analyse=0x3:0x133 / me=umh / subme=11 / psy=1 / psy_rd=1.05:0.10 / mixed_ref=1 / me_range=64 / chroma_me=1 / trellis=2 / 8x8dct=1 / cqm=0 / deadzone=21,11 / fast_pskip=0 / chroma_qp_offset=-3 / threads=12 / lookahead_threads=2 / sliced_threads=0 / nr=0 / decimate=1 / interlaced=0 / bluray_compat=0 / constrained_intra=0 / bframes=8 / b_pyramid=2 / b_adapt=2 / b_bias=0 / direct=3 / weightb=1 / open_gop=0 / weightp=2 / keyint=250 / keyint_min=23 / scenecut=40 / intra_refresh=0 / rc_lookahead=60 / rc=2pass / mbtree=1 / bitrate=13761 / ratetol=1.0 / qcomp=0.60 / qpmin=0 / qpmax=69 / qpstep=4 / cplxblur=20.0 / qblur=0.5 / vbv_maxrate=40000 / vbv_bufsize=30000 / nal_hrd=none / ip_ratio=1.40 / aq=1:0.80 (_e[CqFu  
Default : Yes 1(BLdP3&  
Forced : No #G]IEO$M6  
BC.3U.  
Audio  wkZwtq  
ID : 2 0QZT<Zs  
Format : DTS '/8/M{`s  
Format/Info : Digital Theater Systems 2(DhKHrF  
Mode : 16 b=lJ`|  
Format settings, Endianness : Big &B(z**+9  
Codec ID : A_DTS NRtH?&7  
Duration : 2h 28mn I+kAy;2  
Bit rate mode : Constant t7-]OY7%w_  
Bit rate : 1 509 Kbps Qa=Y?=Za  
Channel(s) : 6 channels >(a35 b$  
Channel positions : Front: L C R, Side: L R, LFE 2QaE&8vW  
Sampling rate : 48.0 KHz `r1}:`.m,  
Frame rate : 93.750 fps (512 spf) gP QOv  
Bit depth : 24 bits Zu|NF uFI  
Compression mode : Lossy Hdew5Xn(:  
Stream size : 1.56 GiB (10%) HN5661;8  
Language : English \bdKLcKI,  
Default : Yes fVn4=d6X  
Forced : No O+o)z6(  
DK?aFSf\  
TbD  
s*Qyd{"z  
本部分内容设定了隐藏,需要回复后才能看到

只看该作者 1 发表于: 2016-02-01
多谢楼主分享