切换到宽版
  • 867阅读
  • 1回复

007:幽灵党.Spectre.2015.1080p.BluRay.x264.DTS-WiKi [复制链接]

上一主题 下一主题
 

只看楼主 倒序阅读 使用道具 0 发表于: 2016-01-29
oIb|*gX^  
◎译  名 007:幽灵党/007:鬼影帝国(港)/007:恶魔四伏(台)/007:大破幽灵危机/007系列24:大破幽灵危机/邦德24 49dd5ddr  
◎片  名 Spectre fi$-;Gz  
◎年  代 2015 .QN>z-YA6:  
◎国  家 英国/美国 fDvl/|62{  
◎类  别 动作/惊悚/冒险 Ft;^g3N  
◎语  言 英语/西班牙语/意大利语/德语/法语 j{9D{  
◎上映日期 2015-10-26(英国)/2015-11-06(美国)/2015-11-13(中国大陆) }7 c[Q($K  
◎IMDb评分  7.0/10 from 182,546 users hnc@  
◎IMDb链接  http://www.imdb.com/title/tt2379713/ tjluk  
◎豆瓣评分 6.2/10 from 76,738 users BC &9fr  
◎豆瓣链接 http://movie.douban.com/subject/11620560/ }9W4"e2)  
◎片  长 148分钟 $l|qk  z  
◎导  演 萨姆·门德斯 Sam Mendes f^"N!f a  
◎主  演 丹尼尔·克雷格 Daniel Craig jg\Z;_!W  
      克里斯托弗·沃尔兹 Christoph Waltz */|9= $54  
      蕾雅·赛杜 Léa Seydoux A3iFI9Iv  
      本·卫肖 Ben Whishaw YtfVD7m  
      娜奥米·哈里斯 Naomie Harris /x[jQM\  
      戴夫·巴蒂斯塔 Dave Batista H s"HID  
      莫妮卡·贝鲁奇 Monica Bellucci Ou1JIxZ)|  
      拉尔夫·费因斯 Ralph Fiennes li 6%)  
      斯黛芬妮·西格曼 Stephanie Sigman nEkR1^30  
      安德鲁·斯科特 Andrew Scott Yo("U8:XX  
      罗里·金奈尔 Rory Kinnear < !dqTJos  
      内芙·加切夫 Neve Gachev By9*1H2R  
      加斯帕·克里斯滕森 Jesper Christensen IuRmEL_Q_  
      丹尼尔·斯蒂森 Daniel Stisen @p NNq  
      丹尼尔·韦斯特伍德 Daniel Westwood (C@~3!AVa  
      拉斯科·阿特金斯 Lasco Atkins .On|uC)!  
Jh?dw3Ai^  
◎简  介 [>1OJY.S}T  
*]VFvh  
  一个来自过去的加密信息让詹姆斯·邦德开始了一个神秘任务,从墨西哥城到最终的罗马,在那儿他邂逅了美艳的露琪亚·斯琪拉(莫妮卡·贝鲁奇 Monica Bellucci 饰),而她则是一名臭名昭著的意大利黑手党寡妇。邦德潜入到了一个密会中,揭开了一个名叫“幽灵党”的邪恶组织背后的秘密。 ?}a;}Q 6  
qh2ON>e;  
  然而,远在伦敦的国家安全中心的新任负责人马克思·登彼(安德鲁·斯考特 Andrew Scott 饰)怀疑邦德这次行动的目的,并挑战M(拉尔夫·费恩斯 Ralph Fiennes 饰)掌权的军情六处的地位。邦德暗中召集了钱班霓(奈奥米·哈莉斯 Naomi Harries 饰)和Q博士(本·威肖 Ben Whishaw 饰),协助他寻找他宿敌的女儿——玛德琳·斯旺(蕾雅·赛杜 Léa Seydoux 饰)的下落,玛德琳·斯旺手里握有解开幽灵党秘密的线索。作为一名杀手的女儿,斯旺比绝大多数人更了解邦德。 cdZ~2vk  
)l[M Q4vWW  
  正当邦德冒险潜入“幽灵党”中心时,他得知自己与他寻找的敌人(克里斯托弗·沃尔兹 Christoph Waltz 饰)之间有着骇人的联系…… YA +E\  
$[/&74#0HX  
◎获奖情况 yA.4G_|I  
9=V:&.L  
  第88届奥斯卡金像奖 (2016) Ffv`kn@  
6^"=dn6K  
  最佳原创歌曲(提名) 846$x $G4  
ulkJR-""&  
  第73届金球奖 (2016) (v}>tb*#`  
Q'YH>oGh^  
  电影类 最佳原创歌曲 d)R:9M}v  
%JHGiCv|  
  第21届美国评论家选择电影奖 (2016) ?$6Y2  
X '`~s}vGO  
  最佳歌曲(提名) "gne_Ye.  
0VGPEKRh  
  动作片最佳男主角(提名) 丹尼尔·克雷格 k=B] &F  
t $xY #:  
  第2届豆瓣电影年度榜单 (2015) elG<k%/2  
(h5'9r  
  11月最受关注电影(提名) OQ>x5?um  
#&m0WI1  
General l#H#+*F  
Unique ID : 229737991405742230394353659295636090044 (0xACD5ED7DD2E810CFA825FB8A818F6CBC) 5c^Z/ Jl$c  
Complete name : D:\PT\已完成任务\Spectre.2015.1080p.BluRay.x264.DTS-WiKi\Spectre.2015.1080p.BluRay.x264.DTS-WiKi.mkv n;$5Cq!v=  
Format : Matroska 4)"n RjGg  
Format version : Version 4 / Version 2 u#V5 ?i  
File size : 15.8 GiB _`_%Y(Xat  
Duration : 2h 28mn `(f!*Ru@/z  
Overall bit rate : 15.3 Mbps  mi)LP?q  
Encoded date : UTC 2016-01-21 02:05:15 c=L2%XPP  
Writing application : mkvmerge v7.9.0 ('Birds') 64bit u\LFlX0sO  
Writing library : libebml v1.3.1 + libmatroska v1.4.2 #L{OV)a<  
@*Wh  
Video z6?)3'  
ID : 1 ^H2-RBE#  
Format : AVC \yd s5g!:  
Format/Info : Advanced Video Codec f"9q^  
Format profile : High@L4.1 >9q&PEc  
Format settings, CABAC : Yes _=NwQu\_F  
Format settings, ReFrames : 5 frames B|4X}*@SX  
Codec ID : V_MPEG4/ISO/AVC 9XRZ$j}L  
Duration : 2h 28mn {e[c  
Bit rate : 13.8 Mbps :L1dyVA{  
Width : 1 920 pixels &/uu)v  
Height : 804 pixels IZ =Mlu  
Display aspect ratio : 2.40:1 /qx0TDB  
Frame rate mode : Constant v|Yh w  
Frame rate : 23.976 (24000/1001) fps EvWzq%z l  
Color space : YUV F6K4#t+9  
Chroma subsampling : 4:2:0 t: IN,Kl4  
Bit depth : 8 bits PC[c/CoD  
Scan type : Progressive ;w%*M}`5  
Bits/(Pixel*Frame) : 0.372 1xbK'i:-S  
Stream size : 14.2 GiB (90%) LNa$ X5`  
Writing library : x264 core 129 r2245 bc13772 1XnZy5fEo  
Encoding settings : cabac=1 / ref=5 / deblock=1:-3:-3 / analyse=0x3:0x133 / me=umh / subme=11 / psy=1 / psy_rd=1.05:0.10 / mixed_ref=1 / me_range=64 / chroma_me=1 / trellis=2 / 8x8dct=1 / cqm=0 / deadzone=21,11 / fast_pskip=0 / chroma_qp_offset=-3 / threads=12 / lookahead_threads=2 / sliced_threads=0 / nr=0 / decimate=1 / interlaced=0 / bluray_compat=0 / constrained_intra=0 / bframes=8 / b_pyramid=2 / b_adapt=2 / b_bias=0 / direct=3 / weightb=1 / open_gop=0 / weightp=2 / keyint=250 / keyint_min=23 / scenecut=40 / intra_refresh=0 / rc_lookahead=60 / rc=2pass / mbtree=1 / bitrate=13761 / ratetol=1.0 / qcomp=0.60 / qpmin=0 / qpmax=69 / qpstep=4 / cplxblur=20.0 / qblur=0.5 / vbv_maxrate=40000 / vbv_bufsize=30000 / nal_hrd=none / ip_ratio=1.40 / aq=1:0.80 Ty<L8+B|  
Default : Yes ,WG<hgg-U)  
Forced : No |6(ZD^w  
RgGyoZ  
Audio qqu.EE  
ID : 2 ;+tpvnV;]  
Format : DTS >9f%@uSM$3  
Format/Info : Digital Theater Systems K\$J4~EtG  
Mode : 16 K,e w>U  
Format settings, Endianness : Big ?@6/E<-Z$  
Codec ID : A_DTS ,uPJ_oZs  
Duration : 2h 28mn u_ '!_T L  
Bit rate mode : Constant K"0PTWt  
Bit rate : 1 509 Kbps L9@&2?k  
Channel(s) : 6 channels EM/@T}  
Channel positions : Front: L C R, Side: L R, LFE MUA%^)#u4Q  
Sampling rate : 48.0 KHz .p=sBLp8  
Frame rate : 93.750 fps (512 spf) +8#_59;x  
Bit depth : 24 bits -CR?<A4mud  
Compression mode : Lossy }4{fQ`HT  
Stream size : 1.56 GiB (10%) :Pg}Zz<  
Language : English kdCP  
Default : Yes ! /NG.Wf  
Forced : No \T\b NbPn  
oh KCdT~  
z)xSN;x  
{XW Z<OjG  
本部分内容设定了隐藏,需要回复后才能看到

只看该作者 1 发表于: 2016-02-01
多谢楼主分享