切换到宽版
  • 717阅读
  • 1回复

007:幽灵党.Spectre.2015.1080p.BluRay.x264.DTS-WiKi [复制链接]

上一主题 下一主题
 

只看楼主 倒序阅读 使用道具 0 发表于: 2016-01-29
2E/yZ ~2s  
◎译  名 007:幽灵党/007:鬼影帝国(港)/007:恶魔四伏(台)/007:大破幽灵危机/007系列24:大破幽灵危机/邦德24 wf&1,t3Bgn  
◎片  名 Spectre |$QL>{81  
◎年  代 2015 zKf.jpF^  
◎国  家 英国/美国 5Vu@gRk_  
◎类  别 动作/惊悚/冒险 R)u ${  
◎语  言 英语/西班牙语/意大利语/德语/法语 bA*T1Db,t>  
◎上映日期 2015-10-26(英国)/2015-11-06(美国)/2015-11-13(中国大陆) SHt#%3EU  
◎IMDb评分  7.0/10 from 182,546 users f%ynod8  
◎IMDb链接  http://www.imdb.com/title/tt2379713/ ]>"q>XgnI  
◎豆瓣评分 6.2/10 from 76,738 users oP`yBX  
◎豆瓣链接 http://movie.douban.com/subject/11620560/ L\/YS;Y  
◎片  长 148分钟 Q!(qL[o  
◎导  演 萨姆·门德斯 Sam Mendes n<3*7/-  
◎主  演 丹尼尔·克雷格 Daniel Craig C+<z ;9`  
      克里斯托弗·沃尔兹 Christoph Waltz P6([[mmG  
      蕾雅·赛杜 Léa Seydoux r<XlIi  
      本·卫肖 Ben Whishaw F3,djZq  
      娜奥米·哈里斯 Naomie Harris TkjPa};R  
      戴夫·巴蒂斯塔 Dave Batista B_uAa5'  
      莫妮卡·贝鲁奇 Monica Bellucci GTBT0$9 g.  
      拉尔夫·费因斯 Ralph Fiennes h6Q-+_5  
      斯黛芬妮·西格曼 Stephanie Sigman WC ZDS>  
      安德鲁·斯科特 Andrew Scott K" U!SWv  
      罗里·金奈尔 Rory Kinnear n?z^"vv$i  
      内芙·加切夫 Neve Gachev 8C 4 =f  
      加斯帕·克里斯滕森 Jesper Christensen `<x |< ey  
      丹尼尔·斯蒂森 Daniel Stisen ,Z 1W3;O  
      丹尼尔·韦斯特伍德 Daniel Westwood AYLCdCoK.  
      拉斯科·阿特金斯 Lasco Atkins ?ybX &V  
J`@#yHL  
◎简  介 PdNxuy  
Vo-]&u&cr  
  一个来自过去的加密信息让詹姆斯·邦德开始了一个神秘任务,从墨西哥城到最终的罗马,在那儿他邂逅了美艳的露琪亚·斯琪拉(莫妮卡·贝鲁奇 Monica Bellucci 饰),而她则是一名臭名昭著的意大利黑手党寡妇。邦德潜入到了一个密会中,揭开了一个名叫“幽灵党”的邪恶组织背后的秘密。 *iW$>Yjb  
GP,xGZZ  
  然而,远在伦敦的国家安全中心的新任负责人马克思·登彼(安德鲁·斯考特 Andrew Scott 饰)怀疑邦德这次行动的目的,并挑战M(拉尔夫·费恩斯 Ralph Fiennes 饰)掌权的军情六处的地位。邦德暗中召集了钱班霓(奈奥米·哈莉斯 Naomi Harries 饰)和Q博士(本·威肖 Ben Whishaw 饰),协助他寻找他宿敌的女儿——玛德琳·斯旺(蕾雅·赛杜 Léa Seydoux 饰)的下落,玛德琳·斯旺手里握有解开幽灵党秘密的线索。作为一名杀手的女儿,斯旺比绝大多数人更了解邦德。 }5 qjGD  
R 404\XGL  
  正当邦德冒险潜入“幽灵党”中心时,他得知自己与他寻找的敌人(克里斯托弗·沃尔兹 Christoph Waltz 饰)之间有着骇人的联系…… kn1+lF@  
h1uD>heGl  
◎获奖情况 ^FZ7)T  
D8I)3cXa'  
  第88届奥斯卡金像奖 (2016) I-`qo7dQ_S  
H%:u9DlEK/  
  最佳原创歌曲(提名) @N0(%o&  
H@R2mw  
  第73届金球奖 (2016) bAl0z)p  
GOeYw[Vh  
  电影类 最佳原创歌曲 d PfD Pb  
[ queXDn"m  
  第21届美国评论家选择电影奖 (2016) 9v2(cpZ  
hm5A@Z   
  最佳歌曲(提名) UIl^s8/  
:/ yR  
  动作片最佳男主角(提名) 丹尼尔·克雷格 {=Ku9\  
^M Zdht   
  第2届豆瓣电影年度榜单 (2015) rH<iUiA?O  
L beMP  
  11月最受关注电影(提名) -S(_ZbeN  
.+"SDt oX  
General `xO &!DN  
Unique ID : 229737991405742230394353659295636090044 (0xACD5ED7DD2E810CFA825FB8A818F6CBC) v s )1Rm  
Complete name : D:\PT\已完成任务\Spectre.2015.1080p.BluRay.x264.DTS-WiKi\Spectre.2015.1080p.BluRay.x264.DTS-WiKi.mkv XS'0fq a  
Format : Matroska .C2.j[>  
Format version : Version 4 / Version 2 tR]1c  
File size : 15.8 GiB H#joc0?P  
Duration : 2h 28mn =k(~PB^>  
Overall bit rate : 15.3 Mbps s: .5S  
Encoded date : UTC 2016-01-21 02:05:15 2 #+g4  
Writing application : mkvmerge v7.9.0 ('Birds') 64bit 1wqsGad +;  
Writing library : libebml v1.3.1 + libmatroska v1.4.2 FrNW@  
%joIe w]V3  
Video 8;YN`S!o  
ID : 1 *<**rY*  
Format : AVC ]o(&J7Z6-  
Format/Info : Advanced Video Codec }0({c~z\  
Format profile : High@L4.1 B0:[3@P7  
Format settings, CABAC : Yes h|!F'F{  
Format settings, ReFrames : 5 frames | ZI~#V  
Codec ID : V_MPEG4/ISO/AVC ly d[GfJ  
Duration : 2h 28mn ?6bk&"T?  
Bit rate : 13.8 Mbps FH'jP`  
Width : 1 920 pixels gJy Ft8Z<  
Height : 804 pixels [Q/')5b  
Display aspect ratio : 2.40:1 I!)gXtJA"  
Frame rate mode : Constant ezt_ct/Z  
Frame rate : 23.976 (24000/1001) fps !8|]R  
Color space : YUV ^;2dZgJ4^  
Chroma subsampling : 4:2:0 t:X[Blw3$  
Bit depth : 8 bits P7I,xcOm  
Scan type : Progressive U=C8gVb{Hq  
Bits/(Pixel*Frame) : 0.372 d8b'Gjwtw  
Stream size : 14.2 GiB (90%) =#i#IF42?  
Writing library : x264 core 129 r2245 bc13772 6NCa=9  
Encoding settings : cabac=1 / ref=5 / deblock=1:-3:-3 / analyse=0x3:0x133 / me=umh / subme=11 / psy=1 / psy_rd=1.05:0.10 / mixed_ref=1 / me_range=64 / chroma_me=1 / trellis=2 / 8x8dct=1 / cqm=0 / deadzone=21,11 / fast_pskip=0 / chroma_qp_offset=-3 / threads=12 / lookahead_threads=2 / sliced_threads=0 / nr=0 / decimate=1 / interlaced=0 / bluray_compat=0 / constrained_intra=0 / bframes=8 / b_pyramid=2 / b_adapt=2 / b_bias=0 / direct=3 / weightb=1 / open_gop=0 / weightp=2 / keyint=250 / keyint_min=23 / scenecut=40 / intra_refresh=0 / rc_lookahead=60 / rc=2pass / mbtree=1 / bitrate=13761 / ratetol=1.0 / qcomp=0.60 / qpmin=0 / qpmax=69 / qpstep=4 / cplxblur=20.0 / qblur=0.5 / vbv_maxrate=40000 / vbv_bufsize=30000 / nal_hrd=none / ip_ratio=1.40 / aq=1:0.80 _[SP*" ]H  
Default : Yes fuQ|[tpvQG  
Forced : No g#V3u=I8~  
W?"Z>tgp  
Audio n ?%3=~9  
ID : 2 (WK $ )f  
Format : DTS $a6&OH/  
Format/Info : Digital Theater Systems @NXGVmY1}  
Mode : 16 C.{*|#&GAt  
Format settings, Endianness : Big Y.?|[x0Wh  
Codec ID : A_DTS U/M(4H3>H  
Duration : 2h 28mn WT!8.M;Kv  
Bit rate mode : Constant &50Kn[  
Bit rate : 1 509 Kbps S{A u%Rs  
Channel(s) : 6 channels G:.Nq,513  
Channel positions : Front: L C R, Side: L R, LFE v&U'%1|  
Sampling rate : 48.0 KHz _[V.%k  
Frame rate : 93.750 fps (512 spf) 0>-l {4srs  
Bit depth : 24 bits & b}!KD1  
Compression mode : Lossy lC6#EU;  
Stream size : 1.56 GiB (10%) VG'oy  
Language : English &L-y1'i=j  
Default : Yes \PzC:H  
Forced : No )\uy 0+b  
yov:JnWo  
o><~.T=d&  
~?aq=T  
本部分内容设定了隐藏,需要回复后才能看到

只看该作者 1 发表于: 2016-02-01
多谢楼主分享