切换到宽版
  • 583阅读
  • 1回复

007:幽灵党.Spectre.2015.1080p.BluRay.x264.DTS-WiKi [复制链接]

上一主题 下一主题
 

只看楼主 倒序阅读 使用道具 0 发表于: 2016-01-29
R2]2#3`  
◎译  名 007:幽灵党/007:鬼影帝国(港)/007:恶魔四伏(台)/007:大破幽灵危机/007系列24:大破幽灵危机/邦德24 t`b!3U>I  
◎片  名 Spectre q_5hKipd\b  
◎年  代 2015 j_3X 1w)k  
◎国  家 英国/美国 D*!UB5<>/t  
◎类  别 动作/惊悚/冒险 ^Po^Co  
◎语  言 英语/西班牙语/意大利语/德语/法语 ,*y\b|<j  
◎上映日期 2015-10-26(英国)/2015-11-06(美国)/2015-11-13(中国大陆) j %3wD2 l  
◎IMDb评分  7.0/10 from 182,546 users E< 57d,3l  
◎IMDb链接  http://www.imdb.com/title/tt2379713/ OMl<=;^:|  
◎豆瓣评分 6.2/10 from 76,738 users 3lkz:]SsE  
◎豆瓣链接 http://movie.douban.com/subject/11620560/ kjS9?>i  
◎片  长 148分钟 m1d*Lt>F@  
◎导  演 萨姆·门德斯 Sam Mendes ~>j5z&:&  
◎主  演 丹尼尔·克雷格 Daniel Craig '@jP$6T&  
      克里斯托弗·沃尔兹 Christoph Waltz jcC "S qL  
      蕾雅·赛杜 Léa Seydoux .B9i`)0  
      本·卫肖 Ben Whishaw &l&B[s6[  
      娜奥米·哈里斯 Naomie Harris 5a0&LNm  
      戴夫·巴蒂斯塔 Dave Batista xcVF0%wVC  
      莫妮卡·贝鲁奇 Monica Bellucci Cyn_UE  
      拉尔夫·费因斯 Ralph Fiennes _? aI/D  
      斯黛芬妮·西格曼 Stephanie Sigman UWf@(8  
      安德鲁·斯科特 Andrew Scott w~}*MsB  
      罗里·金奈尔 Rory Kinnear y)Y0SY1\j  
      内芙·加切夫 Neve Gachev A9D vU)1  
      加斯帕·克里斯滕森 Jesper Christensen 5[qCH(6  
      丹尼尔·斯蒂森 Daniel Stisen ?Dr_WFN jO  
      丹尼尔·韦斯特伍德 Daniel Westwood +nOa&d\  
      拉斯科·阿特金斯 Lasco Atkins ?'jRUfl   
M%aA1!@/  
◎简  介 3|Vh[iAa\  
20NotCM  
  一个来自过去的加密信息让詹姆斯·邦德开始了一个神秘任务,从墨西哥城到最终的罗马,在那儿他邂逅了美艳的露琪亚·斯琪拉(莫妮卡·贝鲁奇 Monica Bellucci 饰),而她则是一名臭名昭著的意大利黑手党寡妇。邦德潜入到了一个密会中,揭开了一个名叫“幽灵党”的邪恶组织背后的秘密。 #rps2nf.j  
I<&(Dg|XQ  
  然而,远在伦敦的国家安全中心的新任负责人马克思·登彼(安德鲁·斯考特 Andrew Scott 饰)怀疑邦德这次行动的目的,并挑战M(拉尔夫·费恩斯 Ralph Fiennes 饰)掌权的军情六处的地位。邦德暗中召集了钱班霓(奈奥米·哈莉斯 Naomi Harries 饰)和Q博士(本·威肖 Ben Whishaw 饰),协助他寻找他宿敌的女儿——玛德琳·斯旺(蕾雅·赛杜 Léa Seydoux 饰)的下落,玛德琳·斯旺手里握有解开幽灵党秘密的线索。作为一名杀手的女儿,斯旺比绝大多数人更了解邦德。 !! \O B6  
6u6,9VG,  
  正当邦德冒险潜入“幽灵党”中心时,他得知自己与他寻找的敌人(克里斯托弗·沃尔兹 Christoph Waltz 饰)之间有着骇人的联系…… A4|L;z/A[h  
1dE |q{  
◎获奖情况 yE3l%<;q  
@`D`u16]i  
  第88届奥斯卡金像奖 (2016) 8s@k0T<O  
C5ia9LpRX  
  最佳原创歌曲(提名) k% -S7iQ  
=0" Zse,  
  第73届金球奖 (2016) BQ /0z^A  
'(.vB~m7*+  
  电影类 最佳原创歌曲 \0'0)@uziQ  
j_#oP  
  第21届美国评论家选择电影奖 (2016) l` M7a9*U  
zmEg4v'I  
  最佳歌曲(提名) nUy2)CL[L  
e ab_"W   
  动作片最佳男主角(提名) 丹尼尔·克雷格 ~ V:@4P  
~4t7Q  
  第2届豆瓣电影年度榜单 (2015) +o*&JoC  
&nXa /XIZ_  
  11月最受关注电影(提名) uL K4tQ  
&|j^?ro6  
General :Dn{  
Unique ID : 229737991405742230394353659295636090044 (0xACD5ED7DD2E810CFA825FB8A818F6CBC) NR@n%p  
Complete name : D:\PT\已完成任务\Spectre.2015.1080p.BluRay.x264.DTS-WiKi\Spectre.2015.1080p.BluRay.x264.DTS-WiKi.mkv gb clk~kX  
Format : Matroska ex}6(;7)O  
Format version : Version 4 / Version 2 fg8"fbG`:  
File size : 15.8 GiB uz8Y)b  
Duration : 2h 28mn b+DBz}L4  
Overall bit rate : 15.3 Mbps _R ] qoUw;  
Encoded date : UTC 2016-01-21 02:05:15 /"LcW"2;N  
Writing application : mkvmerge v7.9.0 ('Birds') 64bit ' 6#en9{L  
Writing library : libebml v1.3.1 + libmatroska v1.4.2 UrhSX!g/A>  
"7RnT3  
Video 8G6[\P3fQ  
ID : 1 D$OUy}[2`.  
Format : AVC n\x@~ SzrX  
Format/Info : Advanced Video Codec XFx p^  
Format profile : High@L4.1 0Ia8x?80V  
Format settings, CABAC : Yes p\&Lbu zv  
Format settings, ReFrames : 5 frames  zG0191f  
Codec ID : V_MPEG4/ISO/AVC xD|CQo}:  
Duration : 2h 28mn (tLAJ_v!.K  
Bit rate : 13.8 Mbps (uk-c~T!u  
Width : 1 920 pixels v[UrOT:  
Height : 804 pixels UOwEA9q%  
Display aspect ratio : 2.40:1 L=1~)>mP  
Frame rate mode : Constant K>a+-QWK3  
Frame rate : 23.976 (24000/1001) fps s;[OR  
Color space : YUV ]@rt/ eX  
Chroma subsampling : 4:2:0 )>X C_ R  
Bit depth : 8 bits [G=+f6 a  
Scan type : Progressive ]?$e Bbt  
Bits/(Pixel*Frame) : 0.372 &0='z  
Stream size : 14.2 GiB (90%) 'Rg6JW\  
Writing library : x264 core 129 r2245 bc13772 P nxxW?  
Encoding settings : cabac=1 / ref=5 / deblock=1:-3:-3 / analyse=0x3:0x133 / me=umh / subme=11 / psy=1 / psy_rd=1.05:0.10 / mixed_ref=1 / me_range=64 / chroma_me=1 / trellis=2 / 8x8dct=1 / cqm=0 / deadzone=21,11 / fast_pskip=0 / chroma_qp_offset=-3 / threads=12 / lookahead_threads=2 / sliced_threads=0 / nr=0 / decimate=1 / interlaced=0 / bluray_compat=0 / constrained_intra=0 / bframes=8 / b_pyramid=2 / b_adapt=2 / b_bias=0 / direct=3 / weightb=1 / open_gop=0 / weightp=2 / keyint=250 / keyint_min=23 / scenecut=40 / intra_refresh=0 / rc_lookahead=60 / rc=2pass / mbtree=1 / bitrate=13761 / ratetol=1.0 / qcomp=0.60 / qpmin=0 / qpmax=69 / qpstep=4 / cplxblur=20.0 / qblur=0.5 / vbv_maxrate=40000 / vbv_bufsize=30000 / nal_hrd=none / ip_ratio=1.40 / aq=1:0.80 3cH`>#c  
Default : Yes $0OWPC1  
Forced : No {@7{!I|eD  
0kp#+&)+  
Audio 6_.K9;Gd  
ID : 2 k ='c*`IE  
Format : DTS G+$A|'<`z  
Format/Info : Digital Theater Systems x2M'!VK>n1  
Mode : 16 CI~P3"`]  
Format settings, Endianness : Big }0 BKKU+  
Codec ID : A_DTS qyx  '  
Duration : 2h 28mn c2aW4 TX2  
Bit rate mode : Constant :4(.S<fH)-  
Bit rate : 1 509 Kbps '0juZ~>}  
Channel(s) : 6 channels j=Co  
Channel positions : Front: L C R, Side: L R, LFE F*bmV>Qq  
Sampling rate : 48.0 KHz Xaca=tsO  
Frame rate : 93.750 fps (512 spf) 6u'+#nm  
Bit depth : 24 bits 8!T6N2O6d  
Compression mode : Lossy x<S?"  
Stream size : 1.56 GiB (10%) lg(*:To3B  
Language : English YjT7_|`(]  
Default : Yes z TM1 e  
Forced : No xXJl Qbs  
*&m{)cTs  
,xJ1\_GI`  
Jp0*Y-*Y  
本部分内容设定了隐藏,需要回复后才能看到

只看该作者 1 发表于: 2016-02-01
多谢楼主分享