切换到宽版
  • 637阅读
  • 1回复

007:幽灵党.Spectre.2015.1080p.BluRay.x264.DTS-WiKi [复制链接]

上一主题 下一主题
 

只看楼主 倒序阅读 使用道具 0 发表于: 2016-01-29
z mip  
◎译  名 007:幽灵党/007:鬼影帝国(港)/007:恶魔四伏(台)/007:大破幽灵危机/007系列24:大破幽灵危机/邦德24 cg3}33Z;6  
◎片  名 Spectre e^\e;>Dh>  
◎年  代 2015 aA#79LS  
◎国  家 英国/美国 Godrz*"  
◎类  别 动作/惊悚/冒险 lh'S_p8g  
◎语  言 英语/西班牙语/意大利语/德语/法语 an"~n`g  
◎上映日期 2015-10-26(英国)/2015-11-06(美国)/2015-11-13(中国大陆) )L:e0u  
◎IMDb评分  7.0/10 from 182,546 users ?Q-Tyf$3  
◎IMDb链接  http://www.imdb.com/title/tt2379713/ h*l$!nEN  
◎豆瓣评分 6.2/10 from 76,738 users A/<u>cCW  
◎豆瓣链接 http://movie.douban.com/subject/11620560/ Cty#|6 k  
◎片  长 148分钟 Oq.ss!/z  
◎导  演 萨姆·门德斯 Sam Mendes ?p@J7{a  
◎主  演 丹尼尔·克雷格 Daniel Craig D BHy%i  
      克里斯托弗·沃尔兹 Christoph Waltz =^u;uS[IW  
      蕾雅·赛杜 Léa Seydoux &$/ #"lW,V  
      本·卫肖 Ben Whishaw Zw9;g+9  
      娜奥米·哈里斯 Naomie Harris klJ21j0Bb2  
      戴夫·巴蒂斯塔 Dave Batista IANSpWea?  
      莫妮卡·贝鲁奇 Monica Bellucci Q"qI'*Kgt  
      拉尔夫·费因斯 Ralph Fiennes q_.fVn:!  
      斯黛芬妮·西格曼 Stephanie Sigman b&F9<XLqq  
      安德鲁·斯科特 Andrew Scott _aPAn|.  
      罗里·金奈尔 Rory Kinnear _F%`7j  
      内芙·加切夫 Neve Gachev uTR^K=Ve  
      加斯帕·克里斯滕森 Jesper Christensen  bOj)Wu  
      丹尼尔·斯蒂森 Daniel Stisen *[]E 5U  
      丹尼尔·韦斯特伍德 Daniel Westwood 5&n{QE?Um  
      拉斯科·阿特金斯 Lasco Atkins v,ssv{gU  
"9s_[e  
◎简  介 'vBZh1`p  
Vbl-Ff  
  一个来自过去的加密信息让詹姆斯·邦德开始了一个神秘任务,从墨西哥城到最终的罗马,在那儿他邂逅了美艳的露琪亚·斯琪拉(莫妮卡·贝鲁奇 Monica Bellucci 饰),而她则是一名臭名昭著的意大利黑手党寡妇。邦德潜入到了一个密会中,揭开了一个名叫“幽灵党”的邪恶组织背后的秘密。 12n:)yQy  
qazA,|L!  
  然而,远在伦敦的国家安全中心的新任负责人马克思·登彼(安德鲁·斯考特 Andrew Scott 饰)怀疑邦德这次行动的目的,并挑战M(拉尔夫·费恩斯 Ralph Fiennes 饰)掌权的军情六处的地位。邦德暗中召集了钱班霓(奈奥米·哈莉斯 Naomi Harries 饰)和Q博士(本·威肖 Ben Whishaw 饰),协助他寻找他宿敌的女儿——玛德琳·斯旺(蕾雅·赛杜 Léa Seydoux 饰)的下落,玛德琳·斯旺手里握有解开幽灵党秘密的线索。作为一名杀手的女儿,斯旺比绝大多数人更了解邦德。 Gc|)4c  
]j*2PSJG  
  正当邦德冒险潜入“幽灵党”中心时,他得知自己与他寻找的敌人(克里斯托弗·沃尔兹 Christoph Waltz 饰)之间有着骇人的联系…… ;yJ:W8U]+;  
}'x;J   
◎获奖情况 <P pvVDy3  
?A3L8^tR  
  第88届奥斯卡金像奖 (2016) l\s!A&L  
ls@]%pz.1d  
  最佳原创歌曲(提名) ^OY]Y+S`Ox  
2cYBm^o|x  
  第73届金球奖 (2016) W r/-{Wt  
rz"$zc.)  
  电影类 最佳原创歌曲 >Wr%usNxc  
/IpCo  
  第21届美国评论家选择电影奖 (2016) *V6| FU  
Z0Z6a Zeb  
  最佳歌曲(提名) @yuiNj .T  
y>a?<*Y+e  
  动作片最佳男主角(提名) 丹尼尔·克雷格 -@#w)  
SB\%"nnV  
  第2届豆瓣电影年度榜单 (2015) *1dDs^D#|  
6TW7E }a.  
  11月最受关注电影(提名) >aVgI<  
OldOc5D  
General iQ/~?'PB  
Unique ID : 229737991405742230394353659295636090044 (0xACD5ED7DD2E810CFA825FB8A818F6CBC) F_ F"3'[  
Complete name : D:\PT\已完成任务\Spectre.2015.1080p.BluRay.x264.DTS-WiKi\Spectre.2015.1080p.BluRay.x264.DTS-WiKi.mkv Tz]R}DKB&  
Format : Matroska !__0Vk[s  
Format version : Version 4 / Version 2 [C "\]LiX  
File size : 15.8 GiB Y 2 @8B6  
Duration : 2h 28mn D4=*yP  
Overall bit rate : 15.3 Mbps L!fTYX#K]  
Encoded date : UTC 2016-01-21 02:05:15  j#](Q!  
Writing application : mkvmerge v7.9.0 ('Birds') 64bit 75^6?#GS  
Writing library : libebml v1.3.1 + libmatroska v1.4.2 @?3f`l 9  
Lzq/^&sc(  
Video Zl9@E;|=  
ID : 1 x|6]+?l@6  
Format : AVC YFO{i-*q  
Format/Info : Advanced Video Codec {a7~P0$  
Format profile : High@L4.1 ~r--dU  
Format settings, CABAC : Yes YlHP:ZW-cu  
Format settings, ReFrames : 5 frames tEhg',2t(  
Codec ID : V_MPEG4/ISO/AVC `%C-7D'?  
Duration : 2h 28mn <S@jf4  
Bit rate : 13.8 Mbps "z~ba>,-\  
Width : 1 920 pixels  ?%,NOX  
Height : 804 pixels cl4E6\?z  
Display aspect ratio : 2.40:1 L|=5jn9 :  
Frame rate mode : Constant f`9 Mcli !  
Frame rate : 23.976 (24000/1001) fps DP ? d C`  
Color space : YUV qkb'@f=  
Chroma subsampling : 4:2:0 !J`lA  
Bit depth : 8 bits )[Y B&  
Scan type : Progressive :L[>!~YG_n  
Bits/(Pixel*Frame) : 0.372 v,KKn\X  
Stream size : 14.2 GiB (90%) v4P"|vZ$&  
Writing library : x264 core 129 r2245 bc13772 .G0 N+)  
Encoding settings : cabac=1 / ref=5 / deblock=1:-3:-3 / analyse=0x3:0x133 / me=umh / subme=11 / psy=1 / psy_rd=1.05:0.10 / mixed_ref=1 / me_range=64 / chroma_me=1 / trellis=2 / 8x8dct=1 / cqm=0 / deadzone=21,11 / fast_pskip=0 / chroma_qp_offset=-3 / threads=12 / lookahead_threads=2 / sliced_threads=0 / nr=0 / decimate=1 / interlaced=0 / bluray_compat=0 / constrained_intra=0 / bframes=8 / b_pyramid=2 / b_adapt=2 / b_bias=0 / direct=3 / weightb=1 / open_gop=0 / weightp=2 / keyint=250 / keyint_min=23 / scenecut=40 / intra_refresh=0 / rc_lookahead=60 / rc=2pass / mbtree=1 / bitrate=13761 / ratetol=1.0 / qcomp=0.60 / qpmin=0 / qpmax=69 / qpstep=4 / cplxblur=20.0 / qblur=0.5 / vbv_maxrate=40000 / vbv_bufsize=30000 / nal_hrd=none / ip_ratio=1.40 / aq=1:0.80 [{x}# oRSE  
Default : Yes CKsVs .:u  
Forced : No ,erw(7}'.  
)Z}AhX  
Audio :KLXrr  
ID : 2 lPTx] =G  
Format : DTS ~ Z\:Nx  
Format/Info : Digital Theater Systems uDF;_bli)H  
Mode : 16 FcDS*ZEk!  
Format settings, Endianness : Big 1\.$=N  
Codec ID : A_DTS V`V\/s gj  
Duration : 2h 28mn {Cx5m   
Bit rate mode : Constant K@D\5s|1|  
Bit rate : 1 509 Kbps gAqK)@8-  
Channel(s) : 6 channels {Mx(|)WkL  
Channel positions : Front: L C R, Side: L R, LFE $NXP)Lic)  
Sampling rate : 48.0 KHz F@ w; .e!  
Frame rate : 93.750 fps (512 spf) zzqJeIS  
Bit depth : 24 bits }Mc b\+[  
Compression mode : Lossy ahB qYA K9  
Stream size : 1.56 GiB (10%) 4fEDg{T  
Language : English $XBK_ 5  
Default : Yes ._mep\#.:  
Forced : No XX6Z|Y5.  
P]_d;\ !"v  
u;#]eUk9}  
]MbPivM  
本部分内容设定了隐藏,需要回复后才能看到

只看该作者 1 发表于: 2016-02-01
多谢楼主分享