切换到宽版
  • 457阅读
  • 1回复

007:幽灵党.Spectre.2015.1080p.BluRay.x264.DTS-WiKi [复制链接]

上一主题 下一主题
 

只看楼主 倒序阅读 使用道具 0 发表于: 2016-01-29
<, CrE5Pl  
◎译  名 007:幽灵党/007:鬼影帝国(港)/007:恶魔四伏(台)/007:大破幽灵危机/007系列24:大破幽灵危机/邦德24 iC3z5_g*@  
◎片  名 Spectre T'pL&@,Q  
◎年  代 2015 z Rna=h!  
◎国  家 英国/美国 ZiUb+;JA  
◎类  别 动作/惊悚/冒险 NQ`D"n  
◎语  言 英语/西班牙语/意大利语/德语/法语 ^/BGOBK  
◎上映日期 2015-10-26(英国)/2015-11-06(美国)/2015-11-13(中国大陆) m!7%5=Fc  
◎IMDb评分  7.0/10 from 182,546 users JP8}+  
◎IMDb链接  http://www.imdb.com/title/tt2379713/ F*P0=DD  
◎豆瓣评分 6.2/10 from 76,738 users 8m") )i-  
◎豆瓣链接 http://movie.douban.com/subject/11620560/ <>6j>w_|  
◎片  长 148分钟 G(t:s5:  
◎导  演 萨姆·门德斯 Sam Mendes xFF!)k #  
◎主  演 丹尼尔·克雷格 Daniel Craig h'"m,(a   
      克里斯托弗·沃尔兹 Christoph Waltz 9[/0  
      蕾雅·赛杜 Léa Seydoux `=Ip>7T&  
      本·卫肖 Ben Whishaw ]LB_ @#   
      娜奥米·哈里斯 Naomie Harris g,d_  
      戴夫·巴蒂斯塔 Dave Batista [oh06_rB  
      莫妮卡·贝鲁奇 Monica Bellucci DZ|*hQU>K  
      拉尔夫·费因斯 Ralph Fiennes HTh? &u\QG  
      斯黛芬妮·西格曼 Stephanie Sigman C&z!="hMhR  
      安德鲁·斯科特 Andrew Scott ox&5} &\  
      罗里·金奈尔 Rory Kinnear *aCL/:  
      内芙·加切夫 Neve Gachev ]ogifnwv  
      加斯帕·克里斯滕森 Jesper Christensen %DSr@IX  
      丹尼尔·斯蒂森 Daniel Stisen ins(RWO  
      丹尼尔·韦斯特伍德 Daniel Westwood CtY-Gs  
      拉斯科·阿特金斯 Lasco Atkins <ww D*t  
]+:yfDtZd  
◎简  介 #R5\k-I  
$U[d#:]  
  一个来自过去的加密信息让詹姆斯·邦德开始了一个神秘任务,从墨西哥城到最终的罗马,在那儿他邂逅了美艳的露琪亚·斯琪拉(莫妮卡·贝鲁奇 Monica Bellucci 饰),而她则是一名臭名昭著的意大利黑手党寡妇。邦德潜入到了一个密会中,揭开了一个名叫“幽灵党”的邪恶组织背后的秘密。 eV"%(<{  
Xy(QK2|  
  然而,远在伦敦的国家安全中心的新任负责人马克思·登彼(安德鲁·斯考特 Andrew Scott 饰)怀疑邦德这次行动的目的,并挑战M(拉尔夫·费恩斯 Ralph Fiennes 饰)掌权的军情六处的地位。邦德暗中召集了钱班霓(奈奥米·哈莉斯 Naomi Harries 饰)和Q博士(本·威肖 Ben Whishaw 饰),协助他寻找他宿敌的女儿——玛德琳·斯旺(蕾雅·赛杜 Léa Seydoux 饰)的下落,玛德琳·斯旺手里握有解开幽灵党秘密的线索。作为一名杀手的女儿,斯旺比绝大多数人更了解邦德。 44e]sT.B  
M@TG7M7Os  
  正当邦德冒险潜入“幽灵党”中心时,他得知自己与他寻找的敌人(克里斯托弗·沃尔兹 Christoph Waltz 饰)之间有着骇人的联系…… <PSz`)SN  
M !6Fnj  
◎获奖情况 \hX,z =  
w9Yx2  
  第88届奥斯卡金像奖 (2016) %R$)bGT  
"c[>>t  
  最佳原创歌曲(提名)  Z`*V9  
"22./vWV|i  
  第73届金球奖 (2016) TzC(YWt  
&m5^ YN$b  
  电影类 最佳原创歌曲 ai?uJ}  
b!g)/%C  
  第21届美国评论家选择电影奖 (2016) >IQ&*Bb  
q2 7Ac; y  
  最佳歌曲(提名) cPIyD?c  
u|23M,  
  动作片最佳男主角(提名) 丹尼尔·克雷格 Oi?Q^ISxP  
]}SV%*{ %  
  第2届豆瓣电影年度榜单 (2015) Yy 4Was#  
t>]W+Lx#  
  11月最受关注电影(提名) ?Ho$fGz  
Z2{$FN  
General ruqE]Hx9(  
Unique ID : 229737991405742230394353659295636090044 (0xACD5ED7DD2E810CFA825FB8A818F6CBC) _`Kh8G {e  
Complete name : D:\PT\已完成任务\Spectre.2015.1080p.BluRay.x264.DTS-WiKi\Spectre.2015.1080p.BluRay.x264.DTS-WiKi.mkv G%gdI3h1Z  
Format : Matroska ,=!s;+lu{  
Format version : Version 4 / Version 2 N+SA$wG  
File size : 15.8 GiB NO*~C',cI/  
Duration : 2h 28mn ,S(_YS^m  
Overall bit rate : 15.3 Mbps N0fE*xo  
Encoded date : UTC 2016-01-21 02:05:15 ^?%ThPo_  
Writing application : mkvmerge v7.9.0 ('Birds') 64bit 3!;o\bgK  
Writing library : libebml v1.3.1 + libmatroska v1.4.2 F`Vp   
p38s&\-kEN  
Video E3Z>R=s  
ID : 1 -eSI"To L<  
Format : AVC ~$a%& ]\  
Format/Info : Advanced Video Codec [t^%d9@t  
Format profile : High@L4.1 Fo"' [`  
Format settings, CABAC : Yes `).;W  
Format settings, ReFrames : 5 frames jM@@N.  
Codec ID : V_MPEG4/ISO/AVC Q6Zh%\+h(  
Duration : 2h 28mn ]*S_fme  
Bit rate : 13.8 Mbps ;LT#/t)}<  
Width : 1 920 pixels K3UG6S\B  
Height : 804 pixels E{9{%J  
Display aspect ratio : 2.40:1 !as<UH"\  
Frame rate mode : Constant ~w%Z Bp  
Frame rate : 23.976 (24000/1001) fps EZiGi[t7  
Color space : YUV RZE:WE;5  
Chroma subsampling : 4:2:0 1[`l`Truz  
Bit depth : 8 bits 7e#|=e *I!  
Scan type : Progressive s: q15"  
Bits/(Pixel*Frame) : 0.372 /C8(cVNZ  
Stream size : 14.2 GiB (90%) {K0T%.G  
Writing library : x264 core 129 r2245 bc13772 J&:0ytG  
Encoding settings : cabac=1 / ref=5 / deblock=1:-3:-3 / analyse=0x3:0x133 / me=umh / subme=11 / psy=1 / psy_rd=1.05:0.10 / mixed_ref=1 / me_range=64 / chroma_me=1 / trellis=2 / 8x8dct=1 / cqm=0 / deadzone=21,11 / fast_pskip=0 / chroma_qp_offset=-3 / threads=12 / lookahead_threads=2 / sliced_threads=0 / nr=0 / decimate=1 / interlaced=0 / bluray_compat=0 / constrained_intra=0 / bframes=8 / b_pyramid=2 / b_adapt=2 / b_bias=0 / direct=3 / weightb=1 / open_gop=0 / weightp=2 / keyint=250 / keyint_min=23 / scenecut=40 / intra_refresh=0 / rc_lookahead=60 / rc=2pass / mbtree=1 / bitrate=13761 / ratetol=1.0 / qcomp=0.60 / qpmin=0 / qpmax=69 / qpstep=4 / cplxblur=20.0 / qblur=0.5 / vbv_maxrate=40000 / vbv_bufsize=30000 / nal_hrd=none / ip_ratio=1.40 / aq=1:0.80 Xhkw<XbV  
Default : Yes 8QZk0 O  
Forced : No 2Nl("e^kJr  
U ._1'pW  
Audio izW l5}+'B  
ID : 2 "RX ?"pB  
Format : DTS zB]T5]  
Format/Info : Digital Theater Systems qK1V!a2  
Mode : 16 a@r K%Iff  
Format settings, Endianness : Big hA\8&pI;  
Codec ID : A_DTS n0i&P9@B1  
Duration : 2h 28mn t@JPnA7~  
Bit rate mode : Constant Pd;ClMa%  
Bit rate : 1 509 Kbps q(p0#Mk,E  
Channel(s) : 6 channels f}'gg  
Channel positions : Front: L C R, Side: L R, LFE I~qiF%?d  
Sampling rate : 48.0 KHz /#se>4]  
Frame rate : 93.750 fps (512 spf) xR&,QrjQG  
Bit depth : 24 bits o%QQ7S3 P  
Compression mode : Lossy TxCQGzqe  
Stream size : 1.56 GiB (10%) 0amz#VIB<u  
Language : English l=]vC +mU  
Default : Yes G([vy#p  
Forced : No B;~agr  
.nH /=  
|YFD|  
+=k|(8Js#  
本部分内容设定了隐藏,需要回复后才能看到

只看该作者 1 发表于: 2016-02-01
多谢楼主分享