切换到宽版
  • 638阅读
  • 1回复

007:幽灵党.Spectre.2015.1080p.BluRay.x264.DTS-WiKi [复制链接]

上一主题 下一主题
 

只看楼主 倒序阅读 使用道具 0 发表于: 2016-01-29
d;IJ0xB+by  
◎译  名 007:幽灵党/007:鬼影帝国(港)/007:恶魔四伏(台)/007:大破幽灵危机/007系列24:大破幽灵危机/邦德24 `\6 +z  
◎片  名 Spectre K>`m_M"LA  
◎年  代 2015 i] V F'tG  
◎国  家 英国/美国 =2Pz$q*ub  
◎类  别 动作/惊悚/冒险 :ga 9Db9P  
◎语  言 英语/西班牙语/意大利语/德语/法语 &*h`b{]  
◎上映日期 2015-10-26(英国)/2015-11-06(美国)/2015-11-13(中国大陆) Z{j!s6Y@{  
◎IMDb评分  7.0/10 from 182,546 users vWZ>Hf]`L  
◎IMDb链接  http://www.imdb.com/title/tt2379713/ 8kKRx   
◎豆瓣评分 6.2/10 from 76,738 users 6uv'r;U]  
◎豆瓣链接 http://movie.douban.com/subject/11620560/ <5C=i:6%  
◎片  长 148分钟 Vu^Q4Z  
◎导  演 萨姆·门德斯 Sam Mendes k|)^!BdO  
◎主  演 丹尼尔·克雷格 Daniel Craig n/,rn>k7:  
      克里斯托弗·沃尔兹 Christoph Waltz R A-^!4tX  
      蕾雅·赛杜 Léa Seydoux ixoMccU0  
      本·卫肖 Ben Whishaw R|d^M&K,  
      娜奥米·哈里斯 Naomie Harris ~{kA) :  
      戴夫·巴蒂斯塔 Dave Batista pO@k@JZ  
      莫妮卡·贝鲁奇 Monica Bellucci PkZf(=-X  
      拉尔夫·费因斯 Ralph Fiennes l[ZQ7$kL  
      斯黛芬妮·西格曼 Stephanie Sigman x(T!I&i={  
      安德鲁·斯科特 Andrew Scott }-k_?2"A  
      罗里·金奈尔 Rory Kinnear Q7OnhGA  
      内芙·加切夫 Neve Gachev QqT6P`0u  
      加斯帕·克里斯滕森 Jesper Christensen ^loF#d= s  
      丹尼尔·斯蒂森 Daniel Stisen >*ha#PE  
      丹尼尔·韦斯特伍德 Daniel Westwood s0`]!7D<  
      拉斯科·阿特金斯 Lasco Atkins g6k&c"%IQ(  
B[2h   
◎简  介 UGezo3}  
-O5(%  
  一个来自过去的加密信息让詹姆斯·邦德开始了一个神秘任务,从墨西哥城到最终的罗马,在那儿他邂逅了美艳的露琪亚·斯琪拉(莫妮卡·贝鲁奇 Monica Bellucci 饰),而她则是一名臭名昭著的意大利黑手党寡妇。邦德潜入到了一个密会中,揭开了一个名叫“幽灵党”的邪恶组织背后的秘密。 9|?(GG  
nATfmUN L  
  然而,远在伦敦的国家安全中心的新任负责人马克思·登彼(安德鲁·斯考特 Andrew Scott 饰)怀疑邦德这次行动的目的,并挑战M(拉尔夫·费恩斯 Ralph Fiennes 饰)掌权的军情六处的地位。邦德暗中召集了钱班霓(奈奥米·哈莉斯 Naomi Harries 饰)和Q博士(本·威肖 Ben Whishaw 饰),协助他寻找他宿敌的女儿——玛德琳·斯旺(蕾雅·赛杜 Léa Seydoux 饰)的下落,玛德琳·斯旺手里握有解开幽灵党秘密的线索。作为一名杀手的女儿,斯旺比绝大多数人更了解邦德。 P*nT\B  
!Barc ,kA  
  正当邦德冒险潜入“幽灵党”中心时,他得知自己与他寻找的敌人(克里斯托弗·沃尔兹 Christoph Waltz 饰)之间有着骇人的联系…… K[3D{=  
eO[Cb]Dy:  
◎获奖情况 #E~WVTO w  
yScov)dp(  
  第88届奥斯卡金像奖 (2016) OL6xMToP  
1zEZ\G  
  最佳原创歌曲(提名) nP3;<*T P0  
WPh |~]by<  
  第73届金球奖 (2016) MSm`4lw  
~*Sbn~U  
  电影类 最佳原创歌曲 !xx> lX5  
6{,K7FL  
  第21届美国评论家选择电影奖 (2016) ^QL/m\zq@%  
U{:(j5m  
  最佳歌曲(提名) ofJ]`]~VG  
E]U3O>hf  
  动作片最佳男主角(提名) 丹尼尔·克雷格 H--*[3".  
=-s20 mdj  
  第2届豆瓣电影年度榜单 (2015) >stVsFdV)  
BD-c 0-+m  
  11月最受关注电影(提名) Ubos#hP  
?H86Wbz  
General fG[3%e  
Unique ID : 229737991405742230394353659295636090044 (0xACD5ED7DD2E810CFA825FB8A818F6CBC) uJ!s%s2g  
Complete name : D:\PT\已完成任务\Spectre.2015.1080p.BluRay.x264.DTS-WiKi\Spectre.2015.1080p.BluRay.x264.DTS-WiKi.mkv O|7 {%5h  
Format : Matroska (8eNZ*+mO  
Format version : Version 4 / Version 2 ^J}$y7  
File size : 15.8 GiB bQ\-6dOtv  
Duration : 2h 28mn 5}l#zj  
Overall bit rate : 15.3 Mbps BC0c c[x  
Encoded date : UTC 2016-01-21 02:05:15 #SLxNAH  
Writing application : mkvmerge v7.9.0 ('Birds') 64bit =QKgsgLh  
Writing library : libebml v1.3.1 + libmatroska v1.4.2 1j) !d$8  
A>1p] #  
Video Hk~ gcG  
ID : 1 8UY=}R2C  
Format : AVC ))+9 8iU1s  
Format/Info : Advanced Video Codec {uQ)p=  
Format profile : High@L4.1 &#my #u^O;  
Format settings, CABAC : Yes {@F["YPxy  
Format settings, ReFrames : 5 frames Wj{Rp{}3  
Codec ID : V_MPEG4/ISO/AVC He_(JXTP  
Duration : 2h 28mn /5'<w(  
Bit rate : 13.8 Mbps _Ag/gu2-?  
Width : 1 920 pixels {'Qk>G s  
Height : 804 pixels Y" +1,?yH  
Display aspect ratio : 2.40:1 gW pT:tX-  
Frame rate mode : Constant dK(%u9v  
Frame rate : 23.976 (24000/1001) fps eYSGx cx  
Color space : YUV ;F]|HD9  
Chroma subsampling : 4:2:0 V1b_z  
Bit depth : 8 bits gl\$jDC9  
Scan type : Progressive G mUs U{  
Bits/(Pixel*Frame) : 0.372 YU0HySP:  
Stream size : 14.2 GiB (90%) ?OYwM?Uf  
Writing library : x264 core 129 r2245 bc13772 ]! J3?G  
Encoding settings : cabac=1 / ref=5 / deblock=1:-3:-3 / analyse=0x3:0x133 / me=umh / subme=11 / psy=1 / psy_rd=1.05:0.10 / mixed_ref=1 / me_range=64 / chroma_me=1 / trellis=2 / 8x8dct=1 / cqm=0 / deadzone=21,11 / fast_pskip=0 / chroma_qp_offset=-3 / threads=12 / lookahead_threads=2 / sliced_threads=0 / nr=0 / decimate=1 / interlaced=0 / bluray_compat=0 / constrained_intra=0 / bframes=8 / b_pyramid=2 / b_adapt=2 / b_bias=0 / direct=3 / weightb=1 / open_gop=0 / weightp=2 / keyint=250 / keyint_min=23 / scenecut=40 / intra_refresh=0 / rc_lookahead=60 / rc=2pass / mbtree=1 / bitrate=13761 / ratetol=1.0 / qcomp=0.60 / qpmin=0 / qpmax=69 / qpstep=4 / cplxblur=20.0 / qblur=0.5 / vbv_maxrate=40000 / vbv_bufsize=30000 / nal_hrd=none / ip_ratio=1.40 / aq=1:0.80 _(kwD^x6O{  
Default : Yes A%8`zR  
Forced : No ht )*Ync  
C05{,w?  
Audio  Dmv  
ID : 2 _wJ#jJz2  
Format : DTS pz6- hi7  
Format/Info : Digital Theater Systems }(%}"%$  
Mode : 16 LOG*K;v3  
Format settings, Endianness : Big =v`&iL~m  
Codec ID : A_DTS T(Gf~0HYF  
Duration : 2h 28mn Tvw2py q  
Bit rate mode : Constant S^`9[$KH0  
Bit rate : 1 509 Kbps sU_4+Mk  
Channel(s) : 6 channels GZ[h`FJg/  
Channel positions : Front: L C R, Side: L R, LFE x4A~MuGU  
Sampling rate : 48.0 KHz ?,e:c XhE2  
Frame rate : 93.750 fps (512 spf) _ ,1kcDu  
Bit depth : 24 bits i-vJ&}}  
Compression mode : Lossy n ~i4yn=  
Stream size : 1.56 GiB (10%) ~zC fan/  
Language : English 4qcIoO  
Default : Yes sW3D ( n  
Forced : No G:ngio]G0  
>@e%,z  
R$m ?&1K  
Z4 zMa&  
本部分内容设定了隐藏,需要回复后才能看到

只看该作者 1 发表于: 2016-02-01
多谢楼主分享