切换到宽版
  • 586阅读
  • 1回复

007:幽灵党.Spectre.2015.1080p.BluRay.x264.DTS-WiKi [复制链接]

上一主题 下一主题
 

只看楼主 倒序阅读 使用道具 0 发表于: 2016-01-29
# Oup^ o@  
◎译  名 007:幽灵党/007:鬼影帝国(港)/007:恶魔四伏(台)/007:大破幽灵危机/007系列24:大破幽灵危机/邦德24 P\~{3U  
◎片  名 Spectre X`zC ^z}  
◎年  代 2015 h`MdKX$  
◎国  家 英国/美国 -ewQp9)G  
◎类  别 动作/惊悚/冒险 y no('1B@  
◎语  言 英语/西班牙语/意大利语/德语/法语 6k])KlJ2;  
◎上映日期 2015-10-26(英国)/2015-11-06(美国)/2015-11-13(中国大陆) ]Ql 0v"` F  
◎IMDb评分  7.0/10 from 182,546 users H5wb_yBQ+  
◎IMDb链接  http://www.imdb.com/title/tt2379713/ %4>x!{jwV  
◎豆瓣评分 6.2/10 from 76,738 users Lx|' ,6S  
◎豆瓣链接 http://movie.douban.com/subject/11620560/ =N.!k Vkl  
◎片  长 148分钟 ;Fl<v@9  
◎导  演 萨姆·门德斯 Sam Mendes  5K56!*Y  
◎主  演 丹尼尔·克雷格 Daniel Craig WXUkuO  
      克里斯托弗·沃尔兹 Christoph Waltz t Y1Et0  
      蕾雅·赛杜 Léa Seydoux S0@T0y#  
      本·卫肖 Ben Whishaw 4\ $ 3  
      娜奥米·哈里斯 Naomie Harris ^nDal':*  
      戴夫·巴蒂斯塔 Dave Batista  u>cC O'q  
      莫妮卡·贝鲁奇 Monica Bellucci W=-|`  
      拉尔夫·费因斯 Ralph Fiennes R"6;NPeo  
      斯黛芬妮·西格曼 Stephanie Sigman BD;H   
      安德鲁·斯科特 Andrew Scott D$K ea  
      罗里·金奈尔 Rory Kinnear W"(u^}  
      内芙·加切夫 Neve Gachev )r!e2zc=Q  
      加斯帕·克里斯滕森 Jesper Christensen FRyPeZR  
      丹尼尔·斯蒂森 Daniel Stisen r4k nN 2:  
      丹尼尔·韦斯特伍德 Daniel Westwood M'jXve(=yF  
      拉斯科·阿特金斯 Lasco Atkins oKKz4  
{7#03k  
◎简  介 f~\Xg7<  
2cnj@E:5l  
  一个来自过去的加密信息让詹姆斯·邦德开始了一个神秘任务,从墨西哥城到最终的罗马,在那儿他邂逅了美艳的露琪亚·斯琪拉(莫妮卡·贝鲁奇 Monica Bellucci 饰),而她则是一名臭名昭著的意大利黑手党寡妇。邦德潜入到了一个密会中,揭开了一个名叫“幽灵党”的邪恶组织背后的秘密。 SPwPCI1?  
G%hO\EO  
  然而,远在伦敦的国家安全中心的新任负责人马克思·登彼(安德鲁·斯考特 Andrew Scott 饰)怀疑邦德这次行动的目的,并挑战M(拉尔夫·费恩斯 Ralph Fiennes 饰)掌权的军情六处的地位。邦德暗中召集了钱班霓(奈奥米·哈莉斯 Naomi Harries 饰)和Q博士(本·威肖 Ben Whishaw 饰),协助他寻找他宿敌的女儿——玛德琳·斯旺(蕾雅·赛杜 Léa Seydoux 饰)的下落,玛德琳·斯旺手里握有解开幽灵党秘密的线索。作为一名杀手的女儿,斯旺比绝大多数人更了解邦德。 Gt^d;7x ]  
y lL8+7W  
  正当邦德冒险潜入“幽灵党”中心时,他得知自己与他寻找的敌人(克里斯托弗·沃尔兹 Christoph Waltz 饰)之间有着骇人的联系…… RV!<?[  
.hz2&9Ow  
◎获奖情况 6v47 QW|'  
#8?^C]*{0  
  第88届奥斯卡金像奖 (2016) 3V-6)V{KaE  
%8D?$v"#Z  
  最佳原创歌曲(提名) sc xLB;  
xXOw:A'  
  第73届金球奖 (2016) j+>Q#&h9  
,f<B}O  
  电影类 最佳原创歌曲 p{C9`wi)  
Yo'K pdn  
  第21届美国评论家选择电影奖 (2016) SfDQ;1?  
Bcaw~WD  
  最佳歌曲(提名) 5c;En6W  
/.Z aE+  
  动作片最佳男主角(提名) 丹尼尔·克雷格 Tk+DPp^  
[$:@X V(  
  第2届豆瓣电影年度榜单 (2015) "_)|8|gN  
DB8s  
  11月最受关注电影(提名) !aeNq82  
!3x *k;0  
General EIK*49b2  
Unique ID : 229737991405742230394353659295636090044 (0xACD5ED7DD2E810CFA825FB8A818F6CBC) d$Em\*C  
Complete name : D:\PT\已完成任务\Spectre.2015.1080p.BluRay.x264.DTS-WiKi\Spectre.2015.1080p.BluRay.x264.DTS-WiKi.mkv Lh!z>IWjOG  
Format : Matroska \\s?B K  
Format version : Version 4 / Version 2 @LC~*_y   
File size : 15.8 GiB uQ1jwYK`7  
Duration : 2h 28mn lPp6 pVr  
Overall bit rate : 15.3 Mbps i* gKt jx  
Encoded date : UTC 2016-01-21 02:05:15 "OJr*B  
Writing application : mkvmerge v7.9.0 ('Birds') 64bit tQf!|]#J  
Writing library : libebml v1.3.1 + libmatroska v1.4.2 w .l|G,%=  
{g@A>  
Video ITQ9(W Un  
ID : 1 5% 'S  
Format : AVC X#7}c5^Y  
Format/Info : Advanced Video Codec U%,;N\:_  
Format profile : High@L4.1 L6kZ2-6  
Format settings, CABAC : Yes qxSs ~Qc  
Format settings, ReFrames : 5 frames ^\{J5  
Codec ID : V_MPEG4/ISO/AVC /pU|ZA.z'2  
Duration : 2h 28mn 6d};|#}  
Bit rate : 13.8 Mbps j$0zD:ppW  
Width : 1 920 pixels .xo_}Vw  
Height : 804 pixels zM\IKo_"  
Display aspect ratio : 2.40:1 $>(9~Yh0  
Frame rate mode : Constant bk kSIl+Q  
Frame rate : 23.976 (24000/1001) fps a>?p.!BM  
Color space : YUV |yU3Kt  
Chroma subsampling : 4:2:0 qkiJ HT  
Bit depth : 8 bits i<Q& D\Pv  
Scan type : Progressive i#tbdx#  
Bits/(Pixel*Frame) : 0.372 unJ iE!  
Stream size : 14.2 GiB (90%) l_ZO^E~D_  
Writing library : x264 core 129 r2245 bc13772 YV4 : 8At1  
Encoding settings : cabac=1 / ref=5 / deblock=1:-3:-3 / analyse=0x3:0x133 / me=umh / subme=11 / psy=1 / psy_rd=1.05:0.10 / mixed_ref=1 / me_range=64 / chroma_me=1 / trellis=2 / 8x8dct=1 / cqm=0 / deadzone=21,11 / fast_pskip=0 / chroma_qp_offset=-3 / threads=12 / lookahead_threads=2 / sliced_threads=0 / nr=0 / decimate=1 / interlaced=0 / bluray_compat=0 / constrained_intra=0 / bframes=8 / b_pyramid=2 / b_adapt=2 / b_bias=0 / direct=3 / weightb=1 / open_gop=0 / weightp=2 / keyint=250 / keyint_min=23 / scenecut=40 / intra_refresh=0 / rc_lookahead=60 / rc=2pass / mbtree=1 / bitrate=13761 / ratetol=1.0 / qcomp=0.60 / qpmin=0 / qpmax=69 / qpstep=4 / cplxblur=20.0 / qblur=0.5 / vbv_maxrate=40000 / vbv_bufsize=30000 / nal_hrd=none / ip_ratio=1.40 / aq=1:0.80 "B~WcC  
Default : Yes s9G)Bd 8  
Forced : No 7^&lbzVbm(  
2*Va9HP!q  
Audio V*>73I  
ID : 2 u*U_7Uw$  
Format : DTS JR!Q,7S2!N  
Format/Info : Digital Theater Systems T<XfZZ)l<`  
Mode : 16 iF8@9m  
Format settings, Endianness : Big Oe/73| >U  
Codec ID : A_DTS j6RJC  
Duration : 2h 28mn *&h6*zP?  
Bit rate mode : Constant prqyoCfq  
Bit rate : 1 509 Kbps loR,XW7z  
Channel(s) : 6 channels dZ.}j&ZH'  
Channel positions : Front: L C R, Side: L R, LFE 0 -!?W  
Sampling rate : 48.0 KHz ;,mBT[_ZO  
Frame rate : 93.750 fps (512 spf) 5Ws5X_?d  
Bit depth : 24 bits 1bT' u5 &  
Compression mode : Lossy ZUv ZN f  
Stream size : 1.56 GiB (10%) E1^aAlVSD  
Language : English 0BT;"B1  
Default : Yes ~ wa %fM  
Forced : No c5Z;%v |y  
=VCi8jDkP  
RA#\x.  
LQ~LB'L  
本部分内容设定了隐藏,需要回复后才能看到

只看该作者 1 发表于: 2016-02-01
多谢楼主分享