切换到宽版
  • 680阅读
  • 1回复

007:幽灵党.Spectre.2015.1080p.BluRay.x264.DTS-WiKi [复制链接]

上一主题 下一主题
 

只看楼主 倒序阅读 使用道具 0 发表于: 2016-01-29
nPQ ZI6>  
◎译  名 007:幽灵党/007:鬼影帝国(港)/007:恶魔四伏(台)/007:大破幽灵危机/007系列24:大破幽灵危机/邦德24 mtiO7w"M\7  
◎片  名 Spectre X3&SL~&>g  
◎年  代 2015 [wXwKr  
◎国  家 英国/美国 -oaG|  
◎类  别 动作/惊悚/冒险 2 zmQp  
◎语  言 英语/西班牙语/意大利语/德语/法语 .:#_5K  
◎上映日期 2015-10-26(英国)/2015-11-06(美国)/2015-11-13(中国大陆) WrIL]kJw^  
◎IMDb评分  7.0/10 from 182,546 users f4A4  
◎IMDb链接  http://www.imdb.com/title/tt2379713/ ai<MsQQ:=  
◎豆瓣评分 6.2/10 from 76,738 users dA_V:HP  
◎豆瓣链接 http://movie.douban.com/subject/11620560/ O>tC]sm%  
◎片  长 148分钟 aHVdClD2o  
◎导  演 萨姆·门德斯 Sam Mendes YokZar2a0  
◎主  演 丹尼尔·克雷格 Daniel Craig ?-RoqF  
      克里斯托弗·沃尔兹 Christoph Waltz #buV;!_!E?  
      蕾雅·赛杜 Léa Seydoux jx5[bUp4u  
      本·卫肖 Ben Whishaw [EW$7 se~  
      娜奥米·哈里斯 Naomie Harris pJ)+}vascR  
      戴夫·巴蒂斯塔 Dave Batista $jUS[.S_|I  
      莫妮卡·贝鲁奇 Monica Bellucci |4?}W ,  
      拉尔夫·费因斯 Ralph Fiennes ="'P=Xh!8  
      斯黛芬妮·西格曼 Stephanie Sigman 08d_DCR  
      安德鲁·斯科特 Andrew Scott HqnKpZ  
      罗里·金奈尔 Rory Kinnear HIWmh4o/.  
      内芙·加切夫 Neve Gachev +{=_|3(  
      加斯帕·克里斯滕森 Jesper Christensen skC|io-Zv  
      丹尼尔·斯蒂森 Daniel Stisen >`rNT|rg  
      丹尼尔·韦斯特伍德 Daniel Westwood A 4W  
      拉斯科·阿特金斯 Lasco Atkins w?$u!X  
_ c(C;s3o  
◎简  介 4W//Oc@e  
h,WY2Hr  
  一个来自过去的加密信息让詹姆斯·邦德开始了一个神秘任务,从墨西哥城到最终的罗马,在那儿他邂逅了美艳的露琪亚·斯琪拉(莫妮卡·贝鲁奇 Monica Bellucci 饰),而她则是一名臭名昭著的意大利黑手党寡妇。邦德潜入到了一个密会中,揭开了一个名叫“幽灵党”的邪恶组织背后的秘密。 BHJ'[{U*w  
~=AKX(Q  
  然而,远在伦敦的国家安全中心的新任负责人马克思·登彼(安德鲁·斯考特 Andrew Scott 饰)怀疑邦德这次行动的目的,并挑战M(拉尔夫·费恩斯 Ralph Fiennes 饰)掌权的军情六处的地位。邦德暗中召集了钱班霓(奈奥米·哈莉斯 Naomi Harries 饰)和Q博士(本·威肖 Ben Whishaw 饰),协助他寻找他宿敌的女儿——玛德琳·斯旺(蕾雅·赛杜 Léa Seydoux 饰)的下落,玛德琳·斯旺手里握有解开幽灵党秘密的线索。作为一名杀手的女儿,斯旺比绝大多数人更了解邦德。 1J{z}yPHc  
?:''VM.  
  正当邦德冒险潜入“幽灵党”中心时,他得知自己与他寻找的敌人(克里斯托弗·沃尔兹 Christoph Waltz 饰)之间有着骇人的联系…… !qw=I(  
D`~{[cv)\  
◎获奖情况 `d|bH; w  
~ Dp: j*H  
  第88届奥斯卡金像奖 (2016) 548 [! p4  
=u3@ Dhw  
  最佳原创歌曲(提名) "k1Tsd-  
61rh\<bn  
  第73届金球奖 (2016) u g:G9vjQ  
`jQ}^wEgu  
  电影类 最佳原创歌曲 `w=H'"Zv  
?5YmE(v7  
  第21届美国评论家选择电影奖 (2016) C94UF7al  
Gx a.<E^k  
  最佳歌曲(提名) )< a8a@  
"QFADk1  
  动作片最佳男主角(提名) 丹尼尔·克雷格 PLD'Q,R  
:0j`yo:w  
  第2届豆瓣电影年度榜单 (2015) V =aoB Z  
.n F  
  11月最受关注电影(提名) ^\kHEM|5v  
KIBZQ.uG  
General o4 g  
Unique ID : 229737991405742230394353659295636090044 (0xACD5ED7DD2E810CFA825FB8A818F6CBC) RGA*7  
Complete name : D:\PT\已完成任务\Spectre.2015.1080p.BluRay.x264.DTS-WiKi\Spectre.2015.1080p.BluRay.x264.DTS-WiKi.mkv ~5!TV,>ls  
Format : Matroska XhD fI &  
Format version : Version 4 / Version 2 .d!*<`S|  
File size : 15.8 GiB _%Ld E z  
Duration : 2h 28mn N b[o6AX  
Overall bit rate : 15.3 Mbps X|1YGZJ  
Encoded date : UTC 2016-01-21 02:05:15 EEZ2Gu6c  
Writing application : mkvmerge v7.9.0 ('Birds') 64bit 7-IeJ6,D  
Writing library : libebml v1.3.1 + libmatroska v1.4.2 ^QQ NJ  
[=F |^KL  
Video }~'Wz*Gm  
ID : 1 ~%:p_td  
Format : AVC dTQvz9C  
Format/Info : Advanced Video Codec sLqvDH?V  
Format profile : High@L4.1 =?Md&%j  
Format settings, CABAC : Yes X3O$Sd(D  
Format settings, ReFrames : 5 frames c+/C7C o  
Codec ID : V_MPEG4/ISO/AVC Hll}8d6[  
Duration : 2h 28mn azc:C  
Bit rate : 13.8 Mbps <1.mm_pw  
Width : 1 920 pixels 0%NI- Zyo  
Height : 804 pixels a`iAA1HJ  
Display aspect ratio : 2.40:1 K)\gbQ|  
Frame rate mode : Constant |bnjC$b*  
Frame rate : 23.976 (24000/1001) fps S5a<L_  
Color space : YUV VVl-cU  
Chroma subsampling : 4:2:0 -JK4-Hg  
Bit depth : 8 bits be Z| i 1:  
Scan type : Progressive R_n-&d 'PP  
Bits/(Pixel*Frame) : 0.372 7!nAWlQ&-E  
Stream size : 14.2 GiB (90%) z5vI0 N$  
Writing library : x264 core 129 r2245 bc13772 <j3HT"^[D  
Encoding settings : cabac=1 / ref=5 / deblock=1:-3:-3 / analyse=0x3:0x133 / me=umh / subme=11 / psy=1 / psy_rd=1.05:0.10 / mixed_ref=1 / me_range=64 / chroma_me=1 / trellis=2 / 8x8dct=1 / cqm=0 / deadzone=21,11 / fast_pskip=0 / chroma_qp_offset=-3 / threads=12 / lookahead_threads=2 / sliced_threads=0 / nr=0 / decimate=1 / interlaced=0 / bluray_compat=0 / constrained_intra=0 / bframes=8 / b_pyramid=2 / b_adapt=2 / b_bias=0 / direct=3 / weightb=1 / open_gop=0 / weightp=2 / keyint=250 / keyint_min=23 / scenecut=40 / intra_refresh=0 / rc_lookahead=60 / rc=2pass / mbtree=1 / bitrate=13761 / ratetol=1.0 / qcomp=0.60 / qpmin=0 / qpmax=69 / qpstep=4 / cplxblur=20.0 / qblur=0.5 / vbv_maxrate=40000 / vbv_bufsize=30000 / nal_hrd=none / ip_ratio=1.40 / aq=1:0.80 (k&aD2PH  
Default : Yes ved Qwzh  
Forced : No `_^=OOn  
%([H*sLX  
Audio s9Z2EjQV  
ID : 2 SH|$Dg  
Format : DTS r'\TS U5!  
Format/Info : Digital Theater Systems eCd?.e0@j  
Mode : 16 \9QOrjiw  
Format settings, Endianness : Big 'v  X"l  
Codec ID : A_DTS NLY5L7  
Duration : 2h 28mn EPy/6-5b  
Bit rate mode : Constant 3/FB>w gt  
Bit rate : 1 509 Kbps Din)5CxFX  
Channel(s) : 6 channels 3IFU{0a`  
Channel positions : Front: L C R, Side: L R, LFE \/v$$1p2  
Sampling rate : 48.0 KHz 6~>k]G  
Frame rate : 93.750 fps (512 spf) : 6V 8  
Bit depth : 24 bits dZmq  
Compression mode : Lossy uL F55:`<  
Stream size : 1.56 GiB (10%) z, [ +  
Language : English PK" C+o;:  
Default : Yes mX^RSg9E}  
Forced : No (.o'1 '  
+E4 _^  
 7I|Mq  
fF%r$`2  
本部分内容设定了隐藏,需要回复后才能看到

只看该作者 1 发表于: 2016-02-01
多谢楼主分享