切换到宽版
  • 770阅读
  • 1回复

007:幽灵党.Spectre.2015.1080p.BluRay.x264.DTS-WiKi [复制链接]

上一主题 下一主题
 

只看楼主 倒序阅读 使用道具 0 发表于: 2016-01-29
;o &_:]S  
◎译  名 007:幽灵党/007:鬼影帝国(港)/007:恶魔四伏(台)/007:大破幽灵危机/007系列24:大破幽灵危机/邦德24 }P7xdQ6  
◎片  名 Spectre O7E;W| ]  
◎年  代 2015 ^S>!kt7io  
◎国  家 英国/美国 i,\t]EJAU  
◎类  别 动作/惊悚/冒险 Nj"_sA p  
◎语  言 英语/西班牙语/意大利语/德语/法语 s#4))yUR6Z  
◎上映日期 2015-10-26(英国)/2015-11-06(美国)/2015-11-13(中国大陆) <PH3gy C  
◎IMDb评分  7.0/10 from 182,546 users P1vF{e  
◎IMDb链接  http://www.imdb.com/title/tt2379713/ >7eu'  
◎豆瓣评分 6.2/10 from 76,738 users (2&K (1.Y  
◎豆瓣链接 http://movie.douban.com/subject/11620560/ m^(E:6T  
◎片  长 148分钟 !: `  Ra  
◎导  演 萨姆·门德斯 Sam Mendes !!\4'Q[  
◎主  演 丹尼尔·克雷格 Daniel Craig 9~*_(yjF  
      克里斯托弗·沃尔兹 Christoph Waltz ZfF`kD\  
      蕾雅·赛杜 Léa Seydoux &ij^FAM  
      本·卫肖 Ben Whishaw V~tu<"%  
      娜奥米·哈里斯 Naomie Harris K'ed5J  
      戴夫·巴蒂斯塔 Dave Batista C]{V%jU  
      莫妮卡·贝鲁奇 Monica Bellucci ,(5dQ`hA0  
      拉尔夫·费因斯 Ralph Fiennes C[HE4xF6  
      斯黛芬妮·西格曼 Stephanie Sigman Ra*k  
      安德鲁·斯科特 Andrew Scott 4l#T_y  
      罗里·金奈尔 Rory Kinnear ,L8I7O}A;  
      内芙·加切夫 Neve Gachev FlM.D u  
      加斯帕·克里斯滕森 Jesper Christensen < '+R%6  
      丹尼尔·斯蒂森 Daniel Stisen Qg86XU%l  
      丹尼尔·韦斯特伍德 Daniel Westwood UOOR0$4  
      拉斯科·阿特金斯 Lasco Atkins WL*W=(  
tle K (^  
◎简  介 }(hYG"5  
(urfaZ;@+  
  一个来自过去的加密信息让詹姆斯·邦德开始了一个神秘任务,从墨西哥城到最终的罗马,在那儿他邂逅了美艳的露琪亚·斯琪拉(莫妮卡·贝鲁奇 Monica Bellucci 饰),而她则是一名臭名昭著的意大利黑手党寡妇。邦德潜入到了一个密会中,揭开了一个名叫“幽灵党”的邪恶组织背后的秘密。 cC(ubUR  
ADJ5ZD<Q  
  然而,远在伦敦的国家安全中心的新任负责人马克思·登彼(安德鲁·斯考特 Andrew Scott 饰)怀疑邦德这次行动的目的,并挑战M(拉尔夫·费恩斯 Ralph Fiennes 饰)掌权的军情六处的地位。邦德暗中召集了钱班霓(奈奥米·哈莉斯 Naomi Harries 饰)和Q博士(本·威肖 Ben Whishaw 饰),协助他寻找他宿敌的女儿——玛德琳·斯旺(蕾雅·赛杜 Léa Seydoux 饰)的下落,玛德琳·斯旺手里握有解开幽灵党秘密的线索。作为一名杀手的女儿,斯旺比绝大多数人更了解邦德。 QL|:(QM  
jwtXI\@MS  
  正当邦德冒险潜入“幽灵党”中心时,他得知自己与他寻找的敌人(克里斯托弗·沃尔兹 Christoph Waltz 饰)之间有着骇人的联系…… R*c0NJF  
:pV("tHE  
◎获奖情况 ?yd(er<_f  
 *<h  
  第88届奥斯卡金像奖 (2016) =6q*w^ET  
Rh-8//&vZ/  
  最佳原创歌曲(提名) cq+M *1;  
{D_4~heF  
  第73届金球奖 (2016) W:N"O\`{m  
qjRiTIp9q  
  电影类 最佳原创歌曲 U*Q5ff7M6"  
5 /eS1NJ@  
  第21届美国评论家选择电影奖 (2016) yP=isi#dDY  
DF&jZ[##  
  最佳歌曲(提名) >p+gx,N  
>kLH6.  
  动作片最佳男主角(提名) 丹尼尔·克雷格 NByN}e  
NbK?Dg8WJG  
  第2届豆瓣电影年度榜单 (2015) (NWN&  
0bQiUcg/  
  11月最受关注电影(提名)  ,IvnNnl2  
D 8Waf  
General #$z-]i  
Unique ID : 229737991405742230394353659295636090044 (0xACD5ED7DD2E810CFA825FB8A818F6CBC) &CP@] pi9L  
Complete name : D:\PT\已完成任务\Spectre.2015.1080p.BluRay.x264.DTS-WiKi\Spectre.2015.1080p.BluRay.x264.DTS-WiKi.mkv es(LE/`e  
Format : Matroska _q 9lr8hx  
Format version : Version 4 / Version 2 zinl.8Uk  
File size : 15.8 GiB %T*+t"\)  
Duration : 2h 28mn Xm[r#IA  
Overall bit rate : 15.3 Mbps )mO;l/,0  
Encoded date : UTC 2016-01-21 02:05:15 x$b[m 20  
Writing application : mkvmerge v7.9.0 ('Birds') 64bit K#+]  
Writing library : libebml v1.3.1 + libmatroska v1.4.2 Q7aDl8Lxn  
`; %a QR  
Video uU  !i`8  
ID : 1 A,[m=9V  
Format : AVC nMvIL2:3  
Format/Info : Advanced Video Codec &!~n=]*sz  
Format profile : High@L4.1 dw}3B8]  
Format settings, CABAC : Yes d<m>H$\Dm  
Format settings, ReFrames : 5 frames @"7dk.|  
Codec ID : V_MPEG4/ISO/AVC P87Fg  
Duration : 2h 28mn '\YhRU  
Bit rate : 13.8 Mbps aJ_Eh(cF  
Width : 1 920 pixels 3E@&wpj  
Height : 804 pixels rBPxGBd4  
Display aspect ratio : 2.40:1 \4X{\ p<  
Frame rate mode : Constant *B}R4Y|g  
Frame rate : 23.976 (24000/1001) fps s;f u  
Color space : YUV X}FF4jE]D(  
Chroma subsampling : 4:2:0 >A "aOV>K  
Bit depth : 8 bits Elk$9 < <  
Scan type : Progressive H#` ?toS  
Bits/(Pixel*Frame) : 0.372 ?6]ZQ\,  
Stream size : 14.2 GiB (90%) pr89zkYw  
Writing library : x264 core 129 r2245 bc13772 F5q1VEe  
Encoding settings : cabac=1 / ref=5 / deblock=1:-3:-3 / analyse=0x3:0x133 / me=umh / subme=11 / psy=1 / psy_rd=1.05:0.10 / mixed_ref=1 / me_range=64 / chroma_me=1 / trellis=2 / 8x8dct=1 / cqm=0 / deadzone=21,11 / fast_pskip=0 / chroma_qp_offset=-3 / threads=12 / lookahead_threads=2 / sliced_threads=0 / nr=0 / decimate=1 / interlaced=0 / bluray_compat=0 / constrained_intra=0 / bframes=8 / b_pyramid=2 / b_adapt=2 / b_bias=0 / direct=3 / weightb=1 / open_gop=0 / weightp=2 / keyint=250 / keyint_min=23 / scenecut=40 / intra_refresh=0 / rc_lookahead=60 / rc=2pass / mbtree=1 / bitrate=13761 / ratetol=1.0 / qcomp=0.60 / qpmin=0 / qpmax=69 / qpstep=4 / cplxblur=20.0 / qblur=0.5 / vbv_maxrate=40000 / vbv_bufsize=30000 / nal_hrd=none / ip_ratio=1.40 / aq=1:0.80 Vta;ibdeqW  
Default : Yes s'=]a-l~  
Forced : No XdVC>6  
sjkl? _  
Audio /7)G"qG~F~  
ID : 2 J(VZa_  
Format : DTS sb5kexGxkc  
Format/Info : Digital Theater Systems NdQ?3'W J  
Mode : 16 RIc<  
Format settings, Endianness : Big EwZt/r  
Codec ID : A_DTS )pH{b]t  
Duration : 2h 28mn w2V E_  
Bit rate mode : Constant V1qHl5"  
Bit rate : 1 509 Kbps Jev.o]|_,  
Channel(s) : 6 channels t\0JNi$2  
Channel positions : Front: L C R, Side: L R, LFE >R-$JrU.=  
Sampling rate : 48.0 KHz J>v>6OC6i  
Frame rate : 93.750 fps (512 spf) Q :|E  
Bit depth : 24 bits (o=iX,@'2  
Compression mode : Lossy o#b9M4O  
Stream size : 1.56 GiB (10%) ' ]Y:gmM"  
Language : English w$HC!  
Default : Yes 6>%NL"* ]  
Forced : No #2=30   
*E6 p=  
5%/%i}e~(  
[%q":Ig  
本部分内容设定了隐藏,需要回复后才能看到

只看该作者 1 发表于: 2016-02-01
多谢楼主分享