切换到宽版
  • 868阅读
  • 1回复

007:幽灵党.Spectre.2015.1080p.BluRay.x264.DTS-WiKi [复制链接]

上一主题 下一主题
 

只看楼主 倒序阅读 使用道具 0 发表于: 2016-01-29
VP:9&?>G  
◎译  名 007:幽灵党/007:鬼影帝国(港)/007:恶魔四伏(台)/007:大破幽灵危机/007系列24:大破幽灵危机/邦德24 {\ J%i|u  
◎片  名 Spectre 6Wc.iomx8  
◎年  代 2015 hvF>Tu]^r  
◎国  家 英国/美国 N|asr,  
◎类  别 动作/惊悚/冒险 z&Lcl{<MA  
◎语  言 英语/西班牙语/意大利语/德语/法语 DTC OhUIV  
◎上映日期 2015-10-26(英国)/2015-11-06(美国)/2015-11-13(中国大陆) ^qV6 khg  
◎IMDb评分  7.0/10 from 182,546 users iTJE:[W"y  
◎IMDb链接  http://www.imdb.com/title/tt2379713/ :xsNn55b  
◎豆瓣评分 6.2/10 from 76,738 users nH|7XY9"  
◎豆瓣链接 http://movie.douban.com/subject/11620560/ A(wuRXnVWK  
◎片  长 148分钟 YfVZ59l4y6  
◎导  演 萨姆·门德斯 Sam Mendes 2~QN#u|UC3  
◎主  演 丹尼尔·克雷格 Daniel Craig  +D|E8sz8  
      克里斯托弗·沃尔兹 Christoph Waltz N@\`DO  
      蕾雅·赛杜 Léa Seydoux }N W01nee  
      本·卫肖 Ben Whishaw 1D)=q^\I  
      娜奥米·哈里斯 Naomie Harris )"f*Mp  
      戴夫·巴蒂斯塔 Dave Batista qp2&Z8S\D  
      莫妮卡·贝鲁奇 Monica Bellucci zN,2 (v"  
      拉尔夫·费因斯 Ralph Fiennes  $ 1v'CT  
      斯黛芬妮·西格曼 Stephanie Sigman Mtq^6`JJ'  
      安德鲁·斯科特 Andrew Scott /U@Y2$TOF  
      罗里·金奈尔 Rory Kinnear GqD_6cdh   
      内芙·加切夫 Neve Gachev <CGJ:% AY  
      加斯帕·克里斯滕森 Jesper Christensen 6|]e}I@<2  
      丹尼尔·斯蒂森 Daniel Stisen <{1=4PA  
      丹尼尔·韦斯特伍德 Daniel Westwood 'SnB7Y  
      拉斯科·阿特金斯 Lasco Atkins =\i{dj  
N_f>5uv  
◎简  介 D' oy% 1Q}  
Y]H,rO  
  一个来自过去的加密信息让詹姆斯·邦德开始了一个神秘任务,从墨西哥城到最终的罗马,在那儿他邂逅了美艳的露琪亚·斯琪拉(莫妮卡·贝鲁奇 Monica Bellucci 饰),而她则是一名臭名昭著的意大利黑手党寡妇。邦德潜入到了一个密会中,揭开了一个名叫“幽灵党”的邪恶组织背后的秘密。 ,=`iQl3(y/  
wak'L5GQE  
  然而,远在伦敦的国家安全中心的新任负责人马克思·登彼(安德鲁·斯考特 Andrew Scott 饰)怀疑邦德这次行动的目的,并挑战M(拉尔夫·费恩斯 Ralph Fiennes 饰)掌权的军情六处的地位。邦德暗中召集了钱班霓(奈奥米·哈莉斯 Naomi Harries 饰)和Q博士(本·威肖 Ben Whishaw 饰),协助他寻找他宿敌的女儿——玛德琳·斯旺(蕾雅·赛杜 Léa Seydoux 饰)的下落,玛德琳·斯旺手里握有解开幽灵党秘密的线索。作为一名杀手的女儿,斯旺比绝大多数人更了解邦德。 S/xC X!  
|M(0CYO  
  正当邦德冒险潜入“幽灵党”中心时,他得知自己与他寻找的敌人(克里斯托弗·沃尔兹 Christoph Waltz 饰)之间有着骇人的联系…… 9u] "($  
?TY/'-M5  
◎获奖情况 aui3Mq#f  
'*n2<y  
  第88届奥斯卡金像奖 (2016) Ys@G0}\3G  
JId|LHf*P  
  最佳原创歌曲(提名) 31~Rs?~f(  
jT1^oXn@  
  第73届金球奖 (2016) 8d8GYTl b)  
R![4|FR  
  电影类 最佳原创歌曲 S~Yu;  
&T\,kq >)  
  第21届美国评论家选择电影奖 (2016) K)9+3(?  
7q'T,'[  
  最佳歌曲(提名) vJ0Zv> n-  
L~ e{Vv8UR  
  动作片最佳男主角(提名) 丹尼尔·克雷格 T/ TMi&:?.  
s:Io5C(  
  第2届豆瓣电影年度榜单 (2015) yf2$HF  
{Q AV  
  11月最受关注电影(提名) SX @zDuM  
@]X5g8h  
General +~eybm;  
Unique ID : 229737991405742230394353659295636090044 (0xACD5ED7DD2E810CFA825FB8A818F6CBC) .|<+-R sj  
Complete name : D:\PT\已完成任务\Spectre.2015.1080p.BluRay.x264.DTS-WiKi\Spectre.2015.1080p.BluRay.x264.DTS-WiKi.mkv ~oE@y6Q  
Format : Matroska t BKra  
Format version : Version 4 / Version 2 OmAa$L,'w  
File size : 15.8 GiB S)vNWBO  
Duration : 2h 28mn IHvrx:7   
Overall bit rate : 15.3 Mbps ^ 9FRI9?  
Encoded date : UTC 2016-01-21 02:05:15 tW} At  
Writing application : mkvmerge v7.9.0 ('Birds') 64bit 6$LQO),,  
Writing library : libebml v1.3.1 + libmatroska v1.4.2 c,_??8  
Z^r? MX/  
Video ZA.i\ ;2  
ID : 1 j=n <s</V  
Format : AVC |7%#z~rT  
Format/Info : Advanced Video Codec *W$bhC'w  
Format profile : High@L4.1 &20}64eW%  
Format settings, CABAC : Yes !\/J|~XZ  
Format settings, ReFrames : 5 frames J~k'b2(p3  
Codec ID : V_MPEG4/ISO/AVC q-TDg0  
Duration : 2h 28mn gMUCVKGf  
Bit rate : 13.8 Mbps =Bw2{]w  
Width : 1 920 pixels x5 ?>y{6D  
Height : 804 pixels POt 8G  
Display aspect ratio : 2.40:1 &~sirxR p  
Frame rate mode : Constant )l[bu6bM  
Frame rate : 23.976 (24000/1001) fps 5Z a%EaW%G  
Color space : YUV V3q[#.o  
Chroma subsampling : 4:2:0 \TnRn(Kw  
Bit depth : 8 bits !FHm.E_>  
Scan type : Progressive ~9DD=5\  
Bits/(Pixel*Frame) : 0.372 xDEjeM G  
Stream size : 14.2 GiB (90%) p~f=0K  
Writing library : x264 core 129 r2245 bc13772 - 8m3L  
Encoding settings : cabac=1 / ref=5 / deblock=1:-3:-3 / analyse=0x3:0x133 / me=umh / subme=11 / psy=1 / psy_rd=1.05:0.10 / mixed_ref=1 / me_range=64 / chroma_me=1 / trellis=2 / 8x8dct=1 / cqm=0 / deadzone=21,11 / fast_pskip=0 / chroma_qp_offset=-3 / threads=12 / lookahead_threads=2 / sliced_threads=0 / nr=0 / decimate=1 / interlaced=0 / bluray_compat=0 / constrained_intra=0 / bframes=8 / b_pyramid=2 / b_adapt=2 / b_bias=0 / direct=3 / weightb=1 / open_gop=0 / weightp=2 / keyint=250 / keyint_min=23 / scenecut=40 / intra_refresh=0 / rc_lookahead=60 / rc=2pass / mbtree=1 / bitrate=13761 / ratetol=1.0 / qcomp=0.60 / qpmin=0 / qpmax=69 / qpstep=4 / cplxblur=20.0 / qblur=0.5 / vbv_maxrate=40000 / vbv_bufsize=30000 / nal_hrd=none / ip_ratio=1.40 / aq=1:0.80 ']DUCu  
Default : Yes %2^wyVkq:  
Forced : No 2C"[0*.[N  
gt)wk93d>  
Audio DZqY=Sze  
ID : 2 eH^~r{{R  
Format : DTS NGVl/Qd  
Format/Info : Digital Theater Systems $c}-/U 8  
Mode : 16 -)Of\4k x  
Format settings, Endianness : Big lL"ANlX-P  
Codec ID : A_DTS 12 HE =  
Duration : 2h 28mn g[$4a4X  
Bit rate mode : Constant W$Sc@!M3{  
Bit rate : 1 509 Kbps "r[Ob]/  
Channel(s) : 6 channels +a0` ,Jc  
Channel positions : Front: L C R, Side: L R, LFE <BjrW]pM  
Sampling rate : 48.0 KHz 7mtX/w9  
Frame rate : 93.750 fps (512 spf) M$UZn  
Bit depth : 24 bits 3{9d5p|\i  
Compression mode : Lossy w:07_`cH=  
Stream size : 1.56 GiB (10%) ubUVxYD?  
Language : English 6QAhVg: A  
Default : Yes OZ, Xu&N  
Forced : No xq<X:\O  
aM YtWj  
JsHD3  
DTvCx6:!  
本部分内容设定了隐藏,需要回复后才能看到

只看该作者 1 发表于: 2016-02-01
多谢楼主分享