切换到宽版
  • 713阅读
  • 1回复

007:幽灵党.Spectre.2015.1080p.BluRay.x264.DTS-WiKi [复制链接]

上一主题 下一主题
 

只看楼主 倒序阅读 使用道具 0 发表于: 2016-01-29
(b*PDhl`+  
◎译  名 007:幽灵党/007:鬼影帝国(港)/007:恶魔四伏(台)/007:大破幽灵危机/007系列24:大破幽灵危机/邦德24 'G#T 6B!  
◎片  名 Spectre v90)G8|q  
◎年  代 2015 ULJV  
◎国  家 英国/美国 IQm[ ,Fh  
◎类  别 动作/惊悚/冒险 7gx 7NDt  
◎语  言 英语/西班牙语/意大利语/德语/法语 Uc[ @]  
◎上映日期 2015-10-26(英国)/2015-11-06(美国)/2015-11-13(中国大陆) HtN!Hgpwg  
◎IMDb评分  7.0/10 from 182,546 users e Lj1  
◎IMDb链接  http://www.imdb.com/title/tt2379713/ l_MF9.z&  
◎豆瓣评分 6.2/10 from 76,738 users C 7a$>#%  
◎豆瓣链接 http://movie.douban.com/subject/11620560/ 01_*^iCf5  
◎片  长 148分钟 'LyEdlC]  
◎导  演 萨姆·门德斯 Sam Mendes Z=|NoDZ  
◎主  演 丹尼尔·克雷格 Daniel Craig ?nwFc3qw  
      克里斯托弗·沃尔兹 Christoph Waltz `zw^ WbCO{  
      蕾雅·赛杜 Léa Seydoux ^tr?y??k  
      本·卫肖 Ben Whishaw nRSiW*;R  
      娜奥米·哈里斯 Naomie Harris h;lg^zlTb  
      戴夫·巴蒂斯塔 Dave Batista gR]NH  
      莫妮卡·贝鲁奇 Monica Bellucci JHvawFBN<u  
      拉尔夫·费因斯 Ralph Fiennes |n/qJIE6  
      斯黛芬妮·西格曼 Stephanie Sigman e{} oQK  
      安德鲁·斯科特 Andrew Scott GI ;  
      罗里·金奈尔 Rory Kinnear Nj^:8]D)0  
      内芙·加切夫 Neve Gachev gd,3}@@SH  
      加斯帕·克里斯滕森 Jesper Christensen w{$X :Z  
      丹尼尔·斯蒂森 Daniel Stisen 2x<A7l)6  
      丹尼尔·韦斯特伍德 Daniel Westwood 6`JY:~V"  
      拉斯科·阿特金斯 Lasco Atkins ER'zjI>t@  
>%?kp[  
◎简  介 #sRkKl|  
ih[!v"bv  
  一个来自过去的加密信息让詹姆斯·邦德开始了一个神秘任务,从墨西哥城到最终的罗马,在那儿他邂逅了美艳的露琪亚·斯琪拉(莫妮卡·贝鲁奇 Monica Bellucci 饰),而她则是一名臭名昭著的意大利黑手党寡妇。邦德潜入到了一个密会中,揭开了一个名叫“幽灵党”的邪恶组织背后的秘密。 ^F?}MY>  
Ig{ 3>vB  
  然而,远在伦敦的国家安全中心的新任负责人马克思·登彼(安德鲁·斯考特 Andrew Scott 饰)怀疑邦德这次行动的目的,并挑战M(拉尔夫·费恩斯 Ralph Fiennes 饰)掌权的军情六处的地位。邦德暗中召集了钱班霓(奈奥米·哈莉斯 Naomi Harries 饰)和Q博士(本·威肖 Ben Whishaw 饰),协助他寻找他宿敌的女儿——玛德琳·斯旺(蕾雅·赛杜 Léa Seydoux 饰)的下落,玛德琳·斯旺手里握有解开幽灵党秘密的线索。作为一名杀手的女儿,斯旺比绝大多数人更了解邦德。 .IkQo`_s:  
1v M'yr$  
  正当邦德冒险潜入“幽灵党”中心时,他得知自己与他寻找的敌人(克里斯托弗·沃尔兹 Christoph Waltz 饰)之间有着骇人的联系…… #=81`u  
ulAOQG Z  
◎获奖情况 tF&g3)D:NV  
}NgevsV>;  
  第88届奥斯卡金像奖 (2016) _s%;GWj  
a:V2(nY  
  最佳原创歌曲(提名) k7cM.<s!  
i .GJO +K  
  第73届金球奖 (2016) O`rKxP  
t)__J\xF  
  电影类 最佳原创歌曲 7J6D wh{  
iS@+qWo1  
  第21届美国评论家选择电影奖 (2016) m.g2>r`NU  
Gdu5 &]H#6  
  最佳歌曲(提名) 5?=haGn  
S!@h\3d8{  
  动作片最佳男主角(提名) 丹尼尔·克雷格 62D UF  
wnr<# =,I'  
  第2届豆瓣电影年度榜单 (2015) h|Ah\P?o  
\ y}!yrQ  
  11月最受关注电影(提名) \\d!z-NOk?  
=g3o@WD/G  
General 7ZR0cJw;  
Unique ID : 229737991405742230394353659295636090044 (0xACD5ED7DD2E810CFA825FB8A818F6CBC) VsjE*AJpe  
Complete name : D:\PT\已完成任务\Spectre.2015.1080p.BluRay.x264.DTS-WiKi\Spectre.2015.1080p.BluRay.x264.DTS-WiKi.mkv M7PG s-l  
Format : Matroska /YrBnccqD  
Format version : Version 4 / Version 2 R[vA%G  
File size : 15.8 GiB S"Z.M _  
Duration : 2h 28mn SF. Is=b  
Overall bit rate : 15.3 Mbps ]Dd}^khv  
Encoded date : UTC 2016-01-21 02:05:15 -`s_md0BM  
Writing application : mkvmerge v7.9.0 ('Birds') 64bit HD~o]l=H  
Writing library : libebml v1.3.1 + libmatroska v1.4.2 !+H)N  
T? e(m  
Video l+XTn;cS  
ID : 1 kes GwMr"e  
Format : AVC (O-.^ VV  
Format/Info : Advanced Video Codec 7) zF8V  
Format profile : High@L4.1 ~zO>Q4-k  
Format settings, CABAC : Yes b sM ]5^  
Format settings, ReFrames : 5 frames *u ^mf~  
Codec ID : V_MPEG4/ISO/AVC aUYq~E tj  
Duration : 2h 28mn < pWk   
Bit rate : 13.8 Mbps <nk7vo?Ks  
Width : 1 920 pixels /3KPK4!m  
Height : 804 pixels (`)ZR %i  
Display aspect ratio : 2.40:1 {^*K@c  
Frame rate mode : Constant ;%a  
Frame rate : 23.976 (24000/1001) fps (CR]9 6n   
Color space : YUV N?j #=b+D  
Chroma subsampling : 4:2:0 B }t529Z  
Bit depth : 8 bits VtYrU>q  
Scan type : Progressive l#|wF$J  
Bits/(Pixel*Frame) : 0.372 N_liKhq  
Stream size : 14.2 GiB (90%) ANuO(^  
Writing library : x264 core 129 r2245 bc13772 -PiakX  
Encoding settings : cabac=1 / ref=5 / deblock=1:-3:-3 / analyse=0x3:0x133 / me=umh / subme=11 / psy=1 / psy_rd=1.05:0.10 / mixed_ref=1 / me_range=64 / chroma_me=1 / trellis=2 / 8x8dct=1 / cqm=0 / deadzone=21,11 / fast_pskip=0 / chroma_qp_offset=-3 / threads=12 / lookahead_threads=2 / sliced_threads=0 / nr=0 / decimate=1 / interlaced=0 / bluray_compat=0 / constrained_intra=0 / bframes=8 / b_pyramid=2 / b_adapt=2 / b_bias=0 / direct=3 / weightb=1 / open_gop=0 / weightp=2 / keyint=250 / keyint_min=23 / scenecut=40 / intra_refresh=0 / rc_lookahead=60 / rc=2pass / mbtree=1 / bitrate=13761 / ratetol=1.0 / qcomp=0.60 / qpmin=0 / qpmax=69 / qpstep=4 / cplxblur=20.0 / qblur=0.5 / vbv_maxrate=40000 / vbv_bufsize=30000 / nal_hrd=none / ip_ratio=1.40 / aq=1:0.80 &G$K. q  
Default : Yes k}hTSL  
Forced : No ]rS:# LK  
cUj^aTpm  
Audio KJYcP72P  
ID : 2 FByA4VxB  
Format : DTS S>;+zVF]  
Format/Info : Digital Theater Systems T?k!%5,Kj  
Mode : 16 &[W53Lqa  
Format settings, Endianness : Big yB5JvD ?  
Codec ID : A_DTS 8s9ZY4_  
Duration : 2h 28mn r0/aw  
Bit rate mode : Constant wB+X@AA  
Bit rate : 1 509 Kbps 60--6n  
Channel(s) : 6 channels sIzy/W0iV  
Channel positions : Front: L C R, Side: L R, LFE ^R h`XE  
Sampling rate : 48.0 KHz ]Ei*I}  
Frame rate : 93.750 fps (512 spf) m"f3hd4D_q  
Bit depth : 24 bits 21sXCmYR,t  
Compression mode : Lossy xU;/LJ6  
Stream size : 1.56 GiB (10%) i)q8p  
Language : English _^@>I8ix  
Default : Yes 1!W'0LPM  
Forced : No &cZl2ynPi  
HlOn=>)<  
9?tG?b0  
NCivh&HR  
本部分内容设定了隐藏,需要回复后才能看到

只看该作者 1 发表于: 2016-02-01
多谢楼主分享