切换到宽版
  • 2310阅读
  • 1回复

蚁人/蚁侠(港).Ant-Man.2015.1080p.WEB-DL.x264.AAC2.0-SHOW [复制链接]

上一主题 下一主题
 

只看楼主 倒序阅读 使用道具 0 发表于: 2015-11-09
tIV{uVM[|D  
◎译  名 蚁人/蚁侠(港) 1 0.Z Bfn  
◎片  名 Ant-Man e M5-v-  
◎年  代 2015 P;-.\VRu  
◎国  家 美国 tw =A] a*  
◎类  别 动作/科幻/冒险 aMxj{*v7  
◎语  言 英语 $G6kS@A  
◎字  幕 简体中文(内嵌)/英文(内嵌) 6V ncr}  
◎IMDB评分 7.7/10 from 126,207 users   <#;5)!gr{  
◎IMDB链接 http://www.imdb.com/title/tt0478970/ F|y0q:U  
◎文件格式 x264 + AC3 B0A y  
◎视频尺寸 1920x1080 ^$C&{%  
◎文件大小 1CD 2.56 GiB 5''k|B>  
◎片  长 1h 56mn `HnZ{PKf  
◎导  演 佩顿·里德 Peyton Reed O!hp=`B,jf  
◎主  演 保罗·路德 Paul Rudd =hd0Ui>x  
      迈克尔·道格拉斯 Michael Douglas zDEgC  
      伊万杰琳·莉莉 Evangeline Lilly KaS*LDzw  
      寇瑞·斯托尔 Corey Stoll ?Q+*[YEJ5  
      迈克尔·佩纳 Michael Peña zY@0R`{@p  
      大卫·达斯马齐连 David Dastmalchian 0VNpd~G$  
      朱迪·格雷尔 Judy Greer +-SO}P  
      鲍比·坎纳瓦尔 Bobby Cannavale #8 ^b]  
      约翰·斯拉特里 John Slattery QVkji7)ZT  
      伍德·哈里斯 Wood Harris ZR%$f-  
      T.I. BNA1"@9q  
      海莉·阿特维尔 Hayley Atwell g.blDOmlc  
      瓦内萨·罗斯 Vanessa Ross i%F2^R@!q/  
      马丁·唐文 Martin Donovan -P-8D6   
      乔·克里斯特 Joe Chrest iR PE0  
      艾比·莱德·弗特森 Abby Ryder Fortson ^'du@XCf}  
      安东尼·麦凯 Anthony Mackie V@s93kh  
      加勒特·莫里斯 Garrett Morris @$L|   
      尼尔·汉博格 Neil Hamburger 6R8>w,  
      鲁德·哈利特 Rod Hallett @Q{:m)\  
      斯坦·李 Stan Lee %Ie,J5g5  
      克里斯·埃文斯 Chris Evans RJd*(!y  
      塞巴斯蒂安·斯坦 Sebastian Stan ]bmf}&  
 b{)kup  
     6/Yo0D>M$  
◎简  介   #O,w{S  
JY"J}  
        行骗为生的斯科特·朗(保罗·路德饰),在偷了生化学家汉克·皮姆博士(迈克尔·道格拉斯饰)发明的蚁人战服后,拥有了自由收缩身体大小的超能力。汉克·皮姆博士开发出一种“皮姆粒子”,并和斯科特·朗一同成为“蚁人”。斯科特也不得不接受自己的英雄身份,并帮助皮姆博士守护蚁人技术之谜。在强大的敌人威胁下,两人必须精心策划并执行一场惊天骗局来拯救世界维护和平。 _3N,oCRm  
t2.jg?`k  
花絮 c+7I  
[Mc Hl1a  
.《僵尸肖恩》导演埃德加·赖特作为蚁人忠实粉丝,03年便向漫威自荐要把漫画拍成电影,他拍摄了样片并编写剧本,在演员等各项就位、即将开拍的2014年,他却因为与漫威创作意见不合而退出。 _D@QsQ_Z  
J#4pA{01w  
.约翰·斯拉特里第二次饰演钢铁侠的爸爸霍华德斯·塔克,上一部是在2010年的《钢铁侠2》。在《特工卡特》和《美国队长》中,这个角色是由更年轻的多米尼·克库珀饰演。 TOgH~R=  
]TUoXU2<x  
.保罗·路德为了饰演这位超级英雄而疯狂健身,最终他的身材“太好了”,原先做好的戏服太瘦,必须改大才能合适他的肌肉。 VKu_ l  
s?;V!t  
.《蚁人》被认为是漫威电影宇宙中第二阶段的收官之作,而《美国队长:内战》则将是第三阶段的开幕之作。 bF*Kb"!CF  
sh0x<_  
.约瑟夫·戈登-莱维特、伊万·麦克格雷格曾是扮演片中二代蚁人Scott Lang的演员人选。 |0>rojMq  
 lX/7  
.影片中,伊万杰琳·莉莉饰演的Hope Van Dyne是黄蜂女Janet Van Dyne和初代蚁人Hank Pym的女儿。在漫威原著中,这两人的女儿应该叫Hope Pym,但在电影中被改成了跟随母亲的姓氏。 >Wx9a"H^(  
'qo(GGC M  
.蚁人的头盔设计受到了来自钢铁侠以及《变形金刚》中汽车人大黄蜂的影响。 n ~&ssFC  
BILZ XMf  
.早在80年代,漫威当家人斯坦·李就曾与新线电影公司谈过合作,要把蚁人拍成电影,后来由于担心和影片《亲爱的,我把孩子变小了》(1989)设定过于雷同而不了了之。 'Z,7{U1P  
) k[XO  
.在漫威原著中,正是初代蚁人汉克·皮姆(Hank Pym)一手打造出了奥创(Ultron),后者是前一部漫威电影《复仇者联盟2》的大反派。 <nV3`L&]  
S;iD~>KP  
.在筹备剧本的过程中,黄蜂女Janet Van Dyne也曾是其中一个角色,并考虑过由拉什达·琼斯或者艾玛·斯通出演。玛丽·伊丽莎白·温斯泰德也希望出演。但后来这个角色被删去了。 S:xs[b.ZZ  
0R+p\Nc&1  
.埃德加·赖特原先作为导演筹备《蚁人》的过程中,他请求漫威暂时不要把蚁人和黄蜂女的形象用在其它电影中,等待他完成这部影片。这也是为何这两位超级英雄没有出现在《复仇者联盟》(2012)。1 OI:=>Bk  
Uvi@HB HJ  
.肖恩宾、加里·奥德曼、皮尔斯·布鲁斯南都是出演Hank Pym的演员人选。最终由迈克尔·道格拉斯出演。 n>:e8KVM;  
k%sA+=  
.片中洛杉矶场景里,可以看见巴西汽水公司Pingo Doce的海报;而通过2008年的影片《绿巨人》,我们知道这是布鲁斯·班纳工作过的公司。 ?$<~cD" Sw  
< 0S\P=\  
.美剧《公园与游憩》的两位演员相继被选为漫威超级英雄片的男主角,在本片保罗·路德之前,还有《银河护卫队》的克里斯·帕拉特。 #a9R3-aP  
e$Y7V  
.由于档期冲突,杰西卡·查斯坦回绝了出演本片女主角Hope Van Dyne的邀请。 i?#U>0!  
&Q\k`0vzVB  
.尽管埃德加·赖特退出,但剧本依然有很大一部分是来自他的创作。 $(OL#>9Ly  
%wu,c e]*  
.帕特里克·威尔森原定出演Paxton。但由于电影的拍摄延期,档期冲突造成威尔森的退出,这个角色由鲍比·坎纳瓦尔接手。 c$u#U~~  
%4#ChlXB  
.大部分漫威影片都是以2.35:1的画面格式拍摄的,然而本片使用的是1.85:1的宽高比,为的是适应主人公的特殊体型。 YY7dw:>e/  
i1b3>H*3  
.漫威原著中,二代蚁人斯科特·朗的女儿凯西·朗(Cassie Lang)也成了超级英雄,名字叫易身女(Stature) 。 _x`:Ne?  
yd45y}uS;F  
.Paxton这个角色经过剧本改写之后,戏份变重了。保罗·路德与亚当·麦凯亲自给鲍比·坎纳瓦尔打电话,说服他出演这个角色。 aK,\e/Oo  
|qf9-36   
.影片的第一版预告片首先以“蚂蚁尺寸”公布,这款超级迷你的预告几乎肉眼不可见,不过在第二天,片方便公布了正常尺寸的预告片。 <3= k  
*>o@EUArN  
.开拍前,《死于枪战》的加布里埃尔·法拉利和安德鲁·巴瑞尔两位编剧收到片方的邀请,对剧本进行了最后的润色和修改。 Kl(u~/=6  
#0#6eT{-  
.埃德加·赖特认为保罗·路德是出演Scott Lang的完美人选,称赞他“天然的魅力”会让蚁人这个有着反英雄色彩的角色更得人心。在漫画原著中,Scott Lang有着红头发,但电影版保持了路德的黑头发。 jlUT9Zp  
Ur""&@  
.按照一开始的构想,《蚁人》应该是讲述初代蚁人Hank Pym的故事,但电影人考虑到这个角色黑历史过多(多重人格,虐待女性等等),不适合拍成老少咸宜的影片,最终将故事重点转移到二代蚁人身上。 {@-tRm&  
oK" #*n  
获奖记录 V|nJ%G\  
k9\n='OI  
青少年选择奖(2015;第17届) #X5Tt  ;  
提名 {gDoktC@M  
·青少年选择奖-最佳夏日电影女星伊万杰琳·莉莉 Evangeline Lilly   : :/vDUDc  
·青少年选择奖-最佳夏日电影男星保罗·路德 Paul Rudd PbMvM  
sP8_Y,  
General ]tbl1=|  
Complete name                  : Ant-Man.2015.1080p.WEB-DL.x264.AAC2.0-SHOW.mp4  3+M+5  
Format                         : MPEG-4 n!NA}Oa  
Format profile                 : Base Media | l?*' =  
Codec ID                       : isom =A"z.KfV  
File size                      : 2.56 GiB BT5~MYBl  
Duration                       : 1h 56mn 'sI @e s  
Overall bit rate mode          : Variable K5+ONA<c  
Overall bit rate               : 3 130 Kbps )L,Nh~  
Encoded date                   : UTC 2015-11-06 08:26:56 {?IUf~<  
Tagged date                    : UTC 2015-11-06 08:26:56 ve(@=MJ  
"+4r4  
Video 6" . v6  
ID                             : 1 >LEp EMJ\  
Format                         : AVC N$8"X-na?  
Format/Info                    : Advanced Video Codec $[(FCS  
Format profile                 : Baseline@L3.1 qKuHd~M{ 1  
Format settings, CABAC         : No ]jP 0Z#  
Format settings, ReFrames      : 2 frames KVpQ,x&q~  
Codec ID                       : avc1 P?iQ{x}w~  
Codec ID/Info                  : Advanced Video Coding _#o75*42tT  
Duration                       : 1h 56mn (G {2ec:?  
Source duration                : 2mn 27s ]5eZLXM  
Bit rate                       : 3 000 Kbps S'AS,'EnY  
Maximum bit rate               : 20.0 Mbps :HN\A4=kc(  
Width                          : 1 920 pixels .OF2O}  
Height                         : 1 080 pixels d1d:5 b  
Display aspect ratio           : 16:9 3 W?H^1t  
Frame rate mode                : Constant 0a v2w5>af  
Frame rate                     : 23.976 fps !f8]gTzN  
Color space                    : YUV <d3N2  
Chroma subsampling             : 4:2:0 y@]:7  
Bit depth                      : 8 bits Be0v&Q_NK  
Scan type                      : Progressive 95  X6V  
Bits/(Pixel*Frame)             : 0.060 T7 XbbU   
Stream size                    : 2.45 GiB (96%) 4= hz4(5a  
Source stream size             : 2.45 GiB (96%) TbhsOf!  
Writing library                : x264 core 120 r2164 da19765 AjO|@6  
Encoding settings              : cabac=0 / ref=2 / deblock=1:-3:-3 / analyse=0x1:0x131 / me=umh / subme=7 / psy=1 / psy_rd=1.00:0.00 / mixed_ref=1 / me_range=16 / chroma_me=1 / trellis=0 / 8x8dct=0 / cqm=0 / deadzone=21,11 / fast_pskip=1 / chroma_qp_offset=-2 / threads=12 / sliced_threads=0 / nr=0 / decimate=1 / interlaced=0 / bluray_compat=0 / constrained_intra=0 / bframes=0 / weightp=0 / keyint=240 / keyint_min=23 / scenecut=40 / intra_refresh=0 / rc_lookahead=40 / rc=2pass / mbtree=1 / bitrate=3000 / ratetol=1.0 / qcomp=0.60 / qpmin=10 / qpmax=51 / qpstep=4 / cplxblur=20.0 / qblur=0.5 / ip_ratio=1.40 / aq=1:1.00 xO'xZ%cUI  
Encoded date                   : UTC 2015-11-06 08:26:56 'ewVn1ME[  
Tagged date                    : UTC 2015-11-06 08:28:10 [Z+E_Lbz  
mdhd_Duration                  : 7019767 ,6^V)F  
s!K9-qZl<  
Audio 1`EkN0iZ  
ID                             : 2 k|_LF[ *Z  
Format                         : AAC 0[SrRpD  
Format/Info                    : Advanced Audio Codec N< 7  
Format profile                 : LC 14rX:z  
Codec ID                       : 40 T#R*]  
Duration                       : 1h 56mn C]%}L%,  
Bit rate mode                  : Variable IgtTYxI  
Bit rate                       : 128 Kbps =doOt 7Rj  
Maximum bit rate               : 224 Kbps $T}Dn[.  
Channel(s)                     : 2 channels EN2/3~syO-  
Channel positions              : Front: L R >U'gQS?\]  
Sampling rate                  : 48.0 KHz {FNq&)#`  
Compression mode               : Lossy yDB Mm^  
Stream size                    : 107 MiB (4%) #jR1ti)p  
Encoded date                   : UTC 2015-11-06 08:27:59 u69s}yZ  
Tagged date                    : UTC 2015-11-06 08:28:10 $3 ~ /H"K  
2o9IP>#u  
}Fgp*x-G  
本部分内容设定了隐藏,需要回复后才能看到
{,CvWL  

只看该作者 1 发表于: 2015-11-14
本部分内容设定了隐藏,需要回复后才能看到