切换到宽版
  • 2469阅读
  • 1回复

蚁人/蚁侠(港).Ant-Man.2015.1080p.WEB-DL.x264.AAC2.0-SHOW [复制链接]

上一主题 下一主题
 

只看楼主 倒序阅读 使用道具 0 发表于: 2015-11-09
fu95-)M  
◎译  名 蚁人/蚁侠(港) \f_YJit  
◎片  名 Ant-Man %maLo RJ  
◎年  代 2015 U e <Y ~A  
◎国  家 美国 wDV%.Cc  
◎类  别 动作/科幻/冒险 S:GX!6>  
◎语  言 英语 PuhFbgxy  
◎字  幕 简体中文(内嵌)/英文(内嵌) ggUJ -M'2h  
◎IMDB评分 7.7/10 from 126,207 users   fhA K^ @h  
◎IMDB链接 http://www.imdb.com/title/tt0478970/ ~cSOni`  
◎文件格式 x264 + AC3 6A]Ia4PL  
◎视频尺寸 1920x1080 QX'/PO  
◎文件大小 1CD 2.56 GiB Q1Sf7)  
◎片  长 1h 56mn ?B2 T'}~  
◎导  演 佩顿·里德 Peyton Reed  %Ln7{w  
◎主  演 保罗·路德 Paul Rudd iS^IqS  
      迈克尔·道格拉斯 Michael Douglas )MZQ\8,)]  
      伊万杰琳·莉莉 Evangeline Lilly FU|c[u|z  
      寇瑞·斯托尔 Corey Stoll FXPw 5  
      迈克尔·佩纳 Michael Peña Ncu\;K\N  
      大卫·达斯马齐连 David Dastmalchian ~E=.*: 5(  
      朱迪·格雷尔 Judy Greer t YmR<^  
      鲍比·坎纳瓦尔 Bobby Cannavale 1wl8  
      约翰·斯拉特里 John Slattery 0'm4 ) \  
      伍德·哈里斯 Wood Harris lk6*?EJ  
      T.I. <=*xwI&q  
      海莉·阿特维尔 Hayley Atwell &z r..i4O  
      瓦内萨·罗斯 Vanessa Ross mT8($KQ  
      马丁·唐文 Martin Donovan <[2]p\rj  
      乔·克里斯特 Joe Chrest EwcN$Ma  
      艾比·莱德·弗特森 Abby Ryder Fortson Brh<6Btl  
      安东尼·麦凯 Anthony Mackie HKk; oG  
      加勒特·莫里斯 Garrett Morris [}|-% 4s  
      尼尔·汉博格 Neil Hamburger mB.kV Ve0  
      鲁德·哈利特 Rod Hallett 88 *K  
      斯坦·李 Stan Lee 3 3_YZOy^j  
      克里斯·埃文斯 Chris Evans # k1%}k=  
      塞巴斯蒂安·斯坦 Sebastian Stan ` 7P4O   
~\c]!%)o  
     t,;1?W#  
◎简  介   =~% B}T  
50oNN+; =R  
        行骗为生的斯科特·朗(保罗·路德饰),在偷了生化学家汉克·皮姆博士(迈克尔·道格拉斯饰)发明的蚁人战服后,拥有了自由收缩身体大小的超能力。汉克·皮姆博士开发出一种“皮姆粒子”,并和斯科特·朗一同成为“蚁人”。斯科特也不得不接受自己的英雄身份,并帮助皮姆博士守护蚁人技术之谜。在强大的敌人威胁下,两人必须精心策划并执行一场惊天骗局来拯救世界维护和平。 jZcjiOX  
8W 9%NW3&  
花絮  cjf}yn  
#e0tT +  
.《僵尸肖恩》导演埃德加·赖特作为蚁人忠实粉丝,03年便向漫威自荐要把漫画拍成电影,他拍摄了样片并编写剧本,在演员等各项就位、即将开拍的2014年,他却因为与漫威创作意见不合而退出。 6|m1z  
N0h"EV[  
.约翰·斯拉特里第二次饰演钢铁侠的爸爸霍华德斯·塔克,上一部是在2010年的《钢铁侠2》。在《特工卡特》和《美国队长》中,这个角色是由更年轻的多米尼·克库珀饰演。 C26PQGo#$  
n`T 4aDm  
.保罗·路德为了饰演这位超级英雄而疯狂健身,最终他的身材“太好了”,原先做好的戏服太瘦,必须改大才能合适他的肌肉。 <D4.k M  
+d6/*}ht  
.《蚁人》被认为是漫威电影宇宙中第二阶段的收官之作,而《美国队长:内战》则将是第三阶段的开幕之作。 ul+ +h4N  
Z'PE^ ,  
.约瑟夫·戈登-莱维特、伊万·麦克格雷格曾是扮演片中二代蚁人Scott Lang的演员人选。 d{@X-4k :  
h3D8eR.  
.影片中,伊万杰琳·莉莉饰演的Hope Van Dyne是黄蜂女Janet Van Dyne和初代蚁人Hank Pym的女儿。在漫威原著中,这两人的女儿应该叫Hope Pym,但在电影中被改成了跟随母亲的姓氏。 C:g2E[#  
,ijgqEN  
.蚁人的头盔设计受到了来自钢铁侠以及《变形金刚》中汽车人大黄蜂的影响。 2>#Pt^R:C  
 gM20n^  
.早在80年代,漫威当家人斯坦·李就曾与新线电影公司谈过合作,要把蚁人拍成电影,后来由于担心和影片《亲爱的,我把孩子变小了》(1989)设定过于雷同而不了了之。 EVMhc"L  
EN()dCQHr  
.在漫威原著中,正是初代蚁人汉克·皮姆(Hank Pym)一手打造出了奥创(Ultron),后者是前一部漫威电影《复仇者联盟2》的大反派。 '8~7Ru\KyX  
$!Z6?+  
.在筹备剧本的过程中,黄蜂女Janet Van Dyne也曾是其中一个角色,并考虑过由拉什达·琼斯或者艾玛·斯通出演。玛丽·伊丽莎白·温斯泰德也希望出演。但后来这个角色被删去了。 ehI*cf({  
}`4o+  
.埃德加·赖特原先作为导演筹备《蚁人》的过程中,他请求漫威暂时不要把蚁人和黄蜂女的形象用在其它电影中,等待他完成这部影片。这也是为何这两位超级英雄没有出现在《复仇者联盟》(2012)。1 vbmSbZ"y  
B3u5EgZr  
.肖恩宾、加里·奥德曼、皮尔斯·布鲁斯南都是出演Hank Pym的演员人选。最终由迈克尔·道格拉斯出演。 I+w3It  
n I%0u<=d  
.片中洛杉矶场景里,可以看见巴西汽水公司Pingo Doce的海报;而通过2008年的影片《绿巨人》,我们知道这是布鲁斯·班纳工作过的公司。 j|9;") 1  
Qv,|*bf  
.美剧《公园与游憩》的两位演员相继被选为漫威超级英雄片的男主角,在本片保罗·路德之前,还有《银河护卫队》的克里斯·帕拉特。 Ob?>zsx  
`h( JD$w  
.由于档期冲突,杰西卡·查斯坦回绝了出演本片女主角Hope Van Dyne的邀请。 9ulJZ\cQ  
|cJyP9}n  
.尽管埃德加·赖特退出,但剧本依然有很大一部分是来自他的创作。 ZrnZ7,!@  
1agyT  
.帕特里克·威尔森原定出演Paxton。但由于电影的拍摄延期,档期冲突造成威尔森的退出,这个角色由鲍比·坎纳瓦尔接手。 bV&/)eqv  
Q3\j4;jI(  
.大部分漫威影片都是以2.35:1的画面格式拍摄的,然而本片使用的是1.85:1的宽高比,为的是适应主人公的特殊体型。 zWgNDYT~  
~" B0P>7  
.漫威原著中,二代蚁人斯科特·朗的女儿凯西·朗(Cassie Lang)也成了超级英雄,名字叫易身女(Stature) 。 RyC]4 QyC  
#O z<<G<  
.Paxton这个角色经过剧本改写之后,戏份变重了。保罗·路德与亚当·麦凯亲自给鲍比·坎纳瓦尔打电话,说服他出演这个角色。 PkQuN;a  
,2DKphh  
.影片的第一版预告片首先以“蚂蚁尺寸”公布,这款超级迷你的预告几乎肉眼不可见,不过在第二天,片方便公布了正常尺寸的预告片。 TS)p2#  
D|,d_W  
.开拍前,《死于枪战》的加布里埃尔·法拉利和安德鲁·巴瑞尔两位编剧收到片方的邀请,对剧本进行了最后的润色和修改。 =;0#F&  
\szx.IZT  
.埃德加·赖特认为保罗·路德是出演Scott Lang的完美人选,称赞他“天然的魅力”会让蚁人这个有着反英雄色彩的角色更得人心。在漫画原著中,Scott Lang有着红头发,但电影版保持了路德的黑头发。 g AC}  
b{s_cOr/  
.按照一开始的构想,《蚁人》应该是讲述初代蚁人Hank Pym的故事,但电影人考虑到这个角色黑历史过多(多重人格,虐待女性等等),不适合拍成老少咸宜的影片,最终将故事重点转移到二代蚁人身上。 K_oBSa`  
z)=D&\HX  
获奖记录 v&i M/pJU  
QKYIBX  
青少年选择奖(2015;第17届) Axhe9!Fm  
提名 +,9I3Dq  
·青少年选择奖-最佳夏日电影女星伊万杰琳·莉莉 Evangeline Lilly   BbA>1#i5]  
·青少年选择奖-最佳夏日电影男星保罗·路德 Paul Rudd #QQ \ xj  
BHOxwW{  
General MQ5#6 vJ  
Complete name                  : Ant-Man.2015.1080p.WEB-DL.x264.AAC2.0-SHOW.mp4 NwoBM6 #  
Format                         : MPEG-4 %Y M4x!6  
Format profile                 : Base Media gfw,S;  
Codec ID                       : isom OljUK,I]  
File size                      : 2.56 GiB OqtQLqN  
Duration                       : 1h 56mn W*e6F?G  
Overall bit rate mode          : Variable Gn #5zx#l  
Overall bit rate               : 3 130 Kbps r5Jy( ~  
Encoded date                   : UTC 2015-11-06 08:26:56 u1/4WYJeJ  
Tagged date                    : UTC 2015-11-06 08:26:56 LpeQx\  
jn>3(GRGC$  
Video NZ/gp"D?  
ID                             : 1 ,h5\v WZ  
Format                         : AVC kEgpF{"%n  
Format/Info                    : Advanced Video Codec 0$A^ .M;  
Format profile                 : Baseline@L3.1 \sMe2OL#z  
Format settings, CABAC         : No K| dI'TnW  
Format settings, ReFrames      : 2 frames Um}f7^fp^l  
Codec ID                       : avc1 zmU@ k  
Codec ID/Info                  : Advanced Video Coding 3v@h&7<E  
Duration                       : 1h 56mn _01wRsm%2  
Source duration                : 2mn 27s w73?E#8  
Bit rate                       : 3 000 Kbps #x qiGK  
Maximum bit rate               : 20.0 Mbps C.BlB  
Width                          : 1 920 pixels d^=9YRc  
Height                         : 1 080 pixels O 1D|T"@  
Display aspect ratio           : 16:9 P_4E<"eK  
Frame rate mode                : Constant NbC2N)L4  
Frame rate                     : 23.976 fps )I#{\^  
Color space                    : YUV ^Q6?T(%$  
Chroma subsampling             : 4:2:0 3eg6 CdT  
Bit depth                      : 8 bits 4O{G^;  
Scan type                      : Progressive ^@3,/dH1 t  
Bits/(Pixel*Frame)             : 0.060 br^ A<@,d  
Stream size                    : 2.45 GiB (96%) h!@7'Q  
Source stream size             : 2.45 GiB (96%) |Fz ^(US  
Writing library                : x264 core 120 r2164 da19765 uu9IUqEq2  
Encoding settings              : cabac=0 / ref=2 / deblock=1:-3:-3 / analyse=0x1:0x131 / me=umh / subme=7 / psy=1 / psy_rd=1.00:0.00 / mixed_ref=1 / me_range=16 / chroma_me=1 / trellis=0 / 8x8dct=0 / cqm=0 / deadzone=21,11 / fast_pskip=1 / chroma_qp_offset=-2 / threads=12 / sliced_threads=0 / nr=0 / decimate=1 / interlaced=0 / bluray_compat=0 / constrained_intra=0 / bframes=0 / weightp=0 / keyint=240 / keyint_min=23 / scenecut=40 / intra_refresh=0 / rc_lookahead=40 / rc=2pass / mbtree=1 / bitrate=3000 / ratetol=1.0 / qcomp=0.60 / qpmin=10 / qpmax=51 / qpstep=4 / cplxblur=20.0 / qblur=0.5 / ip_ratio=1.40 / aq=1:1.00 Q 0G5<:wc  
Encoded date                   : UTC 2015-11-06 08:26:56 )s,LFIy<A  
Tagged date                    : UTC 2015-11-06 08:28:10 jST4O"DjM  
mdhd_Duration                  : 7019767 ? cXW\A(  
[GPCd@  
Audio Y)@Y$_  
ID                             : 2 43x2BW&&  
Format                         : AAC 06O_!"GD}  
Format/Info                    : Advanced Audio Codec l$1 NI#&  
Format profile                 : LC Nc &J%a  
Codec ID                       : 40 r;xy/*%Mtj  
Duration                       : 1h 56mn :hT .L3n,  
Bit rate mode                  : Variable J/fnSy  
Bit rate                       : 128 Kbps Jz=|-F(Sy  
Maximum bit rate               : 224 Kbps F^$;hMh%  
Channel(s)                     : 2 channels ;>>n#8`  
Channel positions              : Front: L R  =n5n  
Sampling rate                  : 48.0 KHz O/|))H?C  
Compression mode               : Lossy y>.t[*zT  
Stream size                    : 107 MiB (4%) 5JhvYsf3_  
Encoded date                   : UTC 2015-11-06 08:27:59 PW|=IPS  
Tagged date                    : UTC 2015-11-06 08:28:10 iGSA$U P|  
u7^( ?"x  
Gbjh|j=  
本部分内容设定了隐藏,需要回复后才能看到
JOpH Z?  

只看该作者 1 发表于: 2015-11-14
本部分内容设定了隐藏,需要回复后才能看到