切换到宽版
  • 853阅读
  • 1回复

黑色弥撒/黑弥撒/黑势力(台)/极黑势力(港).Black.Mass.2015.1080p.HC.WEBRip.x264.AAC2.0-RARBG [复制链接]

上一主题 下一主题
 

只看楼主 倒序阅读 使用道具 0 发表于: 2015-10-26
m/"}Y]n!  
◎译  名 黑色弥撒/黑弥撒/黑势力(台)/极黑势力(港) ,D93A  
◎片  名 Black Mass %&M*G@j  
◎年  代 2014 t]XF*fZH  
◎国  家 美国 Vy+kq_9  
◎类  型 传记/犯罪/剧情 N 8pzs"  
◎语  言 英语 ;tWi4iT+.  
◎字  幕 N简体中文(内嵌) 5iZ;7 ?(  
◎IMDB评分  7.7/10 from 15,149 users ;edt["Eu  
◎IMDB链接 http://www.imdb.com/title/tt1355683/ "vo o!&<  
◎文件格式 x264 + AAC S20E}bS:>  
◎视频尺寸 1920 x 792 {KqERS& g  
◎文件大小 1CD 3.61 GiB tWI %P&b  
◎片  长 2h 2mn n=%D}W  
◎导  演 斯考特·库伯 Scott Cooper   i,mo0CSa  
◎主  演 约翰尼·德普 Johnny Depp ...James 'Whitey' Bulger Vb/XT{T;b  
      乔尔·埃哲顿 Joel Edgerton ...John Connolly ,Ad{ k   
      本尼迪克特·康伯巴奇 Benedict Cumberbatch ...Billy Bulger Z#flu Q%V  
      达科塔·约翰逊 Dakota Johnson ...Lindsey Cyr uE&2M>2  
      Kevin Bacon ...Charles McGuire RsnFjfb'  
      Peter Sarsgaard ...Brian Halloran D)J'xG_<O  
      Jesse Plemons ...Kevin Weeks 7DB!s@"  
      Rory Cochrane ...Steve Flemmi X~rHNRIU  
      David Harbour ...John Morris ;s w3MRJ  
      Adam Scott ...FBI Agent Robert Fitzpatrick f= 33+8I  
      Corey Stoll ...Fred Wyshak s AlOX`t  
      Julianne Nicholson ...Marianne Connolly f4+}k GJN  
      W. Earl Brown ...John Martorano ]MRQcqbpqL  
      Bill Camp ...John Callahan cE3V0voSw1  
      Juno Temple ...Deborah Hussey   j)lgF:  
Kc {~Q  
k^Uk= )9  
b-)3MR:4  
+KHk`2{y~  
G-G\l?R(  
◎简  介 H >1mi_1  
\:_!!   
  影片讲述了臭名昭著的波士顿黑帮头目詹姆斯·巴尔杰(James "Whitey" Bulger,为美版《无色间道》人物原型)的故事,根据名为《黑弥撒:FBI和爱尔兰黑帮不光彩合作的真实故事》(Black Mass: The True Story of an Unholy Alliance Between the FBI and the Irish Mob)的纪实小说改编,该书由普利策获奖得主、《波士顿环球报》记者Dick Lehr和Gerard O'Neill共同创作。 Q) Y&h'.(  
Y[`%j\=  
  詹姆斯·巴尔杰是全球十大在逃通缉犯之一,他发迹于波士顿,获奥斯卡最佳影片的《无间道风云》中的黑帮大佬就有他的影子。巴尔杰建立的“冬日山岗”帮(Winter Hill Gang)是波士顿著名的黑帮组织,从贩卖毒品到倒卖军火无恶不作,另外他们和包括爱尔兰共和军(Irish Republican Army)在内的北美及欧洲许多主要的犯罪集团都有联系。姆斯·巴尔杰之所以能够逐渐壮大而不受法律制裁,和他在FBI任职的一位好友也有关系,这位探员名叫约翰·康纳利(John Connolly),是和巴尔杰从小玩到大的哥们,两人长大后选择了黑白不同的两条道路,但却拥有共同的利益点:巴尔杰为康纳利提供黑帮线报,康纳利则对巴尔杰的犯罪勾当睁一眼闭一眼。FBI一直想将巴尔杰捉拿归案,但得到了康纳利通风报信的巴尔杰14年前突然失踪,直到现在依然逍遥法外。而康纳利则在退休后才被发现是FBI的“内鬼”,此事成为美国法律体系的一大丑闻。  4d )Q  
Yf[GpSej  
花絮 W=?s-*F[~  
ZsL-vlv  
.本片是约翰尼·德普第四次出演有着真实原型的黑帮大佬,前三次分别是《忠奸人》的Donnie Brasco、《美国毒枭》George Jung以及《人民公敌》的John Dillinger。 %^<A` Q_  
uz@WW!+o  
.影片根据纪实文学《黑色弥撒:FBI和爱尔兰黑帮不光彩合作的真实故事》改编,原书发表于2001年。 E@S5|CM  
d;LBV<Z?  
.最初,《雨人》导演巴里·莱文森是导演人选;2014年1月斯考特·库伯在《逃出熔炉》获得好评之后被聘改写剧本并执导本片。 /r mm@  
=y1/V' 2E  
.盖·皮尔斯原来是Bill Bulger的扮演人选,在他退出后由本尼迪克特·康伯巴奇出演。 M{M?#Q  
q@&.)sLPgO  
.主角原型詹姆斯·巴尔杰2011年被捕,他当时是FBI十大在逃通缉犯之一,并且被列入这一名单长达12年。FBI开出200万美元奖金缉拿巴尔杰,这一奖金数目仅次于本拉登的悬赏数目。 #wL8=QTcNC  
#>(h!lT_  
.詹姆斯·巴尔杰发迹于波士顿,获奥斯卡最佳影片的《无间道风云》就是以波士顿为背景,里面的黑帮大佬身上有他的影子。 7|$ H}$  
~riV9_-  
.影片制作期间,现实中的John Connolly(乔尔·埃哲顿饰演的FBI探员)作为“谋杀案从犯”的定罪被撤销。 * 57y.](w  
cT,5xp"a  
.影片中女演员达科塔·约翰是好莱坞老牌女星蒂比·海德莉的外孙女,而合作出演本片的西耶娜·米勒曾经在影片《那个女孩》中扮演蒂比·海德莉。 8CN 0Q&|  
^fbw0  
.影片原定的主演就是约翰尼·德普和乔尔·埃哲顿,两人中途一度退出,但还是先后回归出演。中间在埃哲顿退出后,汤姆·哈迪是出演约翰·康纳利的考虑人选。 rd4\N2- 6  
ZHW|P  
Video "\u_gk{g  
ID                                       : 1 qaN%&K9F8  
Format                                   : AVC Q]2v]PJ6"  
Format/Info                              : Advanced Video Codec /Jw 65 e  
Format profile                           : High@L4.1 aBx8wl*Vm  
Format settings, CABAC                   : Yes kpt 0spp  
Format settings, ReFrames                : 4 frames ~pj/ _@S@x  
Codec ID                                 : avc1 f3Cjj]RFv  
Codec ID/Info                            : Advanced Video Coding /?Fa<{  
Duration                                 : 2h 2mn Ah <6m5+  
Bit rate                                 : 4 000 Kbps no lLeRE1  
Width                                    : 1 920 pixels _'47yq^O  
Height                                   : 792 pixels ; \N${YIn  
Display aspect ratio                     : 2.40:1 8I*WVa$l  
Frame rate mode                          : Constant "lJ [H=\  
Frame rate                               : 23.976 fps nkvkHh  
Color space                              : YUV WQT;k0;T]  
Chroma subsampling                       : 4:2:0 <!M ab}  
Bit depth                                : 8 bits TWFi.w4pY  
Scan type                                : Progressive ;p}X]e l }  
Bits/(Pixel*Frame)                       : 0.110 k4ijWo{:0  
Stream size                              : 3.41 GiB (95%) `&-)(#  
Title                                    : Black.Mass.2015.1080p.HC.WEBRip.x264.AAC2.0-RARBG muqIh!nn  
Writing library                          : x264 core 146 r2555 0c21480 "mm|0PUJ  
Encoding settings                        : cabac=1 / ref=4 / deblock=1:-2:-2 / analyse=0x3:0x113 / me=umh / subme=7 / psy=1 / psy_rd=1.00:0.15 / mixed_ref=1 / me_range=16 / chroma_me=1 / trellis=2 / 8x8dct=1 / cqm=0 / deadzone=21,11 / fast_pskip=1 / chroma_qp_offset=-3 / threads=8 / lookahead_threads=2 / sliced_threads=0 / nr=0 / decimate=1 / interlaced=0 / bluray_compat=0 / constrained_intra=0 / bframes=3 / b_pyramid=2 / b_adapt=2 / b_bias=0 / direct=3 / weightb=1 / open_gop=0 / weightp=2 / keyint=250 / keyint_min=25 / scenecut=40 / intra_refresh=0 / rc_lookahead=50 / rc=abr / mbtree=1 / bitrate=4000 / ratetol=1.0 / qcomp=0.60 / qpmin=0 / qpmax=69 / qpstep=4 / vbv_maxrate=31250 / vbv_bufsize=31250 / nal_hrd=none / filler=0 / ip_ratio=1.40 / aq=1:1.00 xX]92Q  
V=g<3R&  
Audio nQW`X=Ku  
ID                                       : 2 U~e^  
Format                                   : AAC zxt&oT0Q  
Format/Info                              : Advanced Audio Codec P6cc8x9g(  
Format profile                           : LC (ON_(MN  
Codec ID                                 : 40 =Nj58l  
Duration                                 : 2h 2mn z|gG%fM  
Bit rate mode                            : Variable ? m$7)@p  
Bit rate                                 : 224 Kbps ^,.G<2Kx&  
Maximum bit rate                         : 31.3 Mbps z a^s%^:yK  
Channel(s)                               : 2 channels ]8i2'x  
Channel positions                        : Front: L R 5wws8w  
Sampling rate                            : 48.0 KHz O]Mz1 ev|  
Compression mode                         : Lossy CdN,R"V0$@  
Stream size                              : 196 MiB (5%) pWwB<F  
Title                                    : Black.Mass.2015.1080p.HC.WEBRip.x264.AAC2.0-RARBG K(M@#t1_&  
Language                                 : unk %)K)h&m  
xgeKz^,  
3)J0f+M>dv  
H' [#x2  
本部分内容设定了隐藏,需要回复后才能看到

只看该作者 1 发表于: 2015-11-14
本部分内容设定了隐藏,需要回复后才能看到