切换到宽版
  • 750阅读
  • 1回复

黑色弥撒/黑弥撒/黑势力(台)/极黑势力(港).Black.Mass.2015.1080p.HC.WEBRip.x264.AAC2.0-RARBG [复制链接]

上一主题 下一主题
 

只看楼主 倒序阅读 使用道具 0 发表于: 2015-10-26
ko-3`hX`  
◎译  名 黑色弥撒/黑弥撒/黑势力(台)/极黑势力(港) I |PEC-(  
◎片  名 Black Mass Dx)>`yJk$;  
◎年  代 2014 CdEQiu  
◎国  家 美国 >m$jJlAv8  
◎类  型 传记/犯罪/剧情 #}PQ !gZ  
◎语  言 英语 K20,aWBq;3  
◎字  幕 N简体中文(内嵌) ^_4e^D]P"  
◎IMDB评分  7.7/10 from 15,149 users LoUHStt  
◎IMDB链接 http://www.imdb.com/title/tt1355683/ -1_WE/Ps  
◎文件格式 x264 + AAC %fT%,( w}t  
◎视频尺寸 1920 x 792 qw?Wi%t(x8  
◎文件大小 1CD 3.61 GiB F_U9;*f]  
◎片  长 2h 2mn PFKl6_(  
◎导  演 斯考特·库伯 Scott Cooper   Y9 /`w@"v  
◎主  演 约翰尼·德普 Johnny Depp ...James 'Whitey' Bulger .B+Bl/  
      乔尔·埃哲顿 Joel Edgerton ...John Connolly bIWSNNV0F  
      本尼迪克特·康伯巴奇 Benedict Cumberbatch ...Billy Bulger m/e*P*\ =  
      达科塔·约翰逊 Dakota Johnson ...Lindsey Cyr CL|d>  
      Kevin Bacon ...Charles McGuire -l Y,lC>{  
      Peter Sarsgaard ...Brian Halloran H|Y*TI2vf8  
      Jesse Plemons ...Kevin Weeks }WA =  
      Rory Cochrane ...Steve Flemmi ptc.JB 6  
      David Harbour ...John Morris 9xN`  
      Adam Scott ...FBI Agent Robert Fitzpatrick \y(ZeNs  
      Corey Stoll ...Fred Wyshak j%U'mGx  
      Julianne Nicholson ...Marianne Connolly &At9@  
      W. Earl Brown ...John Martorano *| 9:  
      Bill Camp ...John Callahan yMz dM&a!*  
      Juno Temple ...Deborah Hussey   mP] a}[  
]@I>OcH  
w)XnMyD(P  
x MFo  
U]]ON6Y&F  
6J]8BHJn+  
◎简  介 jK]An;l{Z  
tZ.hSDH  
  影片讲述了臭名昭著的波士顿黑帮头目詹姆斯·巴尔杰(James "Whitey" Bulger,为美版《无色间道》人物原型)的故事,根据名为《黑弥撒:FBI和爱尔兰黑帮不光彩合作的真实故事》(Black Mass: The True Story of an Unholy Alliance Between the FBI and the Irish Mob)的纪实小说改编,该书由普利策获奖得主、《波士顿环球报》记者Dick Lehr和Gerard O'Neill共同创作。 NY GWA4L  
X%98k'h.y  
  詹姆斯·巴尔杰是全球十大在逃通缉犯之一,他发迹于波士顿,获奥斯卡最佳影片的《无间道风云》中的黑帮大佬就有他的影子。巴尔杰建立的“冬日山岗”帮(Winter Hill Gang)是波士顿著名的黑帮组织,从贩卖毒品到倒卖军火无恶不作,另外他们和包括爱尔兰共和军(Irish Republican Army)在内的北美及欧洲许多主要的犯罪集团都有联系。姆斯·巴尔杰之所以能够逐渐壮大而不受法律制裁,和他在FBI任职的一位好友也有关系,这位探员名叫约翰·康纳利(John Connolly),是和巴尔杰从小玩到大的哥们,两人长大后选择了黑白不同的两条道路,但却拥有共同的利益点:巴尔杰为康纳利提供黑帮线报,康纳利则对巴尔杰的犯罪勾当睁一眼闭一眼。FBI一直想将巴尔杰捉拿归案,但得到了康纳利通风报信的巴尔杰14年前突然失踪,直到现在依然逍遥法外。而康纳利则在退休后才被发现是FBI的“内鬼”,此事成为美国法律体系的一大丑闻。 b&*)C#7/T  
V2S HF  
花絮 m@y<wk(  
!{?<(6;t  
.本片是约翰尼·德普第四次出演有着真实原型的黑帮大佬,前三次分别是《忠奸人》的Donnie Brasco、《美国毒枭》George Jung以及《人民公敌》的John Dillinger。  K,o&gY  
H va/C{Y  
.影片根据纪实文学《黑色弥撒:FBI和爱尔兰黑帮不光彩合作的真实故事》改编,原书发表于2001年。 ".{'h  
<2e[;$  
.最初,《雨人》导演巴里·莱文森是导演人选;2014年1月斯考特·库伯在《逃出熔炉》获得好评之后被聘改写剧本并执导本片。 pupt__NZ)n  
k#n%at.g  
.盖·皮尔斯原来是Bill Bulger的扮演人选,在他退出后由本尼迪克特·康伯巴奇出演。 I_Omv{&u  
-Rwx`=6tV  
.主角原型詹姆斯·巴尔杰2011年被捕,他当时是FBI十大在逃通缉犯之一,并且被列入这一名单长达12年。FBI开出200万美元奖金缉拿巴尔杰,这一奖金数目仅次于本拉登的悬赏数目。 i~LY  
e0M'\'J  
.詹姆斯·巴尔杰发迹于波士顿,获奥斯卡最佳影片的《无间道风云》就是以波士顿为背景,里面的黑帮大佬身上有他的影子。 )~CNh5z 6Y  
y7Nd3\v [\  
.影片制作期间,现实中的John Connolly(乔尔·埃哲顿饰演的FBI探员)作为“谋杀案从犯”的定罪被撤销。 3$9V4v@2  
F+]cFx,/  
.影片中女演员达科塔·约翰是好莱坞老牌女星蒂比·海德莉的外孙女,而合作出演本片的西耶娜·米勒曾经在影片《那个女孩》中扮演蒂比·海德莉。  Cwl:  
-' =?Hs.  
.影片原定的主演就是约翰尼·德普和乔尔·埃哲顿,两人中途一度退出,但还是先后回归出演。中间在埃哲顿退出后,汤姆·哈迪是出演约翰·康纳利的考虑人选。 !tSh9L;<O  
A : O"N  
Video SPp|/ [i7  
ID                                       : 1 3a'#Z4Z-  
Format                                   : AVC =z4J[8bb  
Format/Info                              : Advanced Video Codec M6j~`KSE  
Format profile                           : High@L4.1 ?1**@E0  
Format settings, CABAC                   : Yes >IipWTVo<  
Format settings, ReFrames                : 4 frames y@<&A~Cl^  
Codec ID                                 : avc1 V ONC<wC  
Codec ID/Info                            : Advanced Video Coding -56gg^Pnr  
Duration                                 : 2h 2mn aoBiN_  
Bit rate                                 : 4 000 Kbps FQ0PXY h  
Width                                    : 1 920 pixels 2$'bOo  
Height                                   : 792 pixels R+El/ya:6  
Display aspect ratio                     : 2.40:1 dl(!{tZ#  
Frame rate mode                          : Constant RIDl4c [  
Frame rate                               : 23.976 fps e>P>DmlW  
Color space                              : YUV 8~F?%!X  
Chroma subsampling                       : 4:2:0 M^lP`=sSv  
Bit depth                                : 8 bits i v.G  
Scan type                                : Progressive i0Rj;E=:]  
Bits/(Pixel*Frame)                       : 0.110 y&V'GhW!dd  
Stream size                              : 3.41 GiB (95%) tO?-@Qf/9<  
Title                                    : Black.Mass.2015.1080p.HC.WEBRip.x264.AAC2.0-RARBG f`iDF+h<6  
Writing library                          : x264 core 146 r2555 0c21480 u'^kpr`y  
Encoding settings                        : cabac=1 / ref=4 / deblock=1:-2:-2 / analyse=0x3:0x113 / me=umh / subme=7 / psy=1 / psy_rd=1.00:0.15 / mixed_ref=1 / me_range=16 / chroma_me=1 / trellis=2 / 8x8dct=1 / cqm=0 / deadzone=21,11 / fast_pskip=1 / chroma_qp_offset=-3 / threads=8 / lookahead_threads=2 / sliced_threads=0 / nr=0 / decimate=1 / interlaced=0 / bluray_compat=0 / constrained_intra=0 / bframes=3 / b_pyramid=2 / b_adapt=2 / b_bias=0 / direct=3 / weightb=1 / open_gop=0 / weightp=2 / keyint=250 / keyint_min=25 / scenecut=40 / intra_refresh=0 / rc_lookahead=50 / rc=abr / mbtree=1 / bitrate=4000 / ratetol=1.0 / qcomp=0.60 / qpmin=0 / qpmax=69 / qpstep=4 / vbv_maxrate=31250 / vbv_bufsize=31250 / nal_hrd=none / filler=0 / ip_ratio=1.40 / aq=1:1.00 ay#f\P!1  
FV{XPr%   
Audio Ko)f:=Qo  
ID                                       : 2 '<>?gE0Cd  
Format                                   : AAC  >hzSd@J&  
Format/Info                              : Advanced Audio Codec 4_# (y^9  
Format profile                           : LC t*)!BZ  
Codec ID                                 : 40 IyM:9=}5  
Duration                                 : 2h 2mn )Cat$)I# ,  
Bit rate mode                            : Variable  TF80WMt  
Bit rate                                 : 224 Kbps xo2j fz  
Maximum bit rate                         : 31.3 Mbps ou{V/?rb  
Channel(s)                               : 2 channels Z:^ S -h  
Channel positions                        : Front: L R y0p\Gu;3j  
Sampling rate                            : 48.0 KHz ]re}E B\Rs  
Compression mode                         : Lossy #<s"?Y%-  
Stream size                              : 196 MiB (5%) 9m\Yi  
Title                                    : Black.Mass.2015.1080p.HC.WEBRip.x264.AAC2.0-RARBG 5" (FilM  
Language                                 : unk KUpj.[5 qo  
ddbQFAQQQ  
1f'msy/  
_xy[\X;9  
本部分内容设定了隐藏,需要回复后才能看到

只看该作者 1 发表于: 2015-11-14
本部分内容设定了隐藏,需要回复后才能看到