切换到宽版
  • 721阅读
  • 1回复

黑色弥撒/黑弥撒/黑势力(台)/极黑势力(港).Black.Mass.2015.1080p.HC.WEBRip.x264.AAC2.0-RARBG [复制链接]

上一主题 下一主题
 

只看楼主 倒序阅读 使用道具 0 发表于: 2015-10-26
Am=D kkP%  
◎译  名 黑色弥撒/黑弥撒/黑势力(台)/极黑势力(港) ZC+F* :$  
◎片  名 Black Mass F?=(4Pyvu  
◎年  代 2014 7e$\|~<  
◎国  家 美国 Zj;2>  
◎类  型 传记/犯罪/剧情 |0nbO2}  
◎语  言 英语 n]I_ LlbY  
◎字  幕 N简体中文(内嵌) p-n_ ">7  
◎IMDB评分  7.7/10 from 15,149 users D )z'FOaI  
◎IMDB链接 http://www.imdb.com/title/tt1355683/  R~u0!  
◎文件格式 x264 + AAC {?*3Ou  
◎视频尺寸 1920 x 792 jSbO1go#  
◎文件大小 1CD 3.61 GiB l/[0N@r~  
◎片  长 2h 2mn L12m ;  
◎导  演 斯考特·库伯 Scott Cooper   \zA$|) x  
◎主  演 约翰尼·德普 Johnny Depp ...James 'Whitey' Bulger zRtaO'G(  
      乔尔·埃哲顿 Joel Edgerton ...John Connolly "<b~pfCOQk  
      本尼迪克特·康伯巴奇 Benedict Cumberbatch ...Billy Bulger 6b+\2-eq  
      达科塔·约翰逊 Dakota Johnson ...Lindsey Cyr cQEK>aAd  
      Kevin Bacon ...Charles McGuire Ys,}L.  
      Peter Sarsgaard ...Brian Halloran ^yDCX  
      Jesse Plemons ...Kevin Weeks H?tonG.^(  
      Rory Cochrane ...Steve Flemmi S N_!o2F2  
      David Harbour ...John Morris VgG*y#Qf$  
      Adam Scott ...FBI Agent Robert Fitzpatrick ^6;n@  
      Corey Stoll ...Fred Wyshak w^N xR,  
      Julianne Nicholson ...Marianne Connolly p~1 ,[]k  
      W. Earl Brown ...John Martorano 5`,qKJ  
      Bill Camp ...John Callahan B:qH7`s  
      Juno Temple ...Deborah Hussey   *44^M{ti<  
Z#.J>_u )  
A2 r1%}{  
[O*5\&6  
K FV&Dt}<  
ZY-UQ4_|u  
◎简  介 w J FEua  
n[4F\I>  
  影片讲述了臭名昭著的波士顿黑帮头目詹姆斯·巴尔杰(James "Whitey" Bulger,为美版《无色间道》人物原型)的故事,根据名为《黑弥撒:FBI和爱尔兰黑帮不光彩合作的真实故事》(Black Mass: The True Story of an Unholy Alliance Between the FBI and the Irish Mob)的纪实小说改编,该书由普利策获奖得主、《波士顿环球报》记者Dick Lehr和Gerard O'Neill共同创作。 v>zeK  
9d{iq"*R  
  詹姆斯·巴尔杰是全球十大在逃通缉犯之一,他发迹于波士顿,获奥斯卡最佳影片的《无间道风云》中的黑帮大佬就有他的影子。巴尔杰建立的“冬日山岗”帮(Winter Hill Gang)是波士顿著名的黑帮组织,从贩卖毒品到倒卖军火无恶不作,另外他们和包括爱尔兰共和军(Irish Republican Army)在内的北美及欧洲许多主要的犯罪集团都有联系。姆斯·巴尔杰之所以能够逐渐壮大而不受法律制裁,和他在FBI任职的一位好友也有关系,这位探员名叫约翰·康纳利(John Connolly),是和巴尔杰从小玩到大的哥们,两人长大后选择了黑白不同的两条道路,但却拥有共同的利益点:巴尔杰为康纳利提供黑帮线报,康纳利则对巴尔杰的犯罪勾当睁一眼闭一眼。FBI一直想将巴尔杰捉拿归案,但得到了康纳利通风报信的巴尔杰14年前突然失踪,直到现在依然逍遥法外。而康纳利则在退休后才被发现是FBI的“内鬼”,此事成为美国法律体系的一大丑闻。 #W[/N|~wx  
j|3p.Cy  
花絮 oLVy?M%{P  
L?!*HS7 m  
.本片是约翰尼·德普第四次出演有着真实原型的黑帮大佬,前三次分别是《忠奸人》的Donnie Brasco、《美国毒枭》George Jung以及《人民公敌》的John Dillinger。 `` (D01<  
[)U|HnAJ  
.影片根据纪实文学《黑色弥撒:FBI和爱尔兰黑帮不光彩合作的真实故事》改编,原书发表于2001年。 1(0LX^%  
X%Jq9_  
.最初,《雨人》导演巴里·莱文森是导演人选;2014年1月斯考特·库伯在《逃出熔炉》获得好评之后被聘改写剧本并执导本片。 KP" lz  
{J3;4p- &  
.盖·皮尔斯原来是Bill Bulger的扮演人选,在他退出后由本尼迪克特·康伯巴奇出演。 V&82U w  
bL\ab  
.主角原型詹姆斯·巴尔杰2011年被捕,他当时是FBI十大在逃通缉犯之一,并且被列入这一名单长达12年。FBI开出200万美元奖金缉拿巴尔杰,这一奖金数目仅次于本拉登的悬赏数目。 zr%2oFeX,  
$/</J]2`;  
.詹姆斯·巴尔杰发迹于波士顿,获奥斯卡最佳影片的《无间道风云》就是以波士顿为背景,里面的黑帮大佬身上有他的影子。 ; V)pXLE  
c!l=09a~a+  
.影片制作期间,现实中的John Connolly(乔尔·埃哲顿饰演的FBI探员)作为“谋杀案从犯”的定罪被撤销。 .}gGtH,b3  
&r s+x<  
.影片中女演员达科塔·约翰是好莱坞老牌女星蒂比·海德莉的外孙女,而合作出演本片的西耶娜·米勒曾经在影片《那个女孩》中扮演蒂比·海德莉。 |fX @o0H  
^g/    
.影片原定的主演就是约翰尼·德普和乔尔·埃哲顿,两人中途一度退出,但还是先后回归出演。中间在埃哲顿退出后,汤姆·哈迪是出演约翰·康纳利的考虑人选。 7i?"akr4  
-Z )j"J  
Video 9xL8 ];-  
ID                                       : 1 =\ ]5C  
Format                                   : AVC Gkci_A*  
Format/Info                              : Advanced Video Codec k2 {*WF  
Format profile                           : High@L4.1 4DaLt&1  
Format settings, CABAC                   : Yes .B xv|dji  
Format settings, ReFrames                : 4 frames k?-GI[@X  
Codec ID                                 : avc1 =\mAvVe  
Codec ID/Info                            : Advanced Video Coding gZbC[L  
Duration                                 : 2h 2mn L{_Q%!h3]  
Bit rate                                 : 4 000 Kbps j} ^?3<  
Width                                    : 1 920 pixels i?" ~g!A  
Height                                   : 792 pixels  A.nU8   
Display aspect ratio                     : 2.40:1 Q;A1&UA2  
Frame rate mode                          : Constant :u$nH9kwv  
Frame rate                               : 23.976 fps "b)Y5[nW  
Color space                              : YUV =.19 7)e  
Chroma subsampling                       : 4:2:0 c^$_ epc*  
Bit depth                                : 8 bits t5 :4'%|  
Scan type                                : Progressive 8Mx+tA  
Bits/(Pixel*Frame)                       : 0.110 jI})\5<R  
Stream size                              : 3.41 GiB (95%) 5[<" _  
Title                                    : Black.Mass.2015.1080p.HC.WEBRip.x264.AAC2.0-RARBG -Zs.4@GH  
Writing library                          : x264 core 146 r2555 0c21480 pW{Q%"W  
Encoding settings                        : cabac=1 / ref=4 / deblock=1:-2:-2 / analyse=0x3:0x113 / me=umh / subme=7 / psy=1 / psy_rd=1.00:0.15 / mixed_ref=1 / me_range=16 / chroma_me=1 / trellis=2 / 8x8dct=1 / cqm=0 / deadzone=21,11 / fast_pskip=1 / chroma_qp_offset=-3 / threads=8 / lookahead_threads=2 / sliced_threads=0 / nr=0 / decimate=1 / interlaced=0 / bluray_compat=0 / constrained_intra=0 / bframes=3 / b_pyramid=2 / b_adapt=2 / b_bias=0 / direct=3 / weightb=1 / open_gop=0 / weightp=2 / keyint=250 / keyint_min=25 / scenecut=40 / intra_refresh=0 / rc_lookahead=50 / rc=abr / mbtree=1 / bitrate=4000 / ratetol=1.0 / qcomp=0.60 / qpmin=0 / qpmax=69 / qpstep=4 / vbv_maxrate=31250 / vbv_bufsize=31250 / nal_hrd=none / filler=0 / ip_ratio=1.40 / aq=1:1.00 @Z9X^Y+u^h  
)IN!CmpN  
Audio BPgY_f  
ID                                       : 2 i=Nq`BoQf  
Format                                   : AAC .!#0eAT  
Format/Info                              : Advanced Audio Codec S0-f_,(  
Format profile                           : LC Sg#$ B#g  
Codec ID                                 : 40 ]Rah,4?9f  
Duration                                 : 2h 2mn 5q<cZ)v#&  
Bit rate mode                            : Variable tOUpK20q.@  
Bit rate                                 : 224 Kbps 25e*W>SLw  
Maximum bit rate                         : 31.3 Mbps Vf28R,~m  
Channel(s)                               : 2 channels 0Pfj D  
Channel positions                        : Front: L R T'VZ=l[  
Sampling rate                            : 48.0 KHz 5UWj#|t  
Compression mode                         : Lossy \#)|6w-  
Stream size                              : 196 MiB (5%) + Cf"rN  
Title                                    : Black.Mass.2015.1080p.HC.WEBRip.x264.AAC2.0-RARBG 1Ce7\A  
Language                                 : unk hA'i|;|ZYc  
h J~Na\?w  
/x2-$a:<  
4gR;,%E\TO  
本部分内容设定了隐藏,需要回复后才能看到

只看该作者 1 发表于: 2015-11-14
本部分内容设定了隐藏,需要回复后才能看到