切换到宽版
  • 610阅读
  • 1回复

黑色弥撒/黑弥撒/黑势力(台)/极黑势力(港).Black.Mass.2015.1080p.HC.WEBRip.x264.AAC2.0-RARBG [复制链接]

上一主题 下一主题
 

只看楼主 倒序阅读 使用道具 0 发表于: 2015-10-26
zRau/1Y0  
◎译  名 黑色弥撒/黑弥撒/黑势力(台)/极黑势力(港) zFwO(  
◎片  名 Black Mass T Q {8 ee{  
◎年  代 2014 d;r,?/C  
◎国  家 美国 hH?ke(&=f  
◎类  型 传记/犯罪/剧情 ~~ty9;KYL  
◎语  言 英语 Mw;^`ZxT  
◎字  幕 N简体中文(内嵌) )B5U0iIi  
◎IMDB评分  7.7/10 from 15,149 users R*vfp?x  
◎IMDB链接 http://www.imdb.com/title/tt1355683/ K~8!Gh{h]  
◎文件格式 x264 + AAC MY&?*pV)  
◎视频尺寸 1920 x 792 !6s]p%{V  
◎文件大小 1CD 3.61 GiB _p+q)#.W  
◎片  长 2h 2mn DEzL]1;P  
◎导  演 斯考特·库伯 Scott Cooper   F2=#\ U$  
◎主  演 约翰尼·德普 Johnny Depp ...James 'Whitey' Bulger &G+ :t)|S  
      乔尔·埃哲顿 Joel Edgerton ...John Connolly 7^h*rL9  
      本尼迪克特·康伯巴奇 Benedict Cumberbatch ...Billy Bulger IS!]!s'EI  
      达科塔·约翰逊 Dakota Johnson ...Lindsey Cyr C2J@]&  
      Kevin Bacon ...Charles McGuire 6rAenK-%  
      Peter Sarsgaard ...Brian Halloran As#/ln$nE  
      Jesse Plemons ...Kevin Weeks jATN):8W  
      Rory Cochrane ...Steve Flemmi tpKQ$) ed  
      David Harbour ...John Morris 'p'nAB''!  
      Adam Scott ...FBI Agent Robert Fitzpatrick ?)+I'lW!  
      Corey Stoll ...Fred Wyshak \,b_8^  
      Julianne Nicholson ...Marianne Connolly oVnHbvP1X  
      W. Earl Brown ...John Martorano `ve5>aw0_Y  
      Bill Camp ...John Callahan X]%n#\t,]  
      Juno Temple ...Deborah Hussey   e&="5.ik  
]P(_ d'}  
Y3f2RdGl  
 Hh<}~s  
N6S}u@{J~N  
 ~FZ=  
◎简  介 R&s\h"=*  
I78huYAYA  
  影片讲述了臭名昭著的波士顿黑帮头目詹姆斯·巴尔杰(James "Whitey" Bulger,为美版《无色间道》人物原型)的故事,根据名为《黑弥撒:FBI和爱尔兰黑帮不光彩合作的真实故事》(Black Mass: The True Story of an Unholy Alliance Between the FBI and the Irish Mob)的纪实小说改编,该书由普利策获奖得主、《波士顿环球报》记者Dick Lehr和Gerard O'Neill共同创作。 W6uz G  
{= l 9{K`~  
  詹姆斯·巴尔杰是全球十大在逃通缉犯之一,他发迹于波士顿,获奥斯卡最佳影片的《无间道风云》中的黑帮大佬就有他的影子。巴尔杰建立的“冬日山岗”帮(Winter Hill Gang)是波士顿著名的黑帮组织,从贩卖毒品到倒卖军火无恶不作,另外他们和包括爱尔兰共和军(Irish Republican Army)在内的北美及欧洲许多主要的犯罪集团都有联系。姆斯·巴尔杰之所以能够逐渐壮大而不受法律制裁,和他在FBI任职的一位好友也有关系,这位探员名叫约翰·康纳利(John Connolly),是和巴尔杰从小玩到大的哥们,两人长大后选择了黑白不同的两条道路,但却拥有共同的利益点:巴尔杰为康纳利提供黑帮线报,康纳利则对巴尔杰的犯罪勾当睁一眼闭一眼。FBI一直想将巴尔杰捉拿归案,但得到了康纳利通风报信的巴尔杰14年前突然失踪,直到现在依然逍遥法外。而康纳利则在退休后才被发现是FBI的“内鬼”,此事成为美国法律体系的一大丑闻。 t{ScK%S6  
O LxiY r  
花絮 Yf,U2A\  
5i1Xumh 4  
.本片是约翰尼·德普第四次出演有着真实原型的黑帮大佬,前三次分别是《忠奸人》的Donnie Brasco、《美国毒枭》George Jung以及《人民公敌》的John Dillinger。 H!dg(d^  
L(eLxw e%  
.影片根据纪实文学《黑色弥撒:FBI和爱尔兰黑帮不光彩合作的真实故事》改编,原书发表于2001年。 *b]$lj  
SdBo sB3v>  
.最初,《雨人》导演巴里·莱文森是导演人选;2014年1月斯考特·库伯在《逃出熔炉》获得好评之后被聘改写剧本并执导本片。 VE5M}kDCZ  
|\/Y<_)JD  
.盖·皮尔斯原来是Bill Bulger的扮演人选,在他退出后由本尼迪克特·康伯巴奇出演。 ue{0X\[P<  
} ^67HtNQ  
.主角原型詹姆斯·巴尔杰2011年被捕,他当时是FBI十大在逃通缉犯之一,并且被列入这一名单长达12年。FBI开出200万美元奖金缉拿巴尔杰,这一奖金数目仅次于本拉登的悬赏数目。 t#6@~49  
%B'*eBj~fw  
.詹姆斯·巴尔杰发迹于波士顿,获奥斯卡最佳影片的《无间道风云》就是以波士顿为背景,里面的黑帮大佬身上有他的影子。 ril4*$e7^\  
@'{ m-?*  
.影片制作期间,现实中的John Connolly(乔尔·埃哲顿饰演的FBI探员)作为“谋杀案从犯”的定罪被撤销。 E)w^odwMU  
8n^v,s>  
.影片中女演员达科塔·约翰是好莱坞老牌女星蒂比·海德莉的外孙女,而合作出演本片的西耶娜·米勒曾经在影片《那个女孩》中扮演蒂比·海德莉。 `-L{J0xq  
*^q%b /f  
.影片原定的主演就是约翰尼·德普和乔尔·埃哲顿,两人中途一度退出,但还是先后回归出演。中间在埃哲顿退出后,汤姆·哈迪是出演约翰·康纳利的考虑人选。 R3SAt-IE  
w8df-]r  
Video h}o7/p  
ID                                       : 1 ?tLBEoUmKT  
Format                                   : AVC ,KHebv!  
Format/Info                              : Advanced Video Codec i?&g;_n^  
Format profile                           : High@L4.1 ({}JvSn1  
Format settings, CABAC                   : Yes  s*k[Fbi  
Format settings, ReFrames                : 4 frames !Z*2X ^  
Codec ID                                 : avc1 q;p:)Q"  
Codec ID/Info                            : Advanced Video Coding M/X&zr  
Duration                                 : 2h 2mn t_PAXj  
Bit rate                                 : 4 000 Kbps pPNU0]/  
Width                                    : 1 920 pixels YVMwb@|  
Height                                   : 792 pixels G /:;Qig  
Display aspect ratio                     : 2.40:1 "r Bb2.  
Frame rate mode                          : Constant b3z {FP  
Frame rate                               : 23.976 fps   SW ^F  
Color space                              : YUV  *TEgV  
Chroma subsampling                       : 4:2:0 Bg?f}nu7  
Bit depth                                : 8 bits jU~ ! *]  
Scan type                                : Progressive t<Iy `r7 1  
Bits/(Pixel*Frame)                       : 0.110 ~9N n8g6  
Stream size                              : 3.41 GiB (95%) fZQC'Z>EX  
Title                                    : Black.Mass.2015.1080p.HC.WEBRip.x264.AAC2.0-RARBG ,,hW|CmN30  
Writing library                          : x264 core 146 r2555 0c21480 tCFXb6Cz  
Encoding settings                        : cabac=1 / ref=4 / deblock=1:-2:-2 / analyse=0x3:0x113 / me=umh / subme=7 / psy=1 / psy_rd=1.00:0.15 / mixed_ref=1 / me_range=16 / chroma_me=1 / trellis=2 / 8x8dct=1 / cqm=0 / deadzone=21,11 / fast_pskip=1 / chroma_qp_offset=-3 / threads=8 / lookahead_threads=2 / sliced_threads=0 / nr=0 / decimate=1 / interlaced=0 / bluray_compat=0 / constrained_intra=0 / bframes=3 / b_pyramid=2 / b_adapt=2 / b_bias=0 / direct=3 / weightb=1 / open_gop=0 / weightp=2 / keyint=250 / keyint_min=25 / scenecut=40 / intra_refresh=0 / rc_lookahead=50 / rc=abr / mbtree=1 / bitrate=4000 / ratetol=1.0 / qcomp=0.60 / qpmin=0 / qpmax=69 / qpstep=4 / vbv_maxrate=31250 / vbv_bufsize=31250 / nal_hrd=none / filler=0 / ip_ratio=1.40 / aq=1:1.00 M PhG:^g  
\zA G#{  
Audio Sl,\  <a  
ID                                       : 2 dX4"o?KD>  
Format                                   : AAC bG`aF*10)!  
Format/Info                              : Advanced Audio Codec \G+ hi9T(  
Format profile                           : LC KiXRBFo  
Codec ID                                 : 40 _sEkKh8x  
Duration                                 : 2h 2mn vhA 4ol  
Bit rate mode                            : Variable Vz(O=w=  
Bit rate                                 : 224 Kbps B:-qUuS?R  
Maximum bit rate                         : 31.3 Mbps 9~ [Sio~  
Channel(s)                               : 2 channels Z2HH&3HA  
Channel positions                        : Front: L R I\%a<  
Sampling rate                            : 48.0 KHz 8|5ttdZ  
Compression mode                         : Lossy '<}N`PS#N  
Stream size                              : 196 MiB (5%) c7~+ 5  
Title                                    : Black.Mass.2015.1080p.HC.WEBRip.x264.AAC2.0-RARBG ;L <D-=  
Language                                 : unk ,4O|{Iu#n  
p$mx  
v}vwk8  
= ;hz,+  
本部分内容设定了隐藏,需要回复后才能看到

只看该作者 1 发表于: 2015-11-14
本部分内容设定了隐藏,需要回复后才能看到