切换到宽版
  • 546阅读
  • 0回复

鬼债/付给灵魂.Pay.The.Ghost.2015.1080p.WEB-DL.DD5.1.H264-RARBG [复制链接]

上一主题 下一主题
 

只看楼主 倒序阅读 使用道具 0 发表于: 2015-10-21
gVuFHHeUz  
◎译  名 鬼债/付给灵魂 ue"~9JK.  
◎片  名 Pay the Ghost G*MUO#_iuh  
◎年  代 2015 J)> c9w  
◎国  家 美国 N~gzDQ3  
◎类  别 惊悚 ~ Iuf}D;  
◎语  言 英语 .{^5X)  
◎字  幕 英文 qR{ =pR  
◎IMDB评分 8.8/10 from 26 users   Z{d^-  
◎IMDB链接 http://www.imdb.com/title/tt3733778/ [|L<_.8  
◎文件格式 H264 + DD5.1 UkC!1Jy  
◎视频尺寸 1912 x 792 B$K=\6o  
◎文件大小 3.11 GiB  _[3D  
◎片  长 1h 34mn +\A,&;!SR  
◎导  演 乌利·艾德 Uli Edel b%`1cV  
◎主  演 尼古拉斯·凯奇 Nicolas Cage ...Mike Lawford A)!*]o>U  
      莎拉·韦恩·卡丽丝 Sarah Wayne Callies ...Kristen !.gIHY  
      Alex Mallari Jr.  ...Actor e T{ 4{  
      Veronica Ferres ...Hannah BU_nh+dF  
      莱瑞克·本特 Lyriq Bent ...Detective Reynolds /~?*=}c^m  
      Jack Fulton ...Charlie LL! Dx%JZ  
      Sofia Wells ...Middle Child {\5  
      Elizabeth Jeanne le Roux ...Mom kevrsV]/$  
      Erin Boyes ...Emily Sm|6 %3  
      Ho Chow ...Dai Wok Cook f6Ah6tb  
      Mark Irvingsen ...Angry Villager r19 pZAc  
      Maxwell McCabe-Lokos ..Mr. Moldanado >bW #Zs,6  
      Lauren Beatty ...Annie Sawquin o* H<K aX  
      Juan Carlos Velis ...Morales cwg"c4V  
      Omar Alex Khan ...Medical Examiner ~?BXti<!  
QWYJ *  
5]0 <9a  
e"<OELA  
◎简  介  0l6.<-f{  
S9.o/mr  
qE"OB  
  大约一年前儿子在纽约的万圣节游行上从他身边突然消失后,麦克·科尔(尼古拉斯·凯奇 Nicolas Cage 饰)被一些关于儿子的可怕的景象弄得忧心忡忡的,并且开始以各种恐怖的方式感受到他的存在。 <P_-s*b  
upmx $H>  
guR/\z$D@C  
  为了展开行动,麦克联合他已经分居的妻子克里斯汀(莎拉·韦恩·卡丽丝 Sarah Wayne Callies 饰),在不顾一切寻找儿子的过程中他们揭开了一连串可怕的线索,不久他们就发现在每个万圣节都有一个邪恶的复仇之灵浮现出来绑架儿童,如果不能在一个短暂的时间之窗里救出儿子,他将会永远的迷失在幽灵世界中..... !nnC3y{G  
'w aaw_>b  
Video Di{de`  
ID                                       : 1 jH:[2N?  
Format                                   : AVC ~} ~4  
Format/Info                              : Advanced Video Codec SpBy3wd  
Format profile                           : High@L4 n$R)>n Y  
Format settings, CABAC                   : Yes %]i15;{X  
Format settings, ReFrames                : 5 frames pxi3PY?  
Codec ID                                 : V_MPEG4/ISO/AVC  bN.Pex  
Duration                                 : 1h 34mn !G|@6W`  
Bit rate                                 : 4 253 Kbps l]SX@zTb  
Width                                    : 1 912 pixels 7_t'( /yu  
Height                                   : 792 pixels #dHa ,HUk  
Display aspect ratio                     : 2.40:1 5)40/cBe  
Frame rate mode                          : Constant eO1lnO|  
Frame rate                               : 23.976 fps W,u:gzmhw  
Color space                              : YUV &^nGtW%a 9  
Chroma subsampling                       : 4:2:0 %iB,IEw  
Bit depth                                : 8 bits j<$2hiI/?&  
Scan type                                : Progressive An@t?#4gxi  
Bits/(Pixel*Frame)                       : 0.117 7HWmCaa[  
Stream size                              : 2.79 GiB (90%) w-jVC^C]  
Title                                    : Pay.The.Ghost.2015.1080p.WEB-DL.DD5.1.H264-RARBG KPki}'GO  
Language                                 : English FI.\%x  
Default                                  : Yes ,x$,l  
Forced                                   : No Y/oHu@ _  
Color range                              : Limited f QFk+C  
Color primaries                          : BT.709 X3& Jb2c2  
Transfer characteristics                 : BT.709 &,/ S`ke=  
Matrix coefficients                      : BT.709 TA\vZGJ('  
.)3<Q}>  
Audio Ort(AfW  
ID                                       : 2 4ppz,L,4  
Format                                   : AC-3 n"8Yv~v*2j  
Format/Info                              : Audio Coding 3 ^rz_f{c]-  
Mode extension                           : CM (complete main) 3' 'me  
Format settings, Endianness              : Big 9M ]_nPY  
Codec ID                                 : A_AC3 G /W>S,(  
Duration                                 : 1h 34mn |BYRe1l6l  
Bit rate mode                            : Constant GX%g9f!O  
Bit rate                                 : 384 Kbps 4e  
Channel(s)                               : 6 channels @+DX.9  
Channel positions                        : Front: L C R, Side: L R, LFE d_ CT $  
Sampling rate                            : 48.0 KHz d=^z`nt !R  
Compression mode                         : Lossy "jCu6Rjd  
Stream size                              : 258 MiB (8%) 0 "#HJ A44  
Title                                    : Pay.The.Ghost.2015.1080p.WEB-DL.DD5.1.H264-RARBG DNi+"[~&P  
Language                                 : English 2zpr~cB=  
Default                                  : Yes #E]59_  
Forced                                   : No JS77M-Ac  
?ubro0F:  
Text (sj,[  
ID                                       : 3 pot~<d`:K"  
Format                                   : UTF-8 P;*(hY5&  
Codec ID                                 : S_TEXT/UTF8 )e{}V\;q  
Codec ID/Info                            : UTF-8 Plain Text +[P{&\d4}  
Language                                 : English M3AXe]<eC1  
Default                                  : Yes ^}r1;W?n  
Forced                                   : No n`KY9[0 U=  
gZ5 |UR<  
Menu ~s{$WL&  
00:00:00.000                             : en:Old New York gFh*eCo   
00:07:43.000                             : en:Spare A Thought For Lovecraft uq{ beC  
00:15:04.000                             : en:Halloween Carnival nP$9CA  
00:25:58.000                             : en:One Year Later liSmjsk  
00:31:41.000                             : en:Visions Of Charlie [ 3HfQ  
00:38:21.000                             : en:Kristen And Mike Y$zSQ_k;U  
00:48:41.000                             : en:Something Mysterious Out There (#'>(t(4  
00:58:51.000                             : en:The Celtic Goddess $J2Gf(RU  
01:06:42.000                             : en:Final Day Of Sowin 2?x4vI np;  
01:12:40.000                             : en:Hannah Xeaj xcop#  
01:16:42.000                             : en:Crossing To The Other Side =#\:}@J5I  
01:28:34.000                             : en:Credits n|;Im&,  
nrb Ok4Dz  
[attachment=undefined] xfQ1T)F3g  
kP"9&R`E  
本部分内容设定了隐藏,需要回复后才能看到