切换到宽版
  • 782阅读
  • 0回复

鬼债/付给灵魂.Pay.The.Ghost.2015.1080p.WEB-DL.DD5.1.H264-RARBG [复制链接]

上一主题 下一主题
 

只看楼主 倒序阅读 使用道具 0 发表于: 2015-10-21
4K,&Q/Vdd7  
◎译  名 鬼债/付给灵魂 V6o,}o&-  
◎片  名 Pay the Ghost \8H"lcj:  
◎年  代 2015 -#hl& ^u$  
◎国  家 美国 #7)6X:/O  
◎类  别 惊悚 Cr"hu;  
◎语  言 英语 ? -tw*2+  
◎字  幕 英文 #6nA^K}  
◎IMDB评分 8.8/10 from 26 users   }\*|b@)]  
◎IMDB链接 http://www.imdb.com/title/tt3733778/ >m46tfoM  
◎文件格式 H264 + DD5.1 D=+s D"<|  
◎视频尺寸 1912 x 792 GR9F^Y)K{  
◎文件大小 3.11 GiB !o7. L%S  
◎片  长 1h 34mn Il[WXt<S  
◎导  演 乌利·艾德 Uli Edel Y"U&3e,  
◎主  演 尼古拉斯·凯奇 Nicolas Cage ...Mike Lawford &'j77tqOk  
      莎拉·韦恩·卡丽丝 Sarah Wayne Callies ...Kristen n$K_KU v  
      Alex Mallari Jr.  ...Actor Ro69woU  
      Veronica Ferres ...Hannah /_HL&|N_5  
      莱瑞克·本特 Lyriq Bent ...Detective Reynolds _=p|"~rN$  
      Jack Fulton ...Charlie vOU -bF%u  
      Sofia Wells ...Middle Child g [K8G  
      Elizabeth Jeanne le Roux ...Mom 1,,:4 *)  
      Erin Boyes ...Emily NH!! .Z"  
      Ho Chow ...Dai Wok Cook 2I5@zm ea  
      Mark Irvingsen ...Angry Villager }r[BME  
      Maxwell McCabe-Lokos ..Mr. Moldanado `W=JX2I  
      Lauren Beatty ...Annie Sawquin 1F-L( \oKm  
      Juan Carlos Velis ...Morales mNzZ/*n:  
      Omar Alex Khan ...Medical Examiner ]y/:#^M+  
bzTM{<]sv  
[o "@*kf  
6{ Eh={:b  
◎简  介  bT |FJ\aC  
j@f(cRAf#  
N~_gT Jr~P  
  大约一年前儿子在纽约的万圣节游行上从他身边突然消失后,麦克·科尔(尼古拉斯·凯奇 Nicolas Cage 饰)被一些关于儿子的可怕的景象弄得忧心忡忡的,并且开始以各种恐怖的方式感受到他的存在。 q^)(p' X  
-rBj-4|"  
o>h >#!e  
  为了展开行动,麦克联合他已经分居的妻子克里斯汀(莎拉·韦恩·卡丽丝 Sarah Wayne Callies 饰),在不顾一切寻找儿子的过程中他们揭开了一连串可怕的线索,不久他们就发现在每个万圣节都有一个邪恶的复仇之灵浮现出来绑架儿童,如果不能在一个短暂的时间之窗里救出儿子,他将会永远的迷失在幽灵世界中..... 0&|-wduR=  
)ALcmC?!#  
Video H3b`)k sFr  
ID                                       : 1 9hQ{r 2  
Format                                   : AVC G}x^PJJt  
Format/Info                              : Advanced Video Codec ] N8V?.|:  
Format profile                           : High@L4 H}/1/5 L  
Format settings, CABAC                   : Yes A.Njn(z?Lz  
Format settings, ReFrames                : 5 frames CS  
Codec ID                                 : V_MPEG4/ISO/AVC +a{>jzR  
Duration                                 : 1h 34mn kBkhuKd)V  
Bit rate                                 : 4 253 Kbps n/-I7Q!;u  
Width                                    : 1 912 pixels i@6 kI C  
Height                                   : 792 pixels `O F\f   
Display aspect ratio                     : 2.40:1 uu:BN0  
Frame rate mode                          : Constant 5 X rn]  
Frame rate                               : 23.976 fps G!uxpZ   
Color space                              : YUV lnhZ!_  
Chroma subsampling                       : 4:2:0 !nVuvsbv  
Bit depth                                : 8 bits -Cl0!}P4I  
Scan type                                : Progressive 3UEh%Ho  
Bits/(Pixel*Frame)                       : 0.117 "Y6 f.rB  
Stream size                              : 2.79 GiB (90%) sSxra!tv4  
Title                                    : Pay.The.Ghost.2015.1080p.WEB-DL.DD5.1.H264-RARBG 6 [IiJhVL  
Language                                 : English {chl+au*l  
Default                                  : Yes H"sey +-  
Forced                                   : No _?8T'?-1  
Color range                              : Limited y}8j_r  
Color primaries                          : BT.709 mOBS[M5*  
Transfer characteristics                 : BT.709 M~v{\!S  
Matrix coefficients                      : BT.709 fa )G$Q  
fu/v1~X  
Audio .Q7z<Q  
ID                                       : 2 YRl2e`&jt  
Format                                   : AC-3 "{}5uth  
Format/Info                              : Audio Coding 3 d]<tFx>CQW  
Mode extension                           : CM (complete main) Y,{Xv  
Format settings, Endianness              : Big 4 IVCTz[  
Codec ID                                 : A_AC3 :%{8lanO  
Duration                                 : 1h 34mn ]Kd:ZmJ  
Bit rate mode                            : Constant K.k=\N  
Bit rate                                 : 384 Kbps )7f:hg  
Channel(s)                               : 6 channels k&^fIz  
Channel positions                        : Front: L C R, Side: L R, LFE %*,'&S  
Sampling rate                            : 48.0 KHz 2Tp.S3  
Compression mode                         : Lossy 0 @>3fR  
Stream size                              : 258 MiB (8%) IP-mo!Y.  
Title                                    : Pay.The.Ghost.2015.1080p.WEB-DL.DD5.1.H264-RARBG aX~7NslR  
Language                                 : English B<W{kEY  
Default                                  : Yes |zSkQ_?54  
Forced                                   : No ie5"  
>zhbOkR9c  
Text nlKWZYv  
ID                                       : 3 h_J 'dJS  
Format                                   : UTF-8 0@z78h=h  
Codec ID                                 : S_TEXT/UTF8 E[ ,Ur`>:  
Codec ID/Info                            : UTF-8 Plain Text ZJS7#<-7o  
Language                                 : English C{4[7  
Default                                  : Yes mZmwCS8  
Forced                                   : No kZeb^Q+,  
|]V0sgpoZ  
Menu b}Jcj  
00:00:00.000                             : en:Old New York M Su_*&j9T  
00:07:43.000                             : en:Spare A Thought For Lovecraft !pgkUzMW  
00:15:04.000                             : en:Halloween Carnival %1S;y  
00:25:58.000                             : en:One Year Later ~ujY+ {  
00:31:41.000                             : en:Visions Of Charlie hl8[A-d(R  
00:38:21.000                             : en:Kristen And Mike +Bgy@.a?  
00:48:41.000                             : en:Something Mysterious Out There -(P"+g3T  
00:58:51.000                             : en:The Celtic Goddess Y2}\~I0  
01:06:42.000                             : en:Final Day Of Sowin Y*0mC"n}  
01:12:40.000                             : en:Hannah JpN+'/  
01:16:42.000                             : en:Crossing To The Other Side 0P z"[  
01:28:34.000                             : en:Credits y<MXd,eE  
074)(X&:x  
[attachment=undefined] b8(94t|;U  
W2s6!_AN  
本部分内容设定了隐藏,需要回复后才能看到