切换到宽版
  • 851阅读
  • 0回复

鬼债/付给灵魂.Pay.The.Ghost.2015.1080p.WEB-DL.DD5.1.H264-RARBG [复制链接]

上一主题 下一主题
 

只看楼主 倒序阅读 使用道具 0 发表于: 2015-10-21
]Jj\ **  
◎译  名 鬼债/付给灵魂 HtOo*\Ne  
◎片  名 Pay the Ghost k4_Fn61J/  
◎年  代 2015 qF6YH  
◎国  家 美国 u(JC 4w'  
◎类  别 惊悚 qs6yEuh#  
◎语  言 英语 5YIi O7@4  
◎字  幕 英文 Egt;Bj#%  
◎IMDB评分 8.8/10 from 26 users   Ah)OyO6  
◎IMDB链接 http://www.imdb.com/title/tt3733778/ ^SCZ  
◎文件格式 H264 + DD5.1 =Mq=\T  
◎视频尺寸 1912 x 792 /LhAQpUQT5  
◎文件大小 3.11 GiB Ygn"7  
◎片  长 1h 34mn x]%e_  
◎导  演 乌利·艾德 Uli Edel M;W{A)0i1  
◎主  演 尼古拉斯·凯奇 Nicolas Cage ...Mike Lawford rWbu oG+8  
      莎拉·韦恩·卡丽丝 Sarah Wayne Callies ...Kristen !B?/6XRUx  
      Alex Mallari Jr.  ...Actor _1*EMq6  
      Veronica Ferres ...Hannah %" $.2O@  
      莱瑞克·本特 Lyriq Bent ...Detective Reynolds u;DF$   
      Jack Fulton ...Charlie ZZTPAmIr  
      Sofia Wells ...Middle Child zdn e2  
      Elizabeth Jeanne le Roux ...Mom >q <,FY!A  
      Erin Boyes ...Emily xkl'Y*  
      Ho Chow ...Dai Wok Cook zsI0Q47\  
      Mark Irvingsen ...Angry Villager D0PP   
      Maxwell McCabe-Lokos ..Mr. Moldanado n6WSTh  
      Lauren Beatty ...Annie Sawquin ,*0>CBJvv  
      Juan Carlos Velis ...Morales }Evyfc#D  
      Omar Alex Khan ...Medical Examiner ~!]FF}6  
yuswWc '  
5L|yF"TI#  
Kv+E"2d  
◎简  介  [w~teX0!  
8x'rNb  
-w 2!k  
  大约一年前儿子在纽约的万圣节游行上从他身边突然消失后,麦克·科尔(尼古拉斯·凯奇 Nicolas Cage 饰)被一些关于儿子的可怕的景象弄得忧心忡忡的,并且开始以各种恐怖的方式感受到他的存在。 -!" >SY\  
=b,$jCv<,5  
e`R*6^e  
  为了展开行动,麦克联合他已经分居的妻子克里斯汀(莎拉·韦恩·卡丽丝 Sarah Wayne Callies 饰),在不顾一切寻找儿子的过程中他们揭开了一连串可怕的线索,不久他们就发现在每个万圣节都有一个邪恶的复仇之灵浮现出来绑架儿童,如果不能在一个短暂的时间之窗里救出儿子,他将会永远的迷失在幽灵世界中..... I Jq$GR  
e}/c`7M  
Video jD_(im5  
ID                                       : 1 j]J2,J  
Format                                   : AVC *we3i  
Format/Info                              : Advanced Video Codec yqlkf$?  
Format profile                           : High@L4 yt  C{,g>  
Format settings, CABAC                   : Yes gU>Y  
Format settings, ReFrames                : 5 frames -+|0LXo  
Codec ID                                 : V_MPEG4/ISO/AVC o&*1Mx<+  
Duration                                 : 1h 34mn 7r"!&P* ,  
Bit rate                                 : 4 253 Kbps x:;8U i"&B  
Width                                    : 1 912 pixels r f;R"Uc  
Height                                   : 792 pixels (h/v"dV;  
Display aspect ratio                     : 2.40:1 O:r<es1  
Frame rate mode                          : Constant %Iv+Y$'3B  
Frame rate                               : 23.976 fps n5S$Dl  
Color space                              : YUV !i_5Xc H  
Chroma subsampling                       : 4:2:0 k4pvp5}%  
Bit depth                                : 8 bits RZ|s[b U  
Scan type                                : Progressive bLu6 |YB  
Bits/(Pixel*Frame)                       : 0.117 K"Nq_Ddwd  
Stream size                              : 2.79 GiB (90%) L)Un9&4L  
Title                                    : Pay.The.Ghost.2015.1080p.WEB-DL.DD5.1.H264-RARBG 9]|[z{v'>l  
Language                                 : English d7Q. 'cyQ  
Default                                  : Yes Yl8tj q}iC  
Forced                                   : No :+]6SC0ql  
Color range                              : Limited QwOQS %  
Color primaries                          : BT.709 bL *;N3#E  
Transfer characteristics                 : BT.709 "TtK!>!.  
Matrix coefficients                      : BT.709 28X)s!W'  
?ZlwRjB\  
Audio K* [cJ cY+  
ID                                       : 2 X,O&X  
Format                                   : AC-3 H W.S~eLw*  
Format/Info                              : Audio Coding 3 5?9}^s4  
Mode extension                           : CM (complete main) jE 2ziK  
Format settings, Endianness              : Big s.zH.q,  
Codec ID                                 : A_AC3 * I'O_D  
Duration                                 : 1h 34mn %<1fj#X8  
Bit rate mode                            : Constant h]@Xucc  
Bit rate                                 : 384 Kbps nkN]z ^j  
Channel(s)                               : 6 channels UfcM2OmbK  
Channel positions                        : Front: L C R, Side: L R, LFE tm+}@CM^.  
Sampling rate                            : 48.0 KHz =\X<UA}  
Compression mode                         : Lossy ^Po\:x%o  
Stream size                              : 258 MiB (8%) Ku,Efr  
Title                                    : Pay.The.Ghost.2015.1080p.WEB-DL.DD5.1.H264-RARBG ?_<ZCH   
Language                                 : English /8W}o/,s5  
Default                                  : Yes _?q\tyf3  
Forced                                   : No u#J5M&#  
*#UDMoz<  
Text |C>Yd*E,C  
ID                                       : 3 'ARQ7 Q[`  
Format                                   : UTF-8 3 : mF!  
Codec ID                                 : S_TEXT/UTF8 f_raICO{R  
Codec ID/Info                            : UTF-8 Plain Text y"@~5e477$  
Language                                 : English A FfgGO  
Default                                  : Yes ,8$;|#d  
Forced                                   : No 8(Z*Vz uu  
Zls4@/\Q  
Menu X*S|aNaLWW  
00:00:00.000                             : en:Old New York mhlJzGr*q  
00:07:43.000                             : en:Spare A Thought For Lovecraft krz@1[w-j  
00:15:04.000                             : en:Halloween Carnival b.Y[:R_9&  
00:25:58.000                             : en:One Year Later m"U\;Mw?  
00:31:41.000                             : en:Visions Of Charlie >b{%j8u M  
00:38:21.000                             : en:Kristen And Mike #exE ~@fy-  
00:48:41.000                             : en:Something Mysterious Out There 1q\U (^  
00:58:51.000                             : en:The Celtic Goddess IUu[`\b=  
01:06:42.000                             : en:Final Day Of Sowin d54>nycU~N  
01:12:40.000                             : en:Hannah P\N`E?lJL  
01:16:42.000                             : en:Crossing To The Other Side `]tXQqD  
01:28:34.000                             : en:Credits lfj>]om$  
EWqKd/    
[attachment=undefined] [eWB vAiW  
Q`19YX  
本部分内容设定了隐藏,需要回复后才能看到