切换到宽版
  • 684阅读
  • 0回复

鬼债/付给灵魂.Pay.The.Ghost.2015.1080p.WEB-DL.DD5.1.H264-RARBG [复制链接]

上一主题 下一主题
 

只看楼主 倒序阅读 使用道具 0 发表于: 2015-10-21
=?hGa;/rb  
◎译  名 鬼债/付给灵魂 P]w5`aBM  
◎片  名 Pay the Ghost 6z (7l  
◎年  代 2015 %<c2jvn+k  
◎国  家 美国 &[Qv Mh  
◎类  别 惊悚 2loy4f  
◎语  言 英语 fg"]4&`j-  
◎字  幕 英文 jNRR=0  
◎IMDB评分 8.8/10 from 26 users   +ZOjbI)  
◎IMDB链接 http://www.imdb.com/title/tt3733778/ 5qZebD2a  
◎文件格式 H264 + DD5.1 x -CTMKX  
◎视频尺寸 1912 x 792 pK/r{/>r  
◎文件大小 3.11 GiB 5,Rxc=  
◎片  长 1h 34mn "QCtF55X&  
◎导  演 乌利·艾德 Uli Edel {"f4oK{ w  
◎主  演 尼古拉斯·凯奇 Nicolas Cage ...Mike Lawford ktE~)G  
      莎拉·韦恩·卡丽丝 Sarah Wayne Callies ...Kristen j~DTvWg<Jl  
      Alex Mallari Jr.  ...Actor  rvP Y  
      Veronica Ferres ...Hannah _"nzo4e0  
      莱瑞克·本特 Lyriq Bent ...Detective Reynolds )T2 V< 3l  
      Jack Fulton ...Charlie bxU2.YC  
      Sofia Wells ...Middle Child 5D9n>K4|  
      Elizabeth Jeanne le Roux ...Mom ::goqajV  
      Erin Boyes ...Emily b3j?@31AD  
      Ho Chow ...Dai Wok Cook Vc2 (R^  
      Mark Irvingsen ...Angry Villager (*6kYkUK  
      Maxwell McCabe-Lokos ..Mr. Moldanado VPC7Dh%.  
      Lauren Beatty ...Annie Sawquin ?LxBH -o(  
      Juan Carlos Velis ...Morales R%%Uw %`  
      Omar Alex Khan ...Medical Examiner  Vv|%;5(  
r^g"%nq9/  
As}3VBd  
[ :Upn)9  
◎简  介  Ka4KsJN  
?b,4mDptE  
-!bfxbP  
  大约一年前儿子在纽约的万圣节游行上从他身边突然消失后,麦克·科尔(尼古拉斯·凯奇 Nicolas Cage 饰)被一些关于儿子的可怕的景象弄得忧心忡忡的,并且开始以各种恐怖的方式感受到他的存在。 6y0CEly>3#  
v~B "Il  
dQ.:xu}~  
  为了展开行动,麦克联合他已经分居的妻子克里斯汀(莎拉·韦恩·卡丽丝 Sarah Wayne Callies 饰),在不顾一切寻找儿子的过程中他们揭开了一连串可怕的线索,不久他们就发现在每个万圣节都有一个邪恶的复仇之灵浮现出来绑架儿童,如果不能在一个短暂的时间之窗里救出儿子,他将会永远的迷失在幽灵世界中..... %tK^&rw%  
\3bT0^7B  
Video " J4?Sb<  
ID                                       : 1 z JBcz,  
Format                                   : AVC #qnK nxD  
Format/Info                              : Advanced Video Codec , tEd>  
Format profile                           : High@L4 >2^|r8l5  
Format settings, CABAC                   : Yes S%Bm4jY  
Format settings, ReFrames                : 5 frames px=k&|l  
Codec ID                                 : V_MPEG4/ISO/AVC y 1I(^<qO=  
Duration                                 : 1h 34mn eaWK2%v  
Bit rate                                 : 4 253 Kbps `Q1;Y  
Width                                    : 1 912 pixels "KHe6otmi_  
Height                                   : 792 pixels s + Q'\?  
Display aspect ratio                     : 2.40:1 (~Hwq:=.  
Frame rate mode                          : Constant b/]@G05>>  
Frame rate                               : 23.976 fps E%&E<<nhZ  
Color space                              : YUV na`8ulN_  
Chroma subsampling                       : 4:2:0 Fo; .  
Bit depth                                : 8 bits (GJX[$@  
Scan type                                : Progressive pKzrdw-!  
Bits/(Pixel*Frame)                       : 0.117 C'&t@@:  
Stream size                              : 2.79 GiB (90%) jQ X9KwSP  
Title                                    : Pay.The.Ghost.2015.1080p.WEB-DL.DD5.1.H264-RARBG d-ML[^G  
Language                                 : English p9Y`_g`  
Default                                  : Yes oFDJwOJ'Bj  
Forced                                   : No 'iikcf*)C  
Color range                              : Limited nK>D& S_!  
Color primaries                          : BT.709 7 : .bqRu  
Transfer characteristics                 : BT.709 b l]YPx8  
Matrix coefficients                      : BT.709 gMB/ ~g5b0  
Y}hz UKJ  
Audio ?y4vHr"c  
ID                                       : 2 c]3^2Ag,  
Format                                   : AC-3 x-Fl|kwX.5  
Format/Info                              : Audio Coding 3 *OR(8;  
Mode extension                           : CM (complete main) q@ %9Y3  
Format settings, Endianness              : Big /e50&]2w  
Codec ID                                 : A_AC3 tg%C>O  
Duration                                 : 1h 34mn InfUH8./t  
Bit rate mode                            : Constant Sp~gY]:  
Bit rate                                 : 384 Kbps z! DD'8r>  
Channel(s)                               : 6 channels w*qmC<D$A  
Channel positions                        : Front: L C R, Side: L R, LFE }ej-Lu,b3  
Sampling rate                            : 48.0 KHz 5c+7c@.  
Compression mode                         : Lossy * ~4m!U_s  
Stream size                              : 258 MiB (8%)  0ZpWfL  
Title                                    : Pay.The.Ghost.2015.1080p.WEB-DL.DD5.1.H264-RARBG  i'NN  
Language                                 : English n$YCIW )0  
Default                                  : Yes '<KzWxuC  
Forced                                   : No & wG3RR|  
+H8;*uZ|k,  
Text {1j[RE  
ID                                       : 3 0CS80 pC  
Format                                   : UTF-8 `A o;xOJ  
Codec ID                                 : S_TEXT/UTF8 $N`uM  
Codec ID/Info                            : UTF-8 Plain Text vy+9Q5@W  
Language                                 : English ^iwM(d]#5  
Default                                  : Yes V7 dAB,:  
Forced                                   : No `O/RNMaC  
p; ZEz<M  
Menu .+c YzS] !  
00:00:00.000                             : en:Old New York tXIre-. 2}  
00:07:43.000                             : en:Spare A Thought For Lovecraft y:zo/#34  
00:15:04.000                             : en:Halloween Carnival .cX,"2;n  
00:25:58.000                             : en:One Year Later hrr;=q$  
00:31:41.000                             : en:Visions Of Charlie (B zf~#]~  
00:38:21.000                             : en:Kristen And Mike 5bzYTK&-  
00:48:41.000                             : en:Something Mysterious Out There tKUy&]T  
00:58:51.000                             : en:The Celtic Goddess t(:6S$6{e  
01:06:42.000                             : en:Final Day Of Sowin Eh)VU_D  
01:12:40.000                             : en:Hannah x{|n>3l`b9  
01:16:42.000                             : en:Crossing To The Other Side dsxaxbVj%  
01:28:34.000                             : en:Credits S hM}w/4  
s!E-+Gw  
[attachment=undefined] \'L6m1UZ%  
E4'D4@\W  
本部分内容设定了隐藏,需要回复后才能看到