切换到宽版
  • 632阅读
  • 0回复

鬼债/付给灵魂.Pay.The.Ghost.2015.1080p.WEB-DL.DD5.1.H264-RARBG [复制链接]

上一主题 下一主题
 

只看楼主 倒序阅读 使用道具 0 发表于: 2015-10-21
p^8a<e?f~f  
◎译  名 鬼债/付给灵魂 iN&oSpQ  
◎片  名 Pay the Ghost AXlVH%'  
◎年  代 2015 ?0; 2ct  
◎国  家 美国 Z[nHo'  
◎类  别 惊悚 w1tM !4r  
◎语  言 英语 3Z?ornS  
◎字  幕 英文 ;].X;Ky <  
◎IMDB评分 8.8/10 from 26 users   $9X +dvu*  
◎IMDB链接 http://www.imdb.com/title/tt3733778/ Eiu/p&ct  
◎文件格式 H264 + DD5.1 r!&174DSR1  
◎视频尺寸 1912 x 792 gxl7j Y  
◎文件大小 3.11 GiB E<jajYj  
◎片  长 1h 34mn 8m{e,o2.  
◎导  演 乌利·艾德 Uli Edel ]AYP\\Xi  
◎主  演 尼古拉斯·凯奇 Nicolas Cage ...Mike Lawford )h,y Q`.  
      莎拉·韦恩·卡丽丝 Sarah Wayne Callies ...Kristen j,.M!q]  
      Alex Mallari Jr.  ...Actor p3Ux%/ZqPV  
      Veronica Ferres ...Hannah y$%oR6 K7-  
      莱瑞克·本特 Lyriq Bent ...Detective Reynolds %C/p+Tg  
      Jack Fulton ...Charlie I(*3n"  
      Sofia Wells ...Middle Child E4% -*n  
      Elizabeth Jeanne le Roux ...Mom _z#" BN  
      Erin Boyes ...Emily oMEW5.VX  
      Ho Chow ...Dai Wok Cook 0I.KHIB k  
      Mark Irvingsen ...Angry Villager (}39f  
      Maxwell McCabe-Lokos ..Mr. Moldanado J3mLjYy  
      Lauren Beatty ...Annie Sawquin  g!}]FQBb  
      Juan Carlos Velis ...Morales ?SNacN@r  
      Omar Alex Khan ...Medical Examiner x[58C+  
`TPIc  
K80f_ iT 5  
+g g_C'"  
◎简  介  WJD2(el  
Sh(ys*y>  
rC!O}(4t%$  
  大约一年前儿子在纽约的万圣节游行上从他身边突然消失后,麦克·科尔(尼古拉斯·凯奇 Nicolas Cage 饰)被一些关于儿子的可怕的景象弄得忧心忡忡的,并且开始以各种恐怖的方式感受到他的存在。 *F1TZ_GS  
CK[8y&  
P4#i]7%  
  为了展开行动,麦克联合他已经分居的妻子克里斯汀(莎拉·韦恩·卡丽丝 Sarah Wayne Callies 饰),在不顾一切寻找儿子的过程中他们揭开了一连串可怕的线索,不久他们就发现在每个万圣节都有一个邪恶的复仇之灵浮现出来绑架儿童,如果不能在一个短暂的时间之窗里救出儿子,他将会永远的迷失在幽灵世界中..... ,cNe-KJk  
|J!mM<*K  
Video 59zWB,y(P  
ID                                       : 1 >T]9.`xhK  
Format                                   : AVC #//xOL3J  
Format/Info                              : Advanced Video Codec P*!`AWn  
Format profile                           : High@L4 a(vt"MQ_  
Format settings, CABAC                   : Yes #r#[&b  
Format settings, ReFrames                : 5 frames , @jtD*c)  
Codec ID                                 : V_MPEG4/ISO/AVC QQW}.>N  
Duration                                 : 1h 34mn f,yl'2{  
Bit rate                                 : 4 253 Kbps #HgN wM  
Width                                    : 1 912 pixels ^0v3NG6  
Height                                   : 792 pixels @.7/lRr@bp  
Display aspect ratio                     : 2.40:1 k( Sda>-  
Frame rate mode                          : Constant F:m6Mf7L  
Frame rate                               : 23.976 fps =Smd/'`_  
Color space                              : YUV F9eEQ{L  
Chroma subsampling                       : 4:2:0 `+n0a@BVB  
Bit depth                                : 8 bits ULt5Zi  
Scan type                                : Progressive iQ" LIeD  
Bits/(Pixel*Frame)                       : 0.117 +r!NR?^m  
Stream size                              : 2.79 GiB (90%) }@HgFM"  
Title                                    : Pay.The.Ghost.2015.1080p.WEB-DL.DD5.1.H264-RARBG k{mBG9[z  
Language                                 : English Z5v_- +K  
Default                                  : Yes Az@@+?,%Y  
Forced                                   : No 4tm%F\Izy  
Color range                              : Limited ^>E>\uz0v  
Color primaries                          : BT.709 D\5+2 G  
Transfer characteristics                 : BT.709 }169]!R  
Matrix coefficients                      : BT.709 _b<;n|^  
-ZE YzZqY  
Audio .hH_1Mo8  
ID                                       : 2 zd%f5L('  
Format                                   : AC-3 FQ 0&{ulb  
Format/Info                              : Audio Coding 3 BlpyE[h T  
Mode extension                           : CM (complete main) #qVTB@d  
Format settings, Endianness              : Big h rSH)LbJ  
Codec ID                                 : A_AC3 ^S`hKv&87  
Duration                                 : 1h 34mn )!0}<_2  
Bit rate mode                            : Constant zV}:~;w  
Bit rate                                 : 384 Kbps WA2NjxYz  
Channel(s)                               : 6 channels 2z{B  
Channel positions                        : Front: L C R, Side: L R, LFE 4AEw[(t  
Sampling rate                            : 48.0 KHz \bT0\ (Js\  
Compression mode                         : Lossy ]*=!lfrV  
Stream size                              : 258 MiB (8%) kk`K;`[tB  
Title                                    : Pay.The.Ghost.2015.1080p.WEB-DL.DD5.1.H264-RARBG 4*Hzys[{  
Language                                 : English &ic'!h"  
Default                                  : Yes lF64g  
Forced                                   : No ~8&->?{  
. 'o=J`|  
Text vWmp ?m  
ID                                       : 3 pNd`fV#jX  
Format                                   : UTF-8 mC@v,"  
Codec ID                                 : S_TEXT/UTF8 &-FG}|*4M  
Codec ID/Info                            : UTF-8 Plain Text #Hr'plg 8  
Language                                 : English y@v)kN)Y9\  
Default                                  : Yes w tGS"L  
Forced                                   : No !i8)si_  
7WH'GoBh  
Menu ? ch?q~e)  
00:00:00.000                             : en:Old New York G^ k8Or2  
00:07:43.000                             : en:Spare A Thought For Lovecraft Ns YEBT7f  
00:15:04.000                             : en:Halloween Carnival |pZ7k#%  
00:25:58.000                             : en:One Year Later rAtC G1Vr  
00:31:41.000                             : en:Visions Of Charlie p4IyKry,  
00:38:21.000                             : en:Kristen And Mike 4tUoK[p  
00:48:41.000                             : en:Something Mysterious Out There >Z*b0j  
00:58:51.000                             : en:The Celtic Goddess =Pn"nkpML  
01:06:42.000                             : en:Final Day Of Sowin 7]Qxt%7/>  
01:12:40.000                             : en:Hannah (KN",u6F  
01:16:42.000                             : en:Crossing To The Other Side c;/vzIJj  
01:28:34.000                             : en:Credits 8F<|.V;  
e8f 7*S8  
[attachment=undefined] @TW:6v`  
clyp0`,7  
本部分内容设定了隐藏,需要回复后才能看到