切换到宽版
  • 714阅读
  • 0回复

鬼债/付给灵魂.Pay.The.Ghost.2015.1080p.WEB-DL.DD5.1.H264-RARBG [复制链接]

上一主题 下一主题
 

只看楼主 倒序阅读 使用道具 0 发表于: 2015-10-21
zU+q03l8Ur  
◎译  名 鬼债/付给灵魂 )Hmf=eoc  
◎片  名 Pay the Ghost "O<ETHd0  
◎年  代 2015 ""a$[[ %WC  
◎国  家 美国 W_JO~P  
◎类  别 惊悚 ;-kDJ i  
◎语  言 英语 /B~[,ES@1  
◎字  幕 英文 -dBWpT  
◎IMDB评分 8.8/10 from 26 users   *Z_4bR4Q  
◎IMDB链接 http://www.imdb.com/title/tt3733778/ FZj> N(  
◎文件格式 H264 + DD5.1 *1<kYrB  
◎视频尺寸 1912 x 792 -R:_o1"  
◎文件大小 3.11 GiB Dz6xx?  
◎片  长 1h 34mn mA+:)?e5~  
◎导  演 乌利·艾德 Uli Edel E6-*2U)k+  
◎主  演 尼古拉斯·凯奇 Nicolas Cage ...Mike Lawford {XmCG%%L  
      莎拉·韦恩·卡丽丝 Sarah Wayne Callies ...Kristen qGV_oa74  
      Alex Mallari Jr.  ...Actor 6_bL<:xtY  
      Veronica Ferres ...Hannah XH$r(@Z\7  
      莱瑞克·本特 Lyriq Bent ...Detective Reynolds zR^Gy"  
      Jack Fulton ...Charlie F+V!p4G  
      Sofia Wells ...Middle Child d}[cX9U/  
      Elizabeth Jeanne le Roux ...Mom %'=*utOxy  
      Erin Boyes ...Emily R}M ;, G  
      Ho Chow ...Dai Wok Cook ,|({[ 9jA  
      Mark Irvingsen ...Angry Villager q*l4h u% 3  
      Maxwell McCabe-Lokos ..Mr. Moldanado eyCZ[SC  
      Lauren Beatty ...Annie Sawquin pa[/ 6(  
      Juan Carlos Velis ...Morales VI&x1C  
      Omar Alex Khan ...Medical Examiner .:r ~?$(  
k2U*dn"9U  
Rqh5FzB>  
lT^su'+bk  
◎简  介  mH'~pR>t  
'u7-Qetj  
;.A}c)b  
  大约一年前儿子在纽约的万圣节游行上从他身边突然消失后,麦克·科尔(尼古拉斯·凯奇 Nicolas Cage 饰)被一些关于儿子的可怕的景象弄得忧心忡忡的,并且开始以各种恐怖的方式感受到他的存在。 HeRi67  
E#B-JLMGl  
&]nx^C8V;  
  为了展开行动,麦克联合他已经分居的妻子克里斯汀(莎拉·韦恩·卡丽丝 Sarah Wayne Callies 饰),在不顾一切寻找儿子的过程中他们揭开了一连串可怕的线索,不久他们就发现在每个万圣节都有一个邪恶的复仇之灵浮现出来绑架儿童,如果不能在一个短暂的时间之窗里救出儿子,他将会永远的迷失在幽灵世界中..... ^,>w`8  
,@`?I6nKy  
Video )/T[Cnx.Nc  
ID                                       : 1 JE?rp1.  
Format                                   : AVC 8>&@"j  
Format/Info                              : Advanced Video Codec u,sR2&Fe  
Format profile                           : High@L4 6hxZ5&;(*  
Format settings, CABAC                   : Yes i9;  
Format settings, ReFrames                : 5 frames (Rw<1q`,  
Codec ID                                 : V_MPEG4/ISO/AVC z 6:Wh  
Duration                                 : 1h 34mn 8Zr;n`~  
Bit rate                                 : 4 253 Kbps 4Uy%wB  
Width                                    : 1 912 pixels I652Fcj  
Height                                   : 792 pixels d>QFmsh-  
Display aspect ratio                     : 2.40:1 l2D*b93  
Frame rate mode                          : Constant WyN ;lId  
Frame rate                               : 23.976 fps lSxb:$g  
Color space                              : YUV 5 \mRH  
Chroma subsampling                       : 4:2:0 ]3KeAJ  
Bit depth                                : 8 bits O'<V[Y} 6  
Scan type                                : Progressive E&M(QX5  
Bits/(Pixel*Frame)                       : 0.117 "+HJ/8Dd1  
Stream size                              : 2.79 GiB (90%) PL/g| ;  
Title                                    : Pay.The.Ghost.2015.1080p.WEB-DL.DD5.1.H264-RARBG Jw)JV~/0  
Language                                 : English P}R:o   
Default                                  : Yes -f+#j=FX  
Forced                                   : No %OQdUH4x  
Color range                              : Limited "{q#)N  
Color primaries                          : BT.709 9&+]YY CS-  
Transfer characteristics                 : BT.709 rH@Rh}#yp  
Matrix coefficients                      : BT.709 LrU8!r`a  
ww2mL <B  
Audio U]P B)  
ID                                       : 2 : auR0FE  
Format                                   : AC-3 L2H  
Format/Info                              : Audio Coding 3 7=-Yxt  
Mode extension                           : CM (complete main) qTsy'y;Z   
Format settings, Endianness              : Big 'a#lBzu\b  
Codec ID                                 : A_AC3 `Ba]i)!  
Duration                                 : 1h 34mn =p5DT  
Bit rate mode                            : Constant g'.OzD  
Bit rate                                 : 384 Kbps *X0>Ru[  
Channel(s)                               : 6 channels S<Dbv?  
Channel positions                        : Front: L C R, Side: L R, LFE ,#Z%0NLe  
Sampling rate                            : 48.0 KHz gAAC>{Wh  
Compression mode                         : Lossy "i0>>@NR'  
Stream size                              : 258 MiB (8%) M(X _I`\E  
Title                                    : Pay.The.Ghost.2015.1080p.WEB-DL.DD5.1.H264-RARBG @KQ>DBWQM  
Language                                 : English I~ 4z%UG  
Default                                  : Yes JduO^Fit  
Forced                                   : No }0'LKwIR  
#^}H)>jWy  
Text Tg{5%~L]   
ID                                       : 3 T}fo  
Format                                   : UTF-8 SkjG}  
Codec ID                                 : S_TEXT/UTF8 lOm01&^"E  
Codec ID/Info                            : UTF-8 Plain Text bdL= ?KS  
Language                                 : English gmVN(K}SR5  
Default                                  : Yes /EjXyrn2  
Forced                                   : No JwI99I'  
hO"!q;<eS  
Menu cKTjQJ#  
00:00:00.000                             : en:Old New York 8?Rp2n*o  
00:07:43.000                             : en:Spare A Thought For Lovecraft )0/9 L  
00:15:04.000                             : en:Halloween Carnival vn}m-U XA*  
00:25:58.000                             : en:One Year Later 30v xOkS  
00:31:41.000                             : en:Visions Of Charlie bTJ<8q  
00:38:21.000                             : en:Kristen And Mike b-ss^UL  
00:48:41.000                             : en:Something Mysterious Out There  SCfp5W7~  
00:58:51.000                             : en:The Celtic Goddess V 1'otQH2l  
01:06:42.000                             : en:Final Day Of Sowin DQGrXMpV0  
01:12:40.000                             : en:Hannah !q+ #JW  
01:16:42.000                             : en:Crossing To The Other Side Erw1y,mF  
01:28:34.000                             : en:Credits  .2&L.  
'I>USl3hI  
[attachment=undefined] #1-WiweO  
1["i,8zB  
本部分内容设定了隐藏,需要回复后才能看到