切换到宽版
  • 737阅读
  • 0回复

鬼债/付给灵魂.Pay.The.Ghost.2015.1080p.WEB-DL.DD5.1.H264-RARBG [复制链接]

上一主题 下一主题
 

只看楼主 倒序阅读 使用道具 0 发表于: 2015-10-21
d]wD[]  
◎译  名 鬼债/付给灵魂 60}! LmL  
◎片  名 Pay the Ghost \9{F5S z  
◎年  代 2015 ^G1%6\We  
◎国  家 美国 @f1*eo5f  
◎类  别 惊悚 %.HJK  
◎语  言 英语 K'5'}Lb5k  
◎字  幕 英文 Sq2P-y!w  
◎IMDB评分 8.8/10 from 26 users   ?KE$r~dn  
◎IMDB链接 http://www.imdb.com/title/tt3733778/ kkCZNQ~I  
◎文件格式 H264 + DD5.1 1X1 N tS @  
◎视频尺寸 1912 x 792 {b)~V3rsY  
◎文件大小 3.11 GiB {+.r5py  
◎片  长 1h 34mn sLL7]m}  
◎导  演 乌利·艾德 Uli Edel ?]O7Ao  
◎主  演 尼古拉斯·凯奇 Nicolas Cage ...Mike Lawford Uh6 '$0  
      莎拉·韦恩·卡丽丝 Sarah Wayne Callies ...Kristen Shr,#wwM`B  
      Alex Mallari Jr.  ...Actor 3=0E!e  
      Veronica Ferres ...Hannah (bp9Pj w  
      莱瑞克·本特 Lyriq Bent ...Detective Reynolds ]wVk+%e  
      Jack Fulton ...Charlie wBSQ:f]g  
      Sofia Wells ...Middle Child =aG xg57  
      Elizabeth Jeanne le Roux ...Mom ^K(^I*q  
      Erin Boyes ...Emily 'lz "2@4{  
      Ho Chow ...Dai Wok Cook w.{&=WTr  
      Mark Irvingsen ...Angry Villager XMIbUbU k-  
      Maxwell McCabe-Lokos ..Mr. Moldanado /=?x{(B>  
      Lauren Beatty ...Annie Sawquin iq$$+y,  
      Juan Carlos Velis ...Morales i[jJafAcN  
      Omar Alex Khan ...Medical Examiner g" VMeW^  
hqvE!Of  
fwR_OB: $  
b*kfWG-6t  
◎简  介  _qwQ;!9  
=='Td[  
2x]>l? 5b  
  大约一年前儿子在纽约的万圣节游行上从他身边突然消失后,麦克·科尔(尼古拉斯·凯奇 Nicolas Cage 饰)被一些关于儿子的可怕的景象弄得忧心忡忡的,并且开始以各种恐怖的方式感受到他的存在。 13k !'P  
kRJ4-n^@><  
Dim> 7Wbh  
  为了展开行动,麦克联合他已经分居的妻子克里斯汀(莎拉·韦恩·卡丽丝 Sarah Wayne Callies 饰),在不顾一切寻找儿子的过程中他们揭开了一连串可怕的线索,不久他们就发现在每个万圣节都有一个邪恶的复仇之灵浮现出来绑架儿童,如果不能在一个短暂的时间之窗里救出儿子,他将会永远的迷失在幽灵世界中..... -Apc$0ZsN  
[lzN !!B!  
Video LpbsYl  
ID                                       : 1 <x pph t<  
Format                                   : AVC o G*5f  
Format/Info                              : Advanced Video Codec +n0r0:z0  
Format profile                           : High@L4 LkruL_E>  
Format settings, CABAC                   : Yes =W bOwI)u  
Format settings, ReFrames                : 5 frames tC?=E#3 V  
Codec ID                                 : V_MPEG4/ISO/AVC B(g_Gm<  
Duration                                 : 1h 34mn yOU(2"8p  
Bit rate                                 : 4 253 Kbps f5*k7fg  
Width                                    : 1 912 pixels )> ,wj  
Height                                   : 792 pixels  5^<h}u9  
Display aspect ratio                     : 2.40:1 Qf M zF  
Frame rate mode                          : Constant @}p2aV59  
Frame rate                               : 23.976 fps "xI"  
Color space                              : YUV GE;e]Jkjn  
Chroma subsampling                       : 4:2:0 8 ;d$54 b  
Bit depth                                : 8 bits <#=N m0S$  
Scan type                                : Progressive u-D dq~;|  
Bits/(Pixel*Frame)                       : 0.117 ( 9!k#  
Stream size                              : 2.79 GiB (90%) : JzI>/  
Title                                    : Pay.The.Ghost.2015.1080p.WEB-DL.DD5.1.H264-RARBG GcIDG`RX  
Language                                 : English EF7+ *Q9  
Default                                  : Yes ^H{R+}  
Forced                                   : No {e[%;W%c&  
Color range                              : Limited y.5/?{GL  
Color primaries                          : BT.709 s^0/"j|7  
Transfer characteristics                 : BT.709 8KB>6[H!wE  
Matrix coefficients                      : BT.709 q5h*` 7f  
=L%DX#8  
Audio +d+@u)6  
ID                                       : 2 Wt)Drv{@ {  
Format                                   : AC-3 _\Q^x)w6  
Format/Info                              : Audio Coding 3 e0@ 6Pd  
Mode extension                           : CM (complete main) m }a|FS  
Format settings, Endianness              : Big mK+IEZV<3  
Codec ID                                 : A_AC3 B]m@:|Q  
Duration                                 : 1h 34mn 9I1tN  
Bit rate mode                            : Constant Wcb7 ;~K  
Bit rate                                 : 384 Kbps z,qRcO&  
Channel(s)                               : 6 channels NaVQ9ku7VW  
Channel positions                        : Front: L C R, Side: L R, LFE /27JevE  
Sampling rate                            : 48.0 KHz .)}@J5 P)  
Compression mode                         : Lossy Fc~'TBf,,`  
Stream size                              : 258 MiB (8%) Y2xL> F  
Title                                    : Pay.The.Ghost.2015.1080p.WEB-DL.DD5.1.H264-RARBG ju}fL<<e  
Language                                 : English 1(|D'y#  
Default                                  : Yes WZOY)>K  
Forced                                   : No O^/Maa/D1  
jV.g}F+1m  
Text k(zsm"<q  
ID                                       : 3 2*(Z==XC7  
Format                                   : UTF-8 "UEv&mQ  
Codec ID                                 : S_TEXT/UTF8 ` _b`kzJ  
Codec ID/Info                            : UTF-8 Plain Text obdFS,JxxG  
Language                                 : English ~m|Mg9-  
Default                                  : Yes u0P)7~%  
Forced                                   : No z0|&W&&D  
DI!V^M[~u  
Menu MCU_Z[N#10  
00:00:00.000                             : en:Old New York nz9DLAt  
00:07:43.000                             : en:Spare A Thought For Lovecraft :2njp%  
00:15:04.000                             : en:Halloween Carnival qwIa?!8 o  
00:25:58.000                             : en:One Year Later Yvn\x ph3  
00:31:41.000                             : en:Visions Of Charlie i)#s.6.D>  
00:38:21.000                             : en:Kristen And Mike -n'F v@U  
00:48:41.000                             : en:Something Mysterious Out There !"e5~7  
00:58:51.000                             : en:The Celtic Goddess .{;Y'Zc14S  
01:06:42.000                             : en:Final Day Of Sowin  8q1wHZ  
01:12:40.000                             : en:Hannah mv5n4mav  
01:16:42.000                             : en:Crossing To The Other Side MxyN\Mq'  
01:28:34.000                             : en:Credits Ed9Z9  
Lm@vXgMD  
[attachment=undefined] "t^URp3  
)lJao  
本部分内容设定了隐藏,需要回复后才能看到