切换到宽版
  • 664阅读
  • 0回复

鬼债/付给灵魂.Pay.The.Ghost.2015.1080p.WEB-DL.DD5.1.H264-RARBG [复制链接]

上一主题 下一主题
 

只看楼主 倒序阅读 使用道具 0 发表于: 2015-10-21
hyJ ded&D  
◎译  名 鬼债/付给灵魂 tCuN?_ UG  
◎片  名 Pay the Ghost umZlIH[7  
◎年  代 2015 di"C]" ;  
◎国  家 美国 s.VUd R"  
◎类  别 惊悚 gCg4;b6g  
◎语  言 英语 rn5"o8|  
◎字  幕 英文 l#X=]xQf  
◎IMDB评分 8.8/10 from 26 users   J"/ JRn  
◎IMDB链接 http://www.imdb.com/title/tt3733778/ |P^]@om  
◎文件格式 H264 + DD5.1 7vi i9Am7  
◎视频尺寸 1912 x 792 _=o1?R  
◎文件大小 3.11 GiB nu;} S! J  
◎片  长 1h 34mn kyy0&L  
◎导  演 乌利·艾德 Uli Edel _7rqXkp%  
◎主  演 尼古拉斯·凯奇 Nicolas Cage ...Mike Lawford 8T8pAs0 p  
      莎拉·韦恩·卡丽丝 Sarah Wayne Callies ...Kristen 4}.WhE|h  
      Alex Mallari Jr.  ...Actor ]c x"  
      Veronica Ferres ...Hannah //#xK D  
      莱瑞克·本特 Lyriq Bent ...Detective Reynolds H @_eFlT t  
      Jack Fulton ...Charlie +L^A:}L(  
      Sofia Wells ...Middle Child v9Z lNA7m!  
      Elizabeth Jeanne le Roux ...Mom A6{t%k~F  
      Erin Boyes ...Emily +CsI,Uf4*  
      Ho Chow ...Dai Wok Cook <{$ ev&bQ  
      Mark Irvingsen ...Angry Villager KU1+<OCh  
      Maxwell McCabe-Lokos ..Mr. Moldanado K)yCrEZ  
      Lauren Beatty ...Annie Sawquin ]NaMZ  
      Juan Carlos Velis ...Morales 4a(g<5wfI  
      Omar Alex Khan ...Medical Examiner Vpug"aR&_  
s,eld@  
XX]5T`D  
GOv9 2$e  
◎简  介  c*y$bf<  
K!IF?iell  
*23m-  
  大约一年前儿子在纽约的万圣节游行上从他身边突然消失后,麦克·科尔(尼古拉斯·凯奇 Nicolas Cage 饰)被一些关于儿子的可怕的景象弄得忧心忡忡的,并且开始以各种恐怖的方式感受到他的存在。 3v9gb,)y\  
uB5h9&57  
qT4I Y$h  
  为了展开行动,麦克联合他已经分居的妻子克里斯汀(莎拉·韦恩·卡丽丝 Sarah Wayne Callies 饰),在不顾一切寻找儿子的过程中他们揭开了一连串可怕的线索,不久他们就发现在每个万圣节都有一个邪恶的复仇之灵浮现出来绑架儿童,如果不能在一个短暂的时间之窗里救出儿子,他将会永远的迷失在幽灵世界中..... ?;0nJf  
Bg+<*z-?e  
Video pRQ fx^ On  
ID                                       : 1 o9U0kI=W  
Format                                   : AVC s`8M%ZLu  
Format/Info                              : Advanced Video Codec L Q I: ]d  
Format profile                           : High@L4 TEaD-mY3  
Format settings, CABAC                   : Yes q|47;bK'  
Format settings, ReFrames                : 5 frames Hj5WJ{p.  
Codec ID                                 : V_MPEG4/ISO/AVC ;kyL>mV{  
Duration                                 : 1h 34mn \3n{w   
Bit rate                                 : 4 253 Kbps W2r6jm!  
Width                                    : 1 912 pixels ]MqH13`)A  
Height                                   : 792 pixels 7 ]M,yIwc  
Display aspect ratio                     : 2.40:1 BNL8hK`D  
Frame rate mode                          : Constant a@5xz)  
Frame rate                               : 23.976 fps ps!5HZ2:  
Color space                              : YUV PBxK >a  
Chroma subsampling                       : 4:2:0 -!C Y,'3  
Bit depth                                : 8 bits `_J^g&y~  
Scan type                                : Progressive 5`{|[J_[  
Bits/(Pixel*Frame)                       : 0.117 %# Wg^l '  
Stream size                              : 2.79 GiB (90%) ,E*a$cCw  
Title                                    : Pay.The.Ghost.2015.1080p.WEB-DL.DD5.1.H264-RARBG | Q1ub S  
Language                                 : English |"Xi%CQ2  
Default                                  : Yes (PsSE:r}+  
Forced                                   : No jM3Y|}+  
Color range                              : Limited }Ke }rM<  
Color primaries                          : BT.709 [}9XHhY1O=  
Transfer characteristics                 : BT.709 fcE /  
Matrix coefficients                      : BT.709 XvA0nEi  
rx}ujjx  
Audio 8}"f|6Wm  
ID                                       : 2 hdsgOu  
Format                                   : AC-3 @Q$ /eL  
Format/Info                              : Audio Coding 3 Kbz7  
Mode extension                           : CM (complete main) v' 9(et  
Format settings, Endianness              : Big !ulLGmUn  
Codec ID                                 : A_AC3 7/D9n9F  
Duration                                 : 1h 34mn 2#n$x*CY  
Bit rate mode                            : Constant *&hXJJ[+  
Bit rate                                 : 384 Kbps ~P]HG;$?n  
Channel(s)                               : 6 channels 3I>S:|=K  
Channel positions                        : Front: L C R, Side: L R, LFE _Y ><ih  
Sampling rate                            : 48.0 KHz [KimY  
Compression mode                         : Lossy l|ZzG4]+l  
Stream size                              : 258 MiB (8%) H z3 S^o7  
Title                                    : Pay.The.Ghost.2015.1080p.WEB-DL.DD5.1.H264-RARBG G7/?hky 0.  
Language                                 : English VH7iH|eW  
Default                                  : Yes J++sTQ(!?  
Forced                                   : No +3o)L?:g  
{o5K?Pb  
Text <_sT]?N #  
ID                                       : 3 Zm; +Ku>  
Format                                   : UTF-8 G7_"^r%c9;  
Codec ID                                 : S_TEXT/UTF8 z W" 3K  
Codec ID/Info                            : UTF-8 Plain Text '#4mDz~  
Language                                 : English V&,<,iNN  
Default                                  : Yes (;2J(GZ:$U  
Forced                                   : No }d~FTre  
X^ ^?}>t[  
Menu C>\!'^u1  
00:00:00.000                             : en:Old New York TJw.e/  
00:07:43.000                             : en:Spare A Thought For Lovecraft 0m+5Zn  
00:15:04.000                             : en:Halloween Carnival '9p5UC  
00:25:58.000                             : en:One Year Later h[`Op#^x3  
00:31:41.000                             : en:Visions Of Charlie tFST.yT>zg  
00:38:21.000                             : en:Kristen And Mike rCSG@D.  
00:48:41.000                             : en:Something Mysterious Out There *Xt c`XH  
00:58:51.000                             : en:The Celtic Goddess WlQ&Yau  
01:06:42.000                             : en:Final Day Of Sowin Ay"2W%([`  
01:12:40.000                             : en:Hannah KEVy%AP=*h  
01:16:42.000                             : en:Crossing To The Other Side F{H0 %  
01:28:34.000                             : en:Credits ?9r,Y;,H  
zWmo OnK  
[attachment=undefined] a@=36gx)  
\I,Dje/:w  
本部分内容设定了隐藏,需要回复后才能看到