切换到宽版
  • 694阅读
  • 0回复

鬼债/付给灵魂.Pay.The.Ghost.2015.1080p.WEB-DL.DD5.1.H264-RARBG [复制链接]

上一主题 下一主题
 

只看楼主 倒序阅读 使用道具 0 发表于: 2015-10-21
~-k , $J?7  
◎译  名 鬼债/付给灵魂 P*!`AWn  
◎片  名 Pay the Ghost $_F_%m"\  
◎年  代 2015  :f[ w  
◎国  家 美国 F\r"Y)|b=  
◎类  别 惊悚 71@ eJQ  
◎语  言 英语 ![%wM Pp  
◎字  幕 英文 pL,XHR@Iv  
◎IMDB评分 8.8/10 from 26 users   _\4#I(  
◎IMDB链接 http://www.imdb.com/title/tt3733778/ mI7lv;oN<5  
◎文件格式 H264 + DD5.1 D;P=\i>9-  
◎视频尺寸 1912 x 792 uaO.7QSwN  
◎文件大小 3.11 GiB uZL]mwkj]  
◎片  长 1h 34mn W!<7OA g$  
◎导  演 乌利·艾德 Uli Edel x\Q}fk?{t  
◎主  演 尼古拉斯·凯奇 Nicolas Cage ...Mike Lawford k( Sda>-  
      莎拉·韦恩·卡丽丝 Sarah Wayne Callies ...Kristen %"v:x?d$$o  
      Alex Mallari Jr.  ...Actor =;-C;gn:w  
      Veronica Ferres ...Hannah jVnTpa!A  
      莱瑞克·本特 Lyriq Bent ...Detective Reynolds Q$ew.h  
      Jack Fulton ...Charlie hM]Z T5;<  
      Sofia Wells ...Middle Child T{ @@V  
      Elizabeth Jeanne le Roux ...Mom T!,5dt8L  
      Erin Boyes ...Emily MJiVFfYW  
      Ho Chow ...Dai Wok Cook }OEL] 5  
      Mark Irvingsen ...Angry Villager ]6M<c[H>  
      Maxwell McCabe-Lokos ..Mr. Moldanado +\Vw:~e  
      Lauren Beatty ...Annie Sawquin dI\_I]  
      Juan Carlos Velis ...Morales 5)< Y3nU~  
      Omar Alex Khan ...Medical Examiner h)Fc<,vwBE  
z6U'"T"a  
KD A8x W  
b|-)p+ba  
◎简  介   x(HHy,  
(qFZF7(Xa  
l8?C[, K%  
  大约一年前儿子在纽约的万圣节游行上从他身边突然消失后,麦克·科尔(尼古拉斯·凯奇 Nicolas Cage 饰)被一些关于儿子的可怕的景象弄得忧心忡忡的,并且开始以各种恐怖的方式感受到他的存在。 b\JU%89  
{v0r'+`  
!@lx|= #  
  为了展开行动,麦克联合他已经分居的妻子克里斯汀(莎拉·韦恩·卡丽丝 Sarah Wayne Callies 饰),在不顾一切寻找儿子的过程中他们揭开了一连串可怕的线索,不久他们就发现在每个万圣节都有一个邪恶的复仇之灵浮现出来绑架儿童,如果不能在一个短暂的时间之窗里救出儿子,他将会永远的迷失在幽灵世界中..... f~W+Rt7o  
j-BNHX  
Video Tl yyJ{~  
ID                                       : 1 lt-3OcC  
Format                                   : AVC Jw5@#j  
Format/Info                              : Advanced Video Codec Q>4NUq  
Format profile                           : High@L4 T/ECW  
Format settings, CABAC                   : Yes Njg87tKB  
Format settings, ReFrames                : 5 frames X~& 8^?  
Codec ID                                 : V_MPEG4/ISO/AVC w-JWMg Y8w  
Duration                                 : 1h 34mn xGyl7$J  
Bit rate                                 : 4 253 Kbps m19\H  
Width                                    : 1 912 pixels dBA&NW07  
Height                                   : 792 pixels H0&wn#);6R  
Display aspect ratio                     : 2.40:1 >"IG\//I  
Frame rate mode                          : Constant .aO6Y+Y  
Frame rate                               : 23.976 fps iLv -*%%  
Color space                              : YUV t0fgG/f'  
Chroma subsampling                       : 4:2:0 @_"cMU!  
Bit depth                                : 8 bits \(7A7~  
Scan type                                : Progressive z*.G0DFw  
Bits/(Pixel*Frame)                       : 0.117 [2xu`HT02  
Stream size                              : 2.79 GiB (90%) " 4#&tNQ  
Title                                    : Pay.The.Ghost.2015.1080p.WEB-DL.DD5.1.H264-RARBG JAKs [@:  
Language                                 : English ~q+AAWL  
Default                                  : Yes #Tzs9Bkaca  
Forced                                   : No $k )K}U  
Color range                              : Limited 5Q%)|(U'  
Color primaries                          : BT.709 6X9$T1 1Vc  
Transfer characteristics                 : BT.709 BZhf/{h[@  
Matrix coefficients                      : BT.709 * G*VY#L  
UVLS ?1ra  
Audio IAkQR0fcN  
ID                                       : 2 NG3:=  
Format                                   : AC-3 yqK_|7I+  
Format/Info                              : Audio Coding 3 |O)ZjLx  
Mode extension                           : CM (complete main) #O~pf[[L  
Format settings, Endianness              : Big &FRf-6/  
Codec ID                                 : A_AC3 "i&n;8?Y  
Duration                                 : 1h 34mn ER-Xd9R  
Bit rate mode                            : Constant n::i$ZUdK  
Bit rate                                 : 384 Kbps cEp/qzAiD%  
Channel(s)                               : 6 channels :#sBNy  
Channel positions                        : Front: L C R, Side: L R, LFE tjV63`LD  
Sampling rate                            : 48.0 KHz QHje}  
Compression mode                         : Lossy .AX%6+o  
Stream size                              : 258 MiB (8%) R.* k7-(;  
Title                                    : Pay.The.Ghost.2015.1080p.WEB-DL.DD5.1.H264-RARBG c uAp,!  
Language                                 : English *S <I!7Q  
Default                                  : Yes _ u_|U  
Forced                                   : No c\P}Z Q  
"/^kFsvp  
Text WH $*\IGJL  
ID                                       : 3 Tnf&32 IA  
Format                                   : UTF-8 hI<$lEB  
Codec ID                                 : S_TEXT/UTF8 - jTK3&5  
Codec ID/Info                            : UTF-8 Plain Text k ; vOPcw  
Language                                 : English 9<!??'@f  
Default                                  : Yes z}VCiS0  
Forced                                   : No {[H#lX 4  
;' 'S} ;  
Menu 1U~'8=-   
00:00:00.000                             : en:Old New York -Vg0J6x  
00:07:43.000                             : en:Spare A Thought For Lovecraft ^=cX L  
00:15:04.000                             : en:Halloween Carnival /oM&29 jy  
00:25:58.000                             : en:One Year Later @M }`nKXM  
00:31:41.000                             : en:Visions Of Charlie +x:VIi  
00:38:21.000                             : en:Kristen And Mike m p]UUpt  
00:48:41.000                             : en:Something Mysterious Out There {2|sk9?W  
00:58:51.000                             : en:The Celtic Goddess }2?- kj7  
01:06:42.000                             : en:Final Day Of Sowin %s%e5hU  
01:12:40.000                             : en:Hannah # zd}xla0]  
01:16:42.000                             : en:Crossing To The Other Side V3pn@ 'pr  
01:28:34.000                             : en:Credits Zq}Cl'f  
? 0E- Lac=  
[attachment=undefined] U@:iN..  
Q},uM_" +  
本部分内容设定了隐藏,需要回复后才能看到