切换到宽版
  • 542阅读
  • 0回复

鬼债/付给灵魂.Pay.The.Ghost.2015.1080p.WEB-DL.DD5.1.H264-RARBG [复制链接]

上一主题 下一主题
 

只看楼主 倒序阅读 使用道具 0 发表于: 2015-10-21
2}W0 F2*  
◎译  名 鬼债/付给灵魂 cm[c ze+*  
◎片  名 Pay the Ghost Y F*OU"2U  
◎年  代 2015 $U/YR&vcw  
◎国  家 美国 Zy09L}59P  
◎类  别 惊悚 )$,"u4  
◎语  言 英语 Y \:0Ev  
◎字  幕 英文 mLL340c#\  
◎IMDB评分 8.8/10 from 26 users   t>H`X~SR?  
◎IMDB链接 http://www.imdb.com/title/tt3733778/ @'=Uq  
◎文件格式 H264 + DD5.1 B7"PIk k;  
◎视频尺寸 1912 x 792 ooV*I|wcI  
◎文件大小 3.11 GiB [g2;N,V#  
◎片  长 1h 34mn CXCpqc C  
◎导  演 乌利·艾德 Uli Edel }E_#k]#*  
◎主  演 尼古拉斯·凯奇 Nicolas Cage ...Mike Lawford lq"f[-8a2q  
      莎拉·韦恩·卡丽丝 Sarah Wayne Callies ...Kristen CNww`PX,zZ  
      Alex Mallari Jr.  ...Actor #A8@CA^d  
      Veronica Ferres ...Hannah q5 L51KP2  
      莱瑞克·本特 Lyriq Bent ...Detective Reynolds Lq>&d,F06)  
      Jack Fulton ...Charlie [ib P%xb  
      Sofia Wells ...Middle Child S'HnBn /  
      Elizabeth Jeanne le Roux ...Mom Q%-di=  
      Erin Boyes ...Emily b<]n%Q'n  
      Ho Chow ...Dai Wok Cook 5 Qoew9rA  
      Mark Irvingsen ...Angry Villager 0 dh=fcb  
      Maxwell McCabe-Lokos ..Mr. Moldanado )3(;tT,$}^  
      Lauren Beatty ...Annie Sawquin `|Or{ih  
      Juan Carlos Velis ...Morales =LTmr1?  
      Omar Alex Khan ...Medical Examiner wW"z  
A 8 vbQ  
MfmACd^3$  
"}Me}S<  
◎简  介  4Bl{WyMJ|  
RyRpl*^  
4H+Ked &Oq  
  大约一年前儿子在纽约的万圣节游行上从他身边突然消失后,麦克·科尔(尼古拉斯·凯奇 Nicolas Cage 饰)被一些关于儿子的可怕的景象弄得忧心忡忡的,并且开始以各种恐怖的方式感受到他的存在。 9!><<7TS  
O 1oxZj <  
^_ojR4  
  为了展开行动,麦克联合他已经分居的妻子克里斯汀(莎拉·韦恩·卡丽丝 Sarah Wayne Callies 饰),在不顾一切寻找儿子的过程中他们揭开了一连串可怕的线索,不久他们就发现在每个万圣节都有一个邪恶的复仇之灵浮现出来绑架儿童,如果不能在一个短暂的时间之窗里救出儿子,他将会永远的迷失在幽灵世界中..... '<0J@^vZ  
VACiVKk  
Video /cZ-tSC)o  
ID                                       : 1 @x/T&67k  
Format                                   : AVC ,TRTRb;  
Format/Info                              : Advanced Video Codec 3 v")J*t  
Format profile                           : High@L4 vS;1/->WD  
Format settings, CABAC                   : Yes ?X&6M;Zi  
Format settings, ReFrames                : 5 frames 45&8weXO:'  
Codec ID                                 : V_MPEG4/ISO/AVC ?GTU=gp Q  
Duration                                 : 1h 34mn 6{qIU}!  
Bit rate                                 : 4 253 Kbps e:AHVep j{  
Width                                    : 1 912 pixels G Xt4j  
Height                                   : 792 pixels 2m>-dqg  
Display aspect ratio                     : 2.40:1 VxFOYC>p  
Frame rate mode                          : Constant Ys8SDlMo  
Frame rate                               : 23.976 fps it2 a  
Color space                              : YUV kw`WH)+F  
Chroma subsampling                       : 4:2:0 Tg3!Rq55  
Bit depth                                : 8 bits OUP?p@%]<  
Scan type                                : Progressive *;|`E(   
Bits/(Pixel*Frame)                       : 0.117 IcIOC8WC  
Stream size                              : 2.79 GiB (90%) { BEo &  
Title                                    : Pay.The.Ghost.2015.1080p.WEB-DL.DD5.1.H264-RARBG 1 qi@uYDug  
Language                                 : English !6}O.Nu  
Default                                  : Yes S-#q~X!yJ  
Forced                                   : No E0oU$IB  
Color range                              : Limited 0Aa`p3.)  
Color primaries                          : BT.709 vs 6,  
Transfer characteristics                 : BT.709 8e0."o.6  
Matrix coefficients                      : BT.709 bAr` E  
I?Q+9Rmm`J  
Audio Q:6VYONN  
ID                                       : 2 6D;^uM2N  
Format                                   : AC-3 XN,,cU  
Format/Info                              : Audio Coding 3 `Pc3?~>0HH  
Mode extension                           : CM (complete main) ^6p'YYj"5  
Format settings, Endianness              : Big G%u9+XV1#  
Codec ID                                 : A_AC3 ;7Oi!BC  
Duration                                 : 1h 34mn ji+{ :D  
Bit rate mode                            : Constant fRTo.u   
Bit rate                                 : 384 Kbps e~v(eK_  
Channel(s)                               : 6 channels .I$}KE)  
Channel positions                        : Front: L C R, Side: L R, LFE uHNpfKnZ  
Sampling rate                            : 48.0 KHz 7 gB{In0  
Compression mode                         : Lossy ^Jp*B;  
Stream size                              : 258 MiB (8%) z2/!m[U  
Title                                    : Pay.The.Ghost.2015.1080p.WEB-DL.DD5.1.H264-RARBG O_K_f+7  
Language                                 : English %IBL0N QT  
Default                                  : Yes f"&Xr!b.h  
Forced                                   : No P"7ow-  
?TEK=mD#u  
Text ZI ?W5ISdg  
ID                                       : 3  wz -)1!  
Format                                   : UTF-8 N~,_`=yRx  
Codec ID                                 : S_TEXT/UTF8 Uz8hANN0_  
Codec ID/Info                            : UTF-8 Plain Text G@d`F  
Language                                 : English `{FwTZ=6{  
Default                                  : Yes k3@HI|  
Forced                                   : No .6T6 S v  
f1+qXMs  
Menu hhR aJ  
00:00:00.000                             : en:Old New York YT2'!R 1  
00:07:43.000                             : en:Spare A Thought For Lovecraft K}I0o!(#  
00:15:04.000                             : en:Halloween Carnival 2f:Mm'XdB  
00:25:58.000                             : en:One Year Later DOm-)zl{|x  
00:31:41.000                             : en:Visions Of Charlie E*v]:kok  
00:38:21.000                             : en:Kristen And Mike -4L!k'uR  
00:48:41.000                             : en:Something Mysterious Out There jv}=&d  
00:58:51.000                             : en:The Celtic Goddess Ex($  
01:06:42.000                             : en:Final Day Of Sowin Z^ tGu7x  
01:12:40.000                             : en:Hannah S6 }QFx  
01:16:42.000                             : en:Crossing To The Other Side QXk"?yT`E  
01:28:34.000                             : en:Credits q=Xg*PM,  
8@7AE"  
[attachment=undefined] #w~0uCzQ@  
WL~`u  
本部分内容设定了隐藏,需要回复后才能看到