切换到宽版
  • 757阅读
  • 0回复

鬼债/付给灵魂.Pay.The.Ghost.2015.1080p.WEB-DL.DD5.1.H264-RARBG [复制链接]

上一主题 下一主题
 

只看楼主 倒序阅读 使用道具 0 发表于: 2015-10-21
]gPx%c  
◎译  名 鬼债/付给灵魂 @ ,X/Wf  
◎片  名 Pay the Ghost BGibBF^  
◎年  代 2015 LD[\eJ _  
◎国  家 美国 <<d#  
◎类  别 惊悚 t!rrYBSCr  
◎语  言 英语 R&W%E%uj  
◎字  幕 英文 vOlfyH>  
◎IMDB评分 8.8/10 from 26 users   }V] b4t  
◎IMDB链接 http://www.imdb.com/title/tt3733778/ 6t;;Fz  
◎文件格式 H264 + DD5.1 KU $,{Sn6@  
◎视频尺寸 1912 x 792 ]}/Rl}_  
◎文件大小 3.11 GiB L-?ty@-i  
◎片  长 1h 34mn H1U$ApD  
◎导  演 乌利·艾德 Uli Edel Ne<S_u2nT  
◎主  演 尼古拉斯·凯奇 Nicolas Cage ...Mike Lawford l3b=8yn.  
      莎拉·韦恩·卡丽丝 Sarah Wayne Callies ...Kristen *RS/`a;,  
      Alex Mallari Jr.  ...Actor <1I4JPh>x  
      Veronica Ferres ...Hannah l GYW[0dy  
      莱瑞克·本特 Lyriq Bent ...Detective Reynolds )=GPhC/sw  
      Jack Fulton ...Charlie Wx-0Ip'9  
      Sofia Wells ...Middle Child o A2oX  
      Elizabeth Jeanne le Roux ...Mom b EcN_7  
      Erin Boyes ...Emily :u9'ZHkZ  
      Ho Chow ...Dai Wok Cook \12G,tBH  
      Mark Irvingsen ...Angry Villager wyX3qH  
      Maxwell McCabe-Lokos ..Mr. Moldanado J(}PvkA  
      Lauren Beatty ...Annie Sawquin P x Q]$w  
      Juan Carlos Velis ...Morales MkMDI)Y|  
      Omar Alex Khan ...Medical Examiner 4#>Z.sf  
t!3s@  
(8m_GfT  
PY_8*~Z  
◎简  介  zB0*KgAn{  
|Io:D:  
=| T^)J  
  大约一年前儿子在纽约的万圣节游行上从他身边突然消失后,麦克·科尔(尼古拉斯·凯奇 Nicolas Cage 饰)被一些关于儿子的可怕的景象弄得忧心忡忡的,并且开始以各种恐怖的方式感受到他的存在。 &Cb,C+q  
s i2@k  
DqWy@7 a  
  为了展开行动,麦克联合他已经分居的妻子克里斯汀(莎拉·韦恩·卡丽丝 Sarah Wayne Callies 饰),在不顾一切寻找儿子的过程中他们揭开了一连串可怕的线索,不久他们就发现在每个万圣节都有一个邪恶的复仇之灵浮现出来绑架儿童,如果不能在一个短暂的时间之窗里救出儿子,他将会永远的迷失在幽灵世界中..... 'd Be,@  
8<}=f4vUj5  
Video Kw"e4 a  
ID                                       : 1 34Gu @"  
Format                                   : AVC (U# ,;  
Format/Info                              : Advanced Video Codec )B $Q  
Format profile                           : High@L4 mvH8hvD9  
Format settings, CABAC                   : Yes VsSAb%  
Format settings, ReFrames                : 5 frames [ x+ -N7  
Codec ID                                 : V_MPEG4/ISO/AVC D"aK;_W@h  
Duration                                 : 1h 34mn {.kIC @^O  
Bit rate                                 : 4 253 Kbps R.WB.FP  
Width                                    : 1 912 pixels *#>(P  
Height                                   : 792 pixels A z@@0  
Display aspect ratio                     : 2.40:1 w;}5B~).  
Frame rate mode                          : Constant b-8@_@f|g  
Frame rate                               : 23.976 fps 9;% $  
Color space                              : YUV k0=!%f_G!  
Chroma subsampling                       : 4:2:0 T8\@CV!  
Bit depth                                : 8 bits i/-IjgM"-  
Scan type                                : Progressive ($`IHKF1.l  
Bits/(Pixel*Frame)                       : 0.117 i JhieNn  
Stream size                              : 2.79 GiB (90%) @d{}M)6\!  
Title                                    : Pay.The.Ghost.2015.1080p.WEB-DL.DD5.1.H264-RARBG ^A&{g.0  
Language                                 : English USEmD5q  
Default                                  : Yes Zs/-/C|  
Forced                                   : No ){P`-ZF  
Color range                              : Limited 'fK=; mM  
Color primaries                          : BT.709 [r>hK ZU2  
Transfer characteristics                 : BT.709 R5QW4i9  
Matrix coefficients                      : BT.709 T_2'=7  
z =H?@z  
Audio *0,*F~n  
ID                                       : 2 H#GR*4x  
Format                                   : AC-3 "24d:vf\  
Format/Info                              : Audio Coding 3 &u|t{C#0  
Mode extension                           : CM (complete main) +7OE,RoQ  
Format settings, Endianness              : Big )x [=}0C  
Codec ID                                 : A_AC3 }` `oojz  
Duration                                 : 1h 34mn } -4p8Zt  
Bit rate mode                            : Constant _3wJ;cn.  
Bit rate                                 : 384 Kbps ?~.9: 93  
Channel(s)                               : 6 channels EhO\N\p(Q=  
Channel positions                        : Front: L C R, Side: L R, LFE h\#4[/  
Sampling rate                            : 48.0 KHz Kg2@]J9m  
Compression mode                         : Lossy Rq(+zL(f  
Stream size                              : 258 MiB (8%) 4V@0L  
Title                                    : Pay.The.Ghost.2015.1080p.WEB-DL.DD5.1.H264-RARBG YVRE 9  
Language                                 : English J.2B By  
Default                                  : Yes HSG9|}$  
Forced                                   : No >Gg[J=7`  
=#TQXm']Gi  
Text |OF3J,q  
ID                                       : 3 b,HXD~=  
Format                                   : UTF-8 rf$[8d  
Codec ID                                 : S_TEXT/UTF8 ;ACeY  
Codec ID/Info                            : UTF-8 Plain Text ?\Y7]_]/  
Language                                 : English $\4Or  
Default                                  : Yes ,h 3,& ,  
Forced                                   : No Z#%77!3  
g5Hsz,x  
Menu < R@& <E6  
00:00:00.000                             : en:Old New York y;9K  
00:07:43.000                             : en:Spare A Thought For Lovecraft jT QN(a9Y  
00:15:04.000                             : en:Halloween Carnival dnPr2oI?I  
00:25:58.000                             : en:One Year Later B;{sr'CP  
00:31:41.000                             : en:Visions Of Charlie Z[j-.,Qu  
00:38:21.000                             : en:Kristen And Mike ~>$(5 s2  
00:48:41.000                             : en:Something Mysterious Out There Q([g1?F9*  
00:58:51.000                             : en:The Celtic Goddess T5U(B3j_  
01:06:42.000                             : en:Final Day Of Sowin 7xT<|3 I  
01:12:40.000                             : en:Hannah Sag\wKV8  
01:16:42.000                             : en:Crossing To The Other Side p7O4CP>9[  
01:28:34.000                             : en:Credits tX}Fb0y  
`V0]t_*D  
[attachment=undefined]  })w5`?Y  
Y!s/uvRI  
本部分内容设定了隐藏,需要回复后才能看到