切换到宽版
  • 724阅读
  • 0回复

鬼债/付给灵魂.Pay.The.Ghost.2015.1080p.WEB-DL.DD5.1.H264-RARBG [复制链接]

上一主题 下一主题
 

只看楼主 倒序阅读 使用道具 0 发表于: 2015-10-21
.r|vz6tU?  
◎译  名 鬼债/付给灵魂 U9o*6`"o  
◎片  名 Pay the Ghost 6J-}&U  
◎年  代 2015 8Qz7uPq  
◎国  家 美国 d+2O^of:T  
◎类  别 惊悚 0bxvM  
◎语  言 英语 =P;;&j3Z  
◎字  幕 英文 EjX'&"3.  
◎IMDB评分 8.8/10 from 26 users   !-RpRRR[Co  
◎IMDB链接 http://www.imdb.com/title/tt3733778/ O 4Pd N?  
◎文件格式 H264 + DD5.1 :5K ~/=6x  
◎视频尺寸 1912 x 792 : |*,Lwvd  
◎文件大小 3.11 GiB P>T*:!s;  
◎片  长 1h 34mn \Tf{ui  
◎导  演 乌利·艾德 Uli Edel Wx|6A#cg!  
◎主  演 尼古拉斯·凯奇 Nicolas Cage ...Mike Lawford uP=_-ZUW  
      莎拉·韦恩·卡丽丝 Sarah Wayne Callies ...Kristen O?,i?  
      Alex Mallari Jr.  ...Actor SxW}Z_8x  
      Veronica Ferres ...Hannah TnBGMI,g'  
      莱瑞克·本特 Lyriq Bent ...Detective Reynolds FV6he [,  
      Jack Fulton ...Charlie 9h38`*Im;  
      Sofia Wells ...Middle Child Q xF8=p  
      Elizabeth Jeanne le Roux ...Mom mERZ_[a2  
      Erin Boyes ...Emily 'Tf#S@o  
      Ho Chow ...Dai Wok Cook 5- 5(`OZ{'  
      Mark Irvingsen ...Angry Villager F}B/-".^  
      Maxwell McCabe-Lokos ..Mr. Moldanado 9poEUjBI  
      Lauren Beatty ...Annie Sawquin LYy:IBI7_  
      Juan Carlos Velis ...Morales YV3TxvXMR  
      Omar Alex Khan ...Medical Examiner d!QD vO  
)47j8jL  
&8_f'+i0  
SeZT4y*=  
◎简  介  ,Z*3,/a  
1|EU5<  
M`C~6Mf+  
  大约一年前儿子在纽约的万圣节游行上从他身边突然消失后,麦克·科尔(尼古拉斯·凯奇 Nicolas Cage 饰)被一些关于儿子的可怕的景象弄得忧心忡忡的,并且开始以各种恐怖的方式感受到他的存在。 n|mJ E,N  
R3{*v =ov  
9{UP)1 7  
  为了展开行动,麦克联合他已经分居的妻子克里斯汀(莎拉·韦恩·卡丽丝 Sarah Wayne Callies 饰),在不顾一切寻找儿子的过程中他们揭开了一连串可怕的线索,不久他们就发现在每个万圣节都有一个邪恶的复仇之灵浮现出来绑架儿童,如果不能在一个短暂的时间之窗里救出儿子,他将会永远的迷失在幽灵世界中..... ;vv!qBl|@  
t1:S!@  
Video Vi? ~0.Z%  
ID                                       : 1 jRdhLs,M9  
Format                                   : AVC kk /+Vx~  
Format/Info                              : Advanced Video Codec ^0-e,d 9h  
Format profile                           : High@L4 a ._^E/EV  
Format settings, CABAC                   : Yes Y0L5W;iM  
Format settings, ReFrames                : 5 frames =wlm  
Codec ID                                 : V_MPEG4/ISO/AVC Ef_F#X0#  
Duration                                 : 1h 34mn Wq{d8|)1  
Bit rate                                 : 4 253 Kbps o3i,B),K  
Width                                    : 1 912 pixels orQ V'  
Height                                   : 792 pixels Ql: b1C,  
Display aspect ratio                     : 2.40:1 \o62OfF!  
Frame rate mode                          : Constant Xv-1PY':pA  
Frame rate                               : 23.976 fps K[#v(<)  
Color space                              : YUV Pi"~/MGP$  
Chroma subsampling                       : 4:2:0 KT lP:pB;  
Bit depth                                : 8 bits |`k1zc)9  
Scan type                                : Progressive p( H)W D  
Bits/(Pixel*Frame)                       : 0.117 (ifqwl62  
Stream size                              : 2.79 GiB (90%) ){:q;E]^fB  
Title                                    : Pay.The.Ghost.2015.1080p.WEB-DL.DD5.1.H264-RARBG qr'x0r|<>  
Language                                 : English N o_$!)J.  
Default                                  : Yes PzMlua  
Forced                                   : No 43{_Y]  
Color range                              : Limited clq~ ;hx  
Color primaries                          : BT.709 /jjW/ lr  
Transfer characteristics                 : BT.709 h+B'_ `(  
Matrix coefficients                      : BT.709 _UH/}!nqB  
-40'[a9E  
Audio <m Ju v  
ID                                       : 2 Mz/]DJ8  
Format                                   : AC-3  4]DAh  
Format/Info                              : Audio Coding 3 y~== waZw  
Mode extension                           : CM (complete main) LXh@o1  
Format settings, Endianness              : Big IDGQIg  
Codec ID                                 : A_AC3 WA]%,6  
Duration                                 : 1h 34mn J8GXI:y  
Bit rate mode                            : Constant D0Vyh"ua  
Bit rate                                 : 384 Kbps W9&0k+#^  
Channel(s)                               : 6 channels RjR&D?dc  
Channel positions                        : Front: L C R, Side: L R, LFE Xq8uY/j  
Sampling rate                            : 48.0 KHz (C-,ljY  
Compression mode                         : Lossy PwFQ#Z  
Stream size                              : 258 MiB (8%) :rz9M@7  
Title                                    : Pay.The.Ghost.2015.1080p.WEB-DL.DD5.1.H264-RARBG fV.A=*1l#  
Language                                 : English D EUd[  
Default                                  : Yes Sk6b`W7$  
Forced                                   : No "8wf.nZ  
&Q-[;  
Text YVQ_tCC_!  
ID                                       : 3 zdxT35h  
Format                                   : UTF-8 ~")h E%Kl}  
Codec ID                                 : S_TEXT/UTF8 #dva0%-1  
Codec ID/Info                            : UTF-8 Plain Text )z2|"Lp  
Language                                 : English YMc8Q\*B  
Default                                  : Yes ~`*1*;Q<H|  
Forced                                   : No T[5gom  
~t'#nV  
Menu :r1;}hIA9  
00:00:00.000                             : en:Old New York wF|0n t  
00:07:43.000                             : en:Spare A Thought For Lovecraft @k=cN>ZMc  
00:15:04.000                             : en:Halloween Carnival U0NOU#  
00:25:58.000                             : en:One Year Later zW*}`S "  
00:31:41.000                             : en:Visions Of Charlie B<|:K \MA  
00:38:21.000                             : en:Kristen And Mike l,*yEkU  
00:48:41.000                             : en:Something Mysterious Out There LYd}w(}  
00:58:51.000                             : en:The Celtic Goddess E:uReT  
01:06:42.000                             : en:Final Day Of Sowin Uj4Lu  
01:12:40.000                             : en:Hannah Yw6DJY  
01:16:42.000                             : en:Crossing To The Other Side 1vB-M6(  
01:28:34.000                             : en:Credits 4` '8fe/ "  
V~/.Y&WN  
[attachment=undefined] 6eOrs-ty  
cU7rq j_  
本部分内容设定了隐藏,需要回复后才能看到