切换到宽版
  • 809阅读
  • 0回复

鬼债/付给灵魂.Pay.The.Ghost.2015.1080p.WEB-DL.DD5.1.H264-RARBG [复制链接]

上一主题 下一主题
 

只看楼主 倒序阅读 使用道具 0 发表于: 2015-10-21
3o"l sly  
◎译  名 鬼债/付给灵魂 S~&9DQN j  
◎片  名 Pay the Ghost s,l*=<  
◎年  代 2015 .~TI%&#  
◎国  家 美国 3+q-yP#X  
◎类  别 惊悚 t:xTmK&vt  
◎语  言 英语 P>$+XrTE  
◎字  幕 英文 InRcIQT  
◎IMDB评分 8.8/10 from 26 users   "KSdC8MS  
◎IMDB链接 http://www.imdb.com/title/tt3733778/ lHHx D  
◎文件格式 H264 + DD5.1 hZ.](rD  
◎视频尺寸 1912 x 792 Y kvEQ=  
◎文件大小 3.11 GiB [Z&<# -  
◎片  长 1h 34mn cr?ZXu_  
◎导  演 乌利·艾德 Uli Edel P0U&+^W"9  
◎主  演 尼古拉斯·凯奇 Nicolas Cage ...Mike Lawford ln":j?`  
      莎拉·韦恩·卡丽丝 Sarah Wayne Callies ...Kristen hlz/TIP^N3  
      Alex Mallari Jr.  ...Actor @;KvUR/+FE  
      Veronica Ferres ...Hannah N9M",(WTt}  
      莱瑞克·本特 Lyriq Bent ...Detective Reynolds &PFq(4  
      Jack Fulton ...Charlie Og8%SnEpMI  
      Sofia Wells ...Middle Child O7 yj<  
      Elizabeth Jeanne le Roux ...Mom oq b(w+<  
      Erin Boyes ...Emily !lA~;F  
      Ho Chow ...Dai Wok Cook K@:Ab'(P^|  
      Mark Irvingsen ...Angry Villager $vn)(zn+  
      Maxwell McCabe-Lokos ..Mr. Moldanado  =WEDQ\ c  
      Lauren Beatty ...Annie Sawquin ] ;HCt=I~  
      Juan Carlos Velis ...Morales I1s$\NZ~]  
      Omar Alex Khan ...Medical Examiner dxH .  
h##U=`x3  
L"0?g( < 5  
gv i!|!M=  
◎简  介  "v0SvV<7  
|CQ0{1R1  
(m=1yj9  
  大约一年前儿子在纽约的万圣节游行上从他身边突然消失后,麦克·科尔(尼古拉斯·凯奇 Nicolas Cage 饰)被一些关于儿子的可怕的景象弄得忧心忡忡的,并且开始以各种恐怖的方式感受到他的存在。 a4Z e!l(  
n-,mC /4  
7{9M ^.}  
  为了展开行动,麦克联合他已经分居的妻子克里斯汀(莎拉·韦恩·卡丽丝 Sarah Wayne Callies 饰),在不顾一切寻找儿子的过程中他们揭开了一连串可怕的线索,不久他们就发现在每个万圣节都有一个邪恶的复仇之灵浮现出来绑架儿童,如果不能在一个短暂的时间之窗里救出儿子,他将会永远的迷失在幽灵世界中..... D G&aFmC  
ZF8`= D`:R  
Video yf-2E_yB  
ID                                       : 1 H^vA}F`  
Format                                   : AVC YN7`18u  
Format/Info                              : Advanced Video Codec pRUQMPn (  
Format profile                           : High@L4 Md8<IFi9]Q  
Format settings, CABAC                   : Yes }9!}T~NMs  
Format settings, ReFrames                : 5 frames <Q`3;ca^  
Codec ID                                 : V_MPEG4/ISO/AVC >;VZB/ d  
Duration                                 : 1h 34mn o` dQ  
Bit rate                                 : 4 253 Kbps z\?<j%e!t  
Width                                    : 1 912 pixels bf2r8   
Height                                   : 792 pixels q|r*4={^!*  
Display aspect ratio                     : 2.40:1 w@n}DCFt  
Frame rate mode                          : Constant 6Ypc]ym=J  
Frame rate                               : 23.976 fps ,) aUp4*  
Color space                              : YUV ~k}O"{ y  
Chroma subsampling                       : 4:2:0 Q ("4R  
Bit depth                                : 8 bits 3-kL0Q["  
Scan type                                : Progressive 7KJ0>0~Et  
Bits/(Pixel*Frame)                       : 0.117 xO,;4uE  
Stream size                              : 2.79 GiB (90%) mZuLwd$0  
Title                                    : Pay.The.Ghost.2015.1080p.WEB-DL.DD5.1.H264-RARBG <=w!:   
Language                                 : English WT3g31  
Default                                  : Yes @O-\s q  
Forced                                   : No R|` `A5zQ  
Color range                              : Limited |x>5T}  
Color primaries                          : BT.709 =^_a2_BBl  
Transfer characteristics                 : BT.709 0"ooHP$1  
Matrix coefficients                      : BT.709 w ykaf   
cqW(9A|8  
Audio BMV\@Sg  
ID                                       : 2 p{ ``a=  
Format                                   : AC-3 U;"J8  
Format/Info                              : Audio Coding 3 f/4DFs{  
Mode extension                           : CM (complete main) whrDw1>(  
Format settings, Endianness              : Big 7u5H o`  
Codec ID                                 : A_AC3 S 2W@;XvV  
Duration                                 : 1h 34mn '#.D`9YI<  
Bit rate mode                            : Constant W/~q%\M {  
Bit rate                                 : 384 Kbps {zLgLBM  
Channel(s)                               : 6 channels j'hWhLax  
Channel positions                        : Front: L C R, Side: L R, LFE Q~P|=*  
Sampling rate                            : 48.0 KHz Gi2Fjq/Y  
Compression mode                         : Lossy ugTnz$  
Stream size                              : 258 MiB (8%) w*o2lg9  
Title                                    : Pay.The.Ghost.2015.1080p.WEB-DL.DD5.1.H264-RARBG U}5]Vm$]  
Language                                 : English WW!-,d{{@  
Default                                  : Yes D]|{xKC}  
Forced                                   : No m| 7v76(  
a0Fq$  
Text `0!%jz=  
ID                                       : 3 $+Z2q<UT  
Format                                   : UTF-8 6E^9>  
Codec ID                                 : S_TEXT/UTF8 GMoz$c6n_  
Codec ID/Info                            : UTF-8 Plain Text DnW/q  
Language                                 : English {k[dg0UV  
Default                                  : Yes xe3Jxo !U  
Forced                                   : No H\9ePo\b~  
GZY:EHuz[  
Menu 3*(><<ZC  
00:00:00.000                             : en:Old New York BlcsDB =ka  
00:07:43.000                             : en:Spare A Thought For Lovecraft $ d,{I8d  
00:15:04.000                             : en:Halloween Carnival l m(mY$B*_  
00:25:58.000                             : en:One Year Later imhE=6{  
00:31:41.000                             : en:Visions Of Charlie aH8]$e8_,\  
00:38:21.000                             : en:Kristen And Mike -9o7a_Z  
00:48:41.000                             : en:Something Mysterious Out There /;E=)(w  
00:58:51.000                             : en:The Celtic Goddess ]v]:8>N  
01:06:42.000                             : en:Final Day Of Sowin ,Ik~E&Ku2'  
01:12:40.000                             : en:Hannah -C!m#"PDW  
01:16:42.000                             : en:Crossing To The Other Side `gJ$fTi&  
01:28:34.000                             : en:Credits )a `kL,  
pqju@FD *  
[attachment=undefined] o& $lik  
,pQ[e$u1  
本部分内容设定了隐藏,需要回复后才能看到