切换到宽版
  • 885阅读
  • 0回复

鬼债/付给灵魂.Pay.The.Ghost.2015.1080p.WEB-DL.DD5.1.H264-RARBG [复制链接]

上一主题 下一主题
 

只看楼主 倒序阅读 使用道具 0 发表于: 2015-10-21
Mf63 59  
◎译  名 鬼债/付给灵魂 "8X+F%  
◎片  名 Pay the Ghost 1$W!<:uh  
◎年  代 2015 6bn-NY:i  
◎国  家 美国 Pg36'aTe%j  
◎类  别 惊悚 G# C)]4[n  
◎语  言 英语 U|QDV16f  
◎字  幕 英文 aU!UY(  
◎IMDB评分 8.8/10 from 26 users   :[&X*bw[  
◎IMDB链接 http://www.imdb.com/title/tt3733778/ ;D7jE+  
◎文件格式 H264 + DD5.1 Sm,$~~iq}  
◎视频尺寸 1912 x 792 Kna'5L5"  
◎文件大小 3.11 GiB z=U!D `] v  
◎片  长 1h 34mn |+bG~~~%j  
◎导  演 乌利·艾德 Uli Edel zl[JnVF\6  
◎主  演 尼古拉斯·凯奇 Nicolas Cage ...Mike Lawford |"< I\Vs:  
      莎拉·韦恩·卡丽丝 Sarah Wayne Callies ...Kristen 8FITcK^  
      Alex Mallari Jr.  ...Actor sFTIRVXN,  
      Veronica Ferres ...Hannah GS H{1VS_b  
      莱瑞克·本特 Lyriq Bent ...Detective Reynolds .%A2  
      Jack Fulton ...Charlie yN.D(ZwF:  
      Sofia Wells ...Middle Child on\\;V_/Q  
      Elizabeth Jeanne le Roux ...Mom YB|9k)Z2[  
      Erin Boyes ...Emily P.:T zk6  
      Ho Chow ...Dai Wok Cook 9vu8koL  
      Mark Irvingsen ...Angry Villager -Me\nu8(RF  
      Maxwell McCabe-Lokos ..Mr. Moldanado C(t/:?(y  
      Lauren Beatty ...Annie Sawquin _;{-w%Vf  
      Juan Carlos Velis ...Morales K;l'IN"N  
      Omar Alex Khan ...Medical Examiner 2'U9!. o  
'Ot[q^,KRG  
jlBCu(.,_  
fLAF/#\2  
◎简  介  h~p}08  
cIp h$@  
wrU[#g,uvr  
  大约一年前儿子在纽约的万圣节游行上从他身边突然消失后,麦克·科尔(尼古拉斯·凯奇 Nicolas Cage 饰)被一些关于儿子的可怕的景象弄得忧心忡忡的,并且开始以各种恐怖的方式感受到他的存在。 8.':pY'8"  
[Bo$?  
A\)X&vR[6  
  为了展开行动,麦克联合他已经分居的妻子克里斯汀(莎拉·韦恩·卡丽丝 Sarah Wayne Callies 饰),在不顾一切寻找儿子的过程中他们揭开了一连串可怕的线索,不久他们就发现在每个万圣节都有一个邪恶的复仇之灵浮现出来绑架儿童,如果不能在一个短暂的时间之窗里救出儿子,他将会永远的迷失在幽灵世界中..... 0 y%R  
]r6bJ 2  
Video }nl)*l  
ID                                       : 1 W\7*T1TDj  
Format                                   : AVC YC<I|&"  
Format/Info                              : Advanced Video Codec G m! ]   
Format profile                           : High@L4 dk/*%a +  
Format settings, CABAC                   : Yes }o- P   
Format settings, ReFrames                : 5 frames E,@UM$alP  
Codec ID                                 : V_MPEG4/ISO/AVC 8A.7=C' z  
Duration                                 : 1h 34mn 8)8oR&(f  
Bit rate                                 : 4 253 Kbps >U Lp!  
Width                                    : 1 912 pixels [!mjUsut*  
Height                                   : 792 pixels I:<R@V<~#  
Display aspect ratio                     : 2.40:1 ;7k7/f:  
Frame rate mode                          : Constant XD}_9p  
Frame rate                               : 23.976 fps gUA}%YXe  
Color space                              : YUV Vz]=J;`Mz  
Chroma subsampling                       : 4:2:0 I>Q,]S1h  
Bit depth                                : 8 bits 9G+rxyWMW  
Scan type                                : Progressive ~+yo;[1Yc  
Bits/(Pixel*Frame)                       : 0.117 wt S*w  
Stream size                              : 2.79 GiB (90%) T(^8ki  
Title                                    : Pay.The.Ghost.2015.1080p.WEB-DL.DD5.1.H264-RARBG C/Bx_j((  
Language                                 : English T9-a uK0d  
Default                                  : Yes f"N3;,Oc  
Forced                                   : No \r,. hUp  
Color range                              : Limited WI_mJ/2  
Color primaries                          : BT.709 b] ?;R  
Transfer characteristics                 : BT.709 8T )ELhTj  
Matrix coefficients                      : BT.709 I>Fh*2  
D ;$+]2  
Audio agT[y /gb  
ID                                       : 2 DW&')gfQ  
Format                                   : AC-3 }# 5roNH~Z  
Format/Info                              : Audio Coding 3  \3?;[xD  
Mode extension                           : CM (complete main) fcXk]W  
Format settings, Endianness              : Big  5G;^OI!g  
Codec ID                                 : A_AC3 6D"`FPC  
Duration                                 : 1h 34mn W r7e_   
Bit rate mode                            : Constant <|Eby!KXR  
Bit rate                                 : 384 Kbps yc=#Jn?S  
Channel(s)                               : 6 channels ik0Q^^1?Y  
Channel positions                        : Front: L C R, Side: L R, LFE {0WID D  
Sampling rate                            : 48.0 KHz ]f-'A>MC  
Compression mode                         : Lossy .t[ZXrd| 0  
Stream size                              : 258 MiB (8%) 0P3|1=  
Title                                    : Pay.The.Ghost.2015.1080p.WEB-DL.DD5.1.H264-RARBG Ds,"E#?  
Language                                 : English LE80`t>M#  
Default                                  : Yes JO{- P  
Forced                                   : No [k 7N+W8  
/M*\t.[ 46  
Text aDvO (C  
ID                                       : 3 bK$D lBZ  
Format                                   : UTF-8 @ ^6OV)  
Codec ID                                 : S_TEXT/UTF8 6ri?y=-c  
Codec ID/Info                            : UTF-8 Plain Text wDMB  
Language                                 : English r9a!,^}F  
Default                                  : Yes | 4oM+n ;Y  
Forced                                   : No c0Ro3j\p  
\ +-hn  
Menu jI2gi1 ,a  
00:00:00.000                             : en:Old New York A+1]Ql)$  
00:07:43.000                             : en:Spare A Thought For Lovecraft I+j|'=M  
00:15:04.000                             : en:Halloween Carnival ) a\DS yr  
00:25:58.000                             : en:One Year Later gXLZ)>+A+  
00:31:41.000                             : en:Visions Of Charlie CSqb)\8Oi*  
00:38:21.000                             : en:Kristen And Mike K-k.=6 mS  
00:48:41.000                             : en:Something Mysterious Out There })Mv9~&S  
00:58:51.000                             : en:The Celtic Goddess fQTA@WAr  
01:06:42.000                             : en:Final Day Of Sowin ;E?  hz  
01:12:40.000                             : en:Hannah n 5* {hi  
01:16:42.000                             : en:Crossing To The Other Side Q1I_=fT  
01:28:34.000                             : en:Credits Q()RO*9  
2|H91Y2  
[attachment=undefined] ;n7|.O]*  
X)iWb(@k"7  
本部分内容设定了隐藏,需要回复后才能看到