切换到宽版
  • 843阅读
  • 1回复

像素大战/像素入侵.Pixels.2015.1080p.BluRay.x264.DTS-RARBG [复制链接]

上一主题 下一主题
 

只看楼主 倒序阅读 使用道具 0 发表于: 2015-10-11
( z8]FT  
◎译  名 像素大战/像素入侵/天煞:像素之战/像素/世界大对战(台)/屈机起格命(港) _hAj2%SL  
◎片  名 Pixels )Gi FkG  
◎年  代 2015 6vD]@AF  
◎国  家 美国/中国/加拿大 @<@R=aqE  
◎类  别 动作/喜剧/科幻 .ujs`9d_-  
◎语  言 英语 4A\BGD*5  
◎字  幕 英文 dWzDSlP&  
◎IMDB评分5..6/10 from 31,288 users       wx]+*Lzz  
◎IMDB链接 http://www.imdb.com/title/tt2120120/ ^4xlZouCb  
◎文件格式 H264 + DTS #~bU}[ {  
◎视频尺寸 1920 x 808 9IS1.3  
◎文件大小 1CD 8.32 GiB {pcf;1^t  
◎片  长 1h 45mn H(5S Kv5  
◎导  演 克里斯·哥伦布 Chris Columbus   LVR;&Z>j  
◎主  演 亚当·桑德勒 Adam Sandler ...Brenner >,w\lf9  
                  凯文·詹姆斯 Kevin James...Cooper tJ?qcT?  
                  米歇尔·莫纳汉 Michelle Monaghan ...Violet _ 6+,R  
                  彼特·丁克拉奇 Peter Dinklage ...Eddie gmF_~"^34  
                  Josh Gad ...Ludlow hYP6z^  
                  Matt Lintz ...Matty >cwJl@wx-  
                  Brian Cox ...Admiral Porter v7{ P].M  
                  Sean Bean ...Corporal Hill (SAS Officer) E)&NP}k-P  
                  Jane Krakowski ...First Lady Jane Cooper Pi &fwGL  
                  Dan Aykroyd ...1982 Championship MC 5t"bCzp  
                  Affion Crockett ...Sergeant Dylan Cohan &X#x9|=&O  
                  Lainie Kazan ...Mickey Lamonsoff _/QKWk&j  
                  Ashley Benson ...Lady Lisa >\6jb&,%O  
                  Denis Akiyama ...Professor Iwatani Gx(KN57D  
                  Tom McCarthy ...Michael the Robot   ~.PPf/ Z8]  
;X* K*q  
'mBLf&fB  
◎简  介 /?.r!Cp  
)*^ OPVt  
     h8iaJqqvJ  
  作为1980年代的小孩,山姆·布伦纳(亚当·桑德勒 Adam Sandler 饰), 威尔·库珀(凯文·詹姆斯 Kevin James 饰),勒德洛·莱门梢夫(乔什·加德 Josh Gad 饰)和“火焰爆破枪”埃迪·普兰特(彼特·丁克拉奇 Peter Dinklage 饰)拯救过世界成千上万次——在游戏机室里二十五美分玩一次的游戏里。现在,他们必须得真刀真枪作战了。 G:h;C].  
1}n)J6m  
  在像素大战中,当外星人发现经典街机游戏视频流并且误以为这是在宣战后,他们袭击了地球,运用游戏作为他们袭击策略——而现在美国总统库珀必须召集他旧日的街机战友一起拯救世界免受吃豆人、大金刚、小蜜蜂、蜈蚣还有太空入侵者毁灭。加入他们一起战斗的,还有一名向街机斗士提供外星人战斗专用武器的专家,维奥莱特·冯·帕顿中校(米歇尔·莫纳汉 Michelle Monaghan 饰)。他们的唯一目标是,战胜8比特像素外星人,保卫地球…… zn2"swhq\V  
+ ,vJ7  
花絮 M/8#&RycQ  
&;NNU T>Q  
.根据2010年短片《像素入侵纽约城》改编。短片只有两分半钟,导演帕特里克·让是一家法国公司计算机绘图师,放到网上后一夜之间点击率过百万,之后便被好莱坞多家制片厂所相中。 c"%_]7  
T(sG.%  
.很多工作室都想把帕特里克·让的概念拍成电影,而让选择桑德勒是因为“我看过他很多电影,比如《狂野之爱》和《滑稽人物》。我们第一次会面也很棒,我可以感觉到他们对这部电影的热情和渴望。” Y-neD?VN  
^huBqEs  
.桑德勒回忆起自己第一次看到短片的情形,“当时我在办公室,看完后激动不已,马上就觉得这能拍成一部电影——这是一种怀旧情感,很酷。看到大金刚和所有你童年的小伙伴攻占城市,太有趣了。” (04j4teE  
O9qKwn;q(  
.为了搞定吃豆人以及其他角色的版权问题,剧组花费了很大的功夫。演员米歇尔·莫娜汉开玩笑说,和所有的游戏角色达成交易比任何一个演员都要更难。 zal3j^  
Fu1|b2B-x  
.哥伦布希望这部电影能够触到观众心灵,骚到观众痒处,给观众带来视觉震撼。他说:“这是一部缅怀80年代的片子,是一封寄给80年代的情书。” NSiYUAu g  
k<j)?_=`  
.哥伦布形容影片的配乐风格类似于安培林娱乐公司(Amblin Entertainment,斯皮尔伯格的制片公司),诸如《回到未来》,“我们想要营造的就是那种怀旧的感觉和气氛。” *mK);@pL  
lvz:UWo  
.据说,影片的设定借鉴了动画片《飞出个未来》(Futurama)2002年播出的《Anthology Of Interest II》(第八季第四集)中的情节。合作。 Ivt)Eg  
$:-= >  
.岩谷教授(Professor Iwatani)这个角色的原型是现实中的岩谷彻(Toru Iwatani),一位日本游戏设计师,他是经典的《吃豆人》游戏的创造者。。 QAOk  
]mO+<{{4X  
.影片中显示的游戏最高分是以现实为基础。吃豆人最高分为满分333万3360分,最先由Billy Mitchell完成,片中的Sam也达到了满分。 Be14$7r  
vUIK4uR.  
.Ludlow Lamonsoff的Centipede得分为1638万9548分,比现实中世界上最高分纪录持有者Jim Schneider高出一分。Eddie Plant《大金刚》得分为106万8100分,比前世界记录保持者Hank Chien高出100分。 Op$J "R  
4Ow Vt&  
.彼特·丁拉基饰演的Eddie Plant是以真实的游戏高手Billy Mitchell为原型,他是1982年到2000年间《大金刚》游戏最高得分纪录保持者。 x9&tlKKxf  
.U(SkZ`6  
.乔什·盖德2013年出演《定制伴郎》,他的角色声称“吃豆人”是他最喜欢的超级英雄,不过在本片中,吃豆人变成了毁灭人类的大坏蛋。 P`IMvOs&  
 7 zP  
.《像素大战》已经是亚当·桑德勒与凯文·詹姆斯第九次在电影或者电视作品中合作。 /J9T=N  
rfZj8R&  
.詹妮弗·安妮斯顿拒绝了在本片中饰演女主角,她的位置由米歇尔·莫娜汉接替。 BorfEv} SN  
+DV6oh  
获奖记录 2h? r![  
1Sc~Vb|>  
青少年选择奖(2015;第17届) 4iPua"8  
提名 kAQ\t?`x  
·青少年选择奖-最佳夏日电影男星亚当·桑德勒 Adam Sandler _I 70qz8  
Ci#5@Q9#w  
:#&U95EC0  
##+ 8GLQM  
Video ,IVr4#w0=  
ID                                       : 1 PJ11LE  
Format                                   : AVC k s`  
Format/Info                              : Advanced Video Codec M IyLQ  
Format profile                           : High@L4.1 m{y NnJ3O  
Format settings, CABAC                   : Yes Nxs%~ wZ   
Format settings, ReFrames                : 5 frames `zsk*W1GA  
Codec ID                                 : V_MPEG4/ISO/AVC #]\G*>{  
Duration                                 : 1h 45mn vhe Ah`u^&  
Bit rate                                 : 9 711 Kbps q2U"k  
Width                                    : 1 920 pixels 8/kO9'.P  
Height                                   : 808 pixels Nwu Be:"@  
Display aspect ratio                     : 2.40:1 %Ja{IWz9L  
Frame rate mode                          : Constant _.8]7f`*Gc  
Frame rate                               : 23.976 fps d=OO(sf  
Color space                              : YUV =/'*(\C2  
Chroma subsampling                       : 4:2:0 iU+,Jeu  
Bit depth                                : 8 bits U[ O!&:6  
Scan type                                : Progressive 6o23#JgN  
Bits/(Pixel*Frame)                       : 0.261 cZ2, u,4  
Stream size                              : 7.03 GiB (85%) 9oN'.H^  
Title                                    : Pixels.2015.1080p.BluRay.x264.DTS-RARBG \hD bv5  
Writing library                          : x264 core 148 r2597 e86f3a1 "uER a(i  
Encoding settings                        : cabac=1 / ref=5 / deblock=1:0:0 / analyse=0x3:0x133 / me=umh / subme=7 / psy=1 / psy_rd=1.00:0.00 / mixed_ref=1 / me_range=16 / chroma_me=1 / trellis=1 / 8x8dct=1 / cqm=0 / deadzone=21,11 / fast_pskip=0 / chroma_qp_offset=-2 / threads=18 / lookahead_threads=3 / sliced_threads=0 / nr=0 / decimate=1 / interlaced=0 / bluray_compat=0 / constrained_intra=0 / bframes=3 / b_pyramid=2 / b_adapt=1 / b_bias=0 / direct=1 / weightb=1 / open_gop=0 / weightp=2 / keyint=250 / keyint_min=23 / scenecut=40 / intra_refresh=0 / rc_lookahead=40 / rc=2pass / mbtree=1 / bitrate=9711 / ratetol=1.0 / qcomp=0.60 / qpmin=0 / qpmax=69 / qpstep=4 / cplxblur=20.0 / qblur=0.5 / ip_ratio=1.40 / aq=1:1.00 ;}9Ws6#XQs  
Language                                 : English _q4dgi z  
Default                                  : Yes ^ J@i7FOb  
Forced                                   : No en6AAr:U}  
NbMH@6%E  
Audio {"AYOc>2|  
ID                                       : 2 n8D;6#P^  
Format                                   : DTS zw:b7B]  
Format/Info                              : Digital Theater Systems w}<I\*\`!  
Mode                                     : 16 _IGa8=~  
Format settings, Endianness              : Big !b8|{#qh.  
Codec ID                                 : A_DTS z#67rh {  
Duration                                 : 1h 45mn aL6 5t\2  
Bit rate mode                            : Constant dOgM9P  
Bit rate                                 : 1 509 Kbps hUvH t+d  
Channel(s)                               : 6 channels z9c=e46O  
Channel positions                        : Front: L C R, Side: L R, LFE c`=h K*  
Sampling rate                            : 48.0 KHz j~> #{"C  
Bit depth                                : 16 bits -+Ji~;b  
Compression mode                         : Lossy <[??\YOc  
Stream size                              : 1.12 GiB (13%) `erQp0fBM  
Title                                    : Pixels.2015.1080p.BluRay.x264.DTS-RARBG ^Iq.0E9_  
Language                                 : English z]_CFo1'l  
Default                                  : Yes XYVeHP!  
Forced                                   : No *3oQS"8  
wWswuhq<  
Text #1 a m%{M7":7  
ID                                       : 3 E1[%~Cpw*  
Format                                   : UTF-8 dL"i\5#%A  
Codec ID                                 : S_TEXT/UTF8 #Ih(2T i  
Codec ID/Info                            : UTF-8 Plain Text z1A-EeT  
Title                                    : FORCED {D.0_=y~2  
Language                                 : English pMrf i}esx  
Default                                  : Yes Cagq0-:(p  
Forced                                   : Yes d u )G)~  
} /FM#Xh  
Text #2 \"j1fAD!  
ID                                       : 4 1S@k=EKM  
Format                                   : PGS o?8j *]  
Muxing mode                              : zlib 9peB+URV  
Codec ID                                 : S_HDMV/PGS i<![i5uAI  
Codec ID/Info                            : Picture based subtitle format used on BDs/HD-DVDs lK@r?w|<M  
Title                                    : SDH ew~FN  
Language                                 : English 0M.[) @  
Default                                  : No _~<TAFBr  
Forced                                   : No ^<b.j.$<z  
CtxK{:  
Text #3 _CT|5wQF<  
ID                                       : 5 -p~B -,  
Format                                   : PGS `buTP?]4.  
Muxing mode                              : zlib c3mlO [(  
Codec ID                                 : S_HDMV/PGS $o^}<)DW  
Codec ID/Info                            : Picture based subtitle format used on BDs/HD-DVDs | mX8fRh  
Language                                 : English >?x Vr  
Default                                  : No L2tmo-]nw  
Forced                                   : No Yq.@7cJ  
;^]F~x}  
Menu u^9,u/gj  
00:00:00.000                             : en:00:00:00.000 U:(t9NX b  
00:04:54.044                             : en:00:04:54.044 4 .qjTR  
00:10:21.663                             : en:00:10:21.663 ;T(^riAEl  
00:14:51.766                             : en:00:14:51.766 '?4[w]0J<  
00:19:51.816                             : en:00:19:51.816 :oQaN[3>_  
00:26:19.870                             : en:00:26:19.870 T[J_/DE@  
00:32:57.809                             : en:00:32:57.809 -z94>}Z=  
00:40:35.475                             : en:00:40:35.475 Nrh`DyF0D!  
00:47:40.483                             : en:00:47:40.483 tL|Q{+i yE  
00:52:33.275                             : en:00:52:33.275 umYdr'p!v  
00:58:56.074                             : en:00:58:56.074 z@}~2K  
01:05:07.695                             : en:01:05:07.695 R/7l2*  
01:09:23.076                             : en:01:09:23.076 =X):Zi   
01:18:13.022                             : en:01:18:13.022 ,.B8hr@H6-  
01:27:54.186                             : en:01:27:54.186 sa])^mkq(  
01:33:53.002                             : en:01:33:53.002 _ 9dV 3I  
9:>vl0  
2 r)c?  
3m'6cMQ  
本部分内容设定了隐藏,需要回复后才能看到

只看该作者 1 发表于: 2015-11-14
本部分内容设定了隐藏,需要回复后才能看到