切换到宽版
  • 931阅读
  • 1回复

像素大战/像素入侵.Pixels.2015.1080p.BluRay.x264.DTS-RARBG [复制链接]

上一主题 下一主题
 

只看楼主 倒序阅读 使用道具 0 发表于: 2015-10-11
vU X(h.}8  
◎译  名 像素大战/像素入侵/天煞:像素之战/像素/世界大对战(台)/屈机起格命(港) Od?M4Ed(  
◎片  名 Pixels s C/5N  
◎年  代 2015 o]#M8)=  
◎国  家 美国/中国/加拿大 zi-; 7lT  
◎类  别 动作/喜剧/科幻 b?p_mQKtZ  
◎语  言 英语 |m^qA](M  
◎字  幕 英文 [%8t~zg  
◎IMDB评分5..6/10 from 31,288 users       !yo/ F& 6  
◎IMDB链接 http://www.imdb.com/title/tt2120120/ NaR/IsN8%  
◎文件格式 H264 + DTS ~s :M l  
◎视频尺寸 1920 x 808 'pJ46"D@m  
◎文件大小 1CD 8.32 GiB tKnvNOhn  
◎片  长 1h 45mn |\1!*Qp  
◎导  演 克里斯·哥伦布 Chris Columbus   N^G:m~>  
◎主  演 亚当·桑德勒 Adam Sandler ...Brenner 8f^QO:  
                  凯文·詹姆斯 Kevin James...Cooper 9WJS.\G^  
                  米歇尔·莫纳汉 Michelle Monaghan ...Violet (Hr_gkGtM  
                  彼特·丁克拉奇 Peter Dinklage ...Eddie AjTkQ)  
                  Josh Gad ...Ludlow %[x oA)0!  
                  Matt Lintz ...Matty HF3W,eaqK  
                  Brian Cox ...Admiral Porter O3?3XB> <  
                  Sean Bean ...Corporal Hill (SAS Officer) aaN|g{pX  
                  Jane Krakowski ...First Lady Jane Cooper /``4!jU  
                  Dan Aykroyd ...1982 Championship MC 8IAf 9  
                  Affion Crockett ...Sergeant Dylan Cohan ux[h\Tp  
                  Lainie Kazan ...Mickey Lamonsoff ^`W8>czi  
                  Ashley Benson ...Lady Lisa jLANv{"  
                  Denis Akiyama ...Professor Iwatani OZ/P@`kN.f  
                  Tom McCarthy ...Michael the Robot   FD}hw9VyF@  
nX@lR~g%F  
r[>=iim  
◎简  介 B1EI'<S  
|C\%H R  
     h)W?8XdM  
  作为1980年代的小孩,山姆·布伦纳(亚当·桑德勒 Adam Sandler 饰), 威尔·库珀(凯文·詹姆斯 Kevin James 饰),勒德洛·莱门梢夫(乔什·加德 Josh Gad 饰)和“火焰爆破枪”埃迪·普兰特(彼特·丁克拉奇 Peter Dinklage 饰)拯救过世界成千上万次——在游戏机室里二十五美分玩一次的游戏里。现在,他们必须得真刀真枪作战了。 "kLu]M<  
&8l "Dl  
  在像素大战中,当外星人发现经典街机游戏视频流并且误以为这是在宣战后,他们袭击了地球,运用游戏作为他们袭击策略——而现在美国总统库珀必须召集他旧日的街机战友一起拯救世界免受吃豆人、大金刚、小蜜蜂、蜈蚣还有太空入侵者毁灭。加入他们一起战斗的,还有一名向街机斗士提供外星人战斗专用武器的专家,维奥莱特·冯·帕顿中校(米歇尔·莫纳汉 Michelle Monaghan 饰)。他们的唯一目标是,战胜8比特像素外星人,保卫地球…… o3_dHbdI  
0@FZQ$-  
花絮 8{m5P8w'  
d)G' y  
.根据2010年短片《像素入侵纽约城》改编。短片只有两分半钟,导演帕特里克·让是一家法国公司计算机绘图师,放到网上后一夜之间点击率过百万,之后便被好莱坞多家制片厂所相中。 '7+e!>"  
H`js1b1n  
.很多工作室都想把帕特里克·让的概念拍成电影,而让选择桑德勒是因为“我看过他很多电影,比如《狂野之爱》和《滑稽人物》。我们第一次会面也很棒,我可以感觉到他们对这部电影的热情和渴望。” /M:R|91:_  
EJdl%j  
.桑德勒回忆起自己第一次看到短片的情形,“当时我在办公室,看完后激动不已,马上就觉得这能拍成一部电影——这是一种怀旧情感,很酷。看到大金刚和所有你童年的小伙伴攻占城市,太有趣了。” 0Zt=1Tv  
EFb1Y{u^\!  
.为了搞定吃豆人以及其他角色的版权问题,剧组花费了很大的功夫。演员米歇尔·莫娜汉开玩笑说,和所有的游戏角色达成交易比任何一个演员都要更难。 sH//*y  
!+& Rn\e%7  
.哥伦布希望这部电影能够触到观众心灵,骚到观众痒处,给观众带来视觉震撼。他说:“这是一部缅怀80年代的片子,是一封寄给80年代的情书。” u?OyvvpH  
S,K'y?6  
.哥伦布形容影片的配乐风格类似于安培林娱乐公司(Amblin Entertainment,斯皮尔伯格的制片公司),诸如《回到未来》,“我们想要营造的就是那种怀旧的感觉和气氛。” Q7 dXTS4H  
 aOS:rC  
.据说,影片的设定借鉴了动画片《飞出个未来》(Futurama)2002年播出的《Anthology Of Interest II》(第八季第四集)中的情节。合作。 (*.t~6c?5  
Lo'P;Sb4<}  
.岩谷教授(Professor Iwatani)这个角色的原型是现实中的岩谷彻(Toru Iwatani),一位日本游戏设计师,他是经典的《吃豆人》游戏的创造者。。 [ n[!RddY  
eYQq@lrWv  
.影片中显示的游戏最高分是以现实为基础。吃豆人最高分为满分333万3360分,最先由Billy Mitchell完成,片中的Sam也达到了满分。 r<Il;?S6  
 mN>7vJ  
.Ludlow Lamonsoff的Centipede得分为1638万9548分,比现实中世界上最高分纪录持有者Jim Schneider高出一分。Eddie Plant《大金刚》得分为106万8100分,比前世界记录保持者Hank Chien高出100分。 q/ x(:yol  
K$S:V=y%r7  
.彼特·丁拉基饰演的Eddie Plant是以真实的游戏高手Billy Mitchell为原型,他是1982年到2000年间《大金刚》游戏最高得分纪录保持者。 C'HW`rh.^  
d)'am 3Q  
.乔什·盖德2013年出演《定制伴郎》,他的角色声称“吃豆人”是他最喜欢的超级英雄,不过在本片中,吃豆人变成了毁灭人类的大坏蛋。 6} DGEHc1  
fl{wF@C6  
.《像素大战》已经是亚当·桑德勒与凯文·詹姆斯第九次在电影或者电视作品中合作。 bITc9Hqc  
6$1dd#  
.詹妮弗·安妮斯顿拒绝了在本片中饰演女主角,她的位置由米歇尔·莫娜汉接替。 K#j<G]I( @  
'=|2, H]  
获奖记录  E*[dc  
`yjHLg  
青少年选择奖(2015;第17届) taS2b#6\+  
提名 `0l)\  
·青少年选择奖-最佳夏日电影男星亚当·桑德勒 Adam Sandler -ZTe#@J  
gW{<:6}!*  
5r=xhOe`  
XIM!]  
Video % D]vKv~<  
ID                                       : 1 [@!.(Hp  
Format                                   : AVC #~A(%a  
Format/Info                              : Advanced Video Codec (1~d/u?2\  
Format profile                           : High@L4.1 9:|z^r  
Format settings, CABAC                   : Yes ^/|agQ7D2  
Format settings, ReFrames                : 5 frames TU6e,G|t  
Codec ID                                 : V_MPEG4/ISO/AVC X^!n'$^u  
Duration                                 : 1h 45mn hdL/zW7]  
Bit rate                                 : 9 711 Kbps l(-We.:(  
Width                                    : 1 920 pixels pwg$% lv  
Height                                   : 808 pixels AT){OQF8&  
Display aspect ratio                     : 2.40:1 Z(fXN$  
Frame rate mode                          : Constant axJuJ`+Y  
Frame rate                               : 23.976 fps gyqM&5b  
Color space                              : YUV {Y>5 [gp  
Chroma subsampling                       : 4:2:0 :n'$Txf  
Bit depth                                : 8 bits  yN9k-IPI  
Scan type                                : Progressive en"]u,!  
Bits/(Pixel*Frame)                       : 0.261 x -wIgo+  
Stream size                              : 7.03 GiB (85%) 2TH13k$  
Title                                    : Pixels.2015.1080p.BluRay.x264.DTS-RARBG _lWC)bv`  
Writing library                          : x264 core 148 r2597 e86f3a1 Vu @2  
Encoding settings                        : cabac=1 / ref=5 / deblock=1:0:0 / analyse=0x3:0x133 / me=umh / subme=7 / psy=1 / psy_rd=1.00:0.00 / mixed_ref=1 / me_range=16 / chroma_me=1 / trellis=1 / 8x8dct=1 / cqm=0 / deadzone=21,11 / fast_pskip=0 / chroma_qp_offset=-2 / threads=18 / lookahead_threads=3 / sliced_threads=0 / nr=0 / decimate=1 / interlaced=0 / bluray_compat=0 / constrained_intra=0 / bframes=3 / b_pyramid=2 / b_adapt=1 / b_bias=0 / direct=1 / weightb=1 / open_gop=0 / weightp=2 / keyint=250 / keyint_min=23 / scenecut=40 / intra_refresh=0 / rc_lookahead=40 / rc=2pass / mbtree=1 / bitrate=9711 / ratetol=1.0 / qcomp=0.60 / qpmin=0 / qpmax=69 / qpstep=4 / cplxblur=20.0 / qblur=0.5 / ip_ratio=1.40 / aq=1:1.00 qPh @Bl3  
Language                                 : English }ll&qb  
Default                                  : Yes 3AKT>Wy =  
Forced                                   : No ]Gk;n/! B  
D?+\"lI  
Audio {M`yYe o  
ID                                       : 2 *&WkorByW  
Format                                   : DTS C,*3a`/2M^  
Format/Info                              : Digital Theater Systems (mO{ W   
Mode                                     : 16 bve_*7CEM  
Format settings, Endianness              : Big nz{ ;]U1  
Codec ID                                 : A_DTS ]} D^?g^  
Duration                                 : 1h 45mn @DiXe[kI  
Bit rate mode                            : Constant r]e1a\)r  
Bit rate                                 : 1 509 Kbps t=,ZR}M1`  
Channel(s)                               : 6 channels 26SXuFJ@  
Channel positions                        : Front: L C R, Side: L R, LFE S M57bN  
Sampling rate                            : 48.0 KHz 1D *oXE9Ig  
Bit depth                                : 16 bits gN,O)@N'd3  
Compression mode                         : Lossy D-{;;<nIr`  
Stream size                              : 1.12 GiB (13%) t0*kL.  
Title                                    : Pixels.2015.1080p.BluRay.x264.DTS-RARBG |PGF g0li  
Language                                 : English Nk.m$  
Default                                  : Yes j,DF' h  
Forced                                   : No xwuGJ   
CbvP1*1  
Text #1 968<yO]  
ID                                       : 3 s$%t*T2J>  
Format                                   : UTF-8 a0wSXd  
Codec ID                                 : S_TEXT/UTF8 NCrNlH IF  
Codec ID/Info                            : UTF-8 Plain Text zd%n)jlwR  
Title                                    : FORCED _Y{8FN(4  
Language                                 : English lN(|EI  
Default                                  : Yes M =/+q  
Forced                                   : Yes NO)Hi)$X6Y  
:Dt]sE _d  
Text #2 YC!IIE_  
ID                                       : 4 [Rj_p&'  
Format                                   : PGS `w&A;fR! H  
Muxing mode                              : zlib HbOLf  
Codec ID                                 : S_HDMV/PGS ~FP4JM,y6  
Codec ID/Info                            : Picture based subtitle format used on BDs/HD-DVDs v3p0  
Title                                    : SDH O]-)?y/  
Language                                 : English :P2{^0$  
Default                                  : No f|v5i tO2  
Forced                                   : No OO?;??  
#QUQC2P(~  
Text #3 ?[Sac]h ys  
ID                                       : 5 {yzo#"4Oy  
Format                                   : PGS  YW14X  
Muxing mode                              : zlib 9QXBz=Fnf  
Codec ID                                 : S_HDMV/PGS D'8xP %P  
Codec ID/Info                            : Picture based subtitle format used on BDs/HD-DVDs ]|xfKDu  
Language                                 : English  JT,[;  
Default                                  : No +#RgHo?f  
Forced                                   : No (DIMt-wz  
+vr|J:  
Menu .OM^@V~T  
00:00:00.000                             : en:00:00:00.000 r" _U-w  
00:04:54.044                             : en:00:04:54.044 We`6# \Z X  
00:10:21.663                             : en:00:10:21.663 Q4Zw<IZv5  
00:14:51.766                             : en:00:14:51.766 +s j2C  
00:19:51.816                             : en:00:19:51.816 Al MMN"j  
00:26:19.870                             : en:00:26:19.870 ixvF `S9  
00:32:57.809                             : en:00:32:57.809 iW?z2%#  
00:40:35.475                             : en:00:40:35.475 ^XgBkC~  
00:47:40.483                             : en:00:47:40.483 5y~ Srb?2  
00:52:33.275                             : en:00:52:33.275 NiSybyR$  
00:58:56.074                             : en:00:58:56.074 @e#{Sm  
01:05:07.695                             : en:01:05:07.695 Ja7yq{j  
01:09:23.076                             : en:01:09:23.076 gq7l>vT.  
01:18:13.022                             : en:01:18:13.022 oHPh 2b0  
01:27:54.186                             : en:01:27:54.186 (|2:^T+  
01:33:53.002                             : en:01:33:53.002 J1u&Ga  
jmBsPSGIC  
[*K.9}+G_  
h( DmSW  
本部分内容设定了隐藏,需要回复后才能看到

只看该作者 1 发表于: 2015-11-14
本部分内容设定了隐藏,需要回复后才能看到