切换到宽版
  • 583阅读
  • 1回复

像素大战/像素入侵.Pixels.2015.1080p.BluRay.x264.DTS-RARBG [复制链接]

上一主题 下一主题
 

只看楼主 倒序阅读 使用道具 0 发表于: 2015-10-11
/-bF$)vN  
◎译  名 像素大战/像素入侵/天煞:像素之战/像素/世界大对战(台)/屈机起格命(港) |7,L`utp  
◎片  名 Pixels sDr/k`>  
◎年  代 2015 Gb[`R }^dq  
◎国  家 美国/中国/加拿大 6u`F d#  
◎类  别 动作/喜剧/科幻 ES~^M840f  
◎语  言 英语 t?o ,RN:  
◎字  幕 英文 t }IkK=f  
◎IMDB评分5..6/10 from 31,288 users       Fhv/[j^X  
◎IMDB链接 http://www.imdb.com/title/tt2120120/ (,^*So/  
◎文件格式 H264 + DTS x!\ONF5$  
◎视频尺寸 1920 x 808 )X4K2~k*  
◎文件大小 1CD 8.32 GiB P%)gO  
◎片  长 1h 45mn }:0uo5 B7  
◎导  演 克里斯·哥伦布 Chris Columbus   'r(1Nj  
◎主  演 亚当·桑德勒 Adam Sandler ...Brenner x^Yl*iq  
                  凯文·詹姆斯 Kevin James...Cooper gtUUsQ%y.  
                  米歇尔·莫纳汉 Michelle Monaghan ...Violet 1@u2im-O  
                  彼特·丁克拉奇 Peter Dinklage ...Eddie b:qY gg  
                  Josh Gad ...Ludlow 85 EQ5yY  
                  Matt Lintz ...Matty +<,gB $j  
                  Brian Cox ...Admiral Porter 1ygpp0IGJ  
                  Sean Bean ...Corporal Hill (SAS Officer) ?#yV3 h|Ij  
                  Jane Krakowski ...First Lady Jane Cooper +T9:Udi  
                  Dan Aykroyd ...1982 Championship MC s1|/S\   
                  Affion Crockett ...Sergeant Dylan Cohan 7'NwJ,$6\  
                  Lainie Kazan ...Mickey Lamonsoff +[SgO}sF  
                  Ashley Benson ...Lady Lisa eZ"1gYqy  
                  Denis Akiyama ...Professor Iwatani 0%!rx{f#\  
                  Tom McCarthy ...Michael the Robot   NrP0Ep%V  
0]HYP;E"U  
P/&]?f0/  
◎简  介 > iE!m  
bc , p }  
     hHqh{:q{v  
  作为1980年代的小孩,山姆·布伦纳(亚当·桑德勒 Adam Sandler 饰), 威尔·库珀(凯文·詹姆斯 Kevin James 饰),勒德洛·莱门梢夫(乔什·加德 Josh Gad 饰)和“火焰爆破枪”埃迪·普兰特(彼特·丁克拉奇 Peter Dinklage 饰)拯救过世界成千上万次——在游戏机室里二十五美分玩一次的游戏里。现在,他们必须得真刀真枪作战了。 v]B L[/4  
s,a}?W  
  在像素大战中,当外星人发现经典街机游戏视频流并且误以为这是在宣战后,他们袭击了地球,运用游戏作为他们袭击策略——而现在美国总统库珀必须召集他旧日的街机战友一起拯救世界免受吃豆人、大金刚、小蜜蜂、蜈蚣还有太空入侵者毁灭。加入他们一起战斗的,还有一名向街机斗士提供外星人战斗专用武器的专家,维奥莱特·冯·帕顿中校(米歇尔·莫纳汉 Michelle Monaghan 饰)。他们的唯一目标是,战胜8比特像素外星人,保卫地球…… /b|0PMX  
!mXxAo  
花絮 u&wiGwF[  
mo~*C   
.根据2010年短片《像素入侵纽约城》改编。短片只有两分半钟,导演帕特里克·让是一家法国公司计算机绘图师,放到网上后一夜之间点击率过百万,之后便被好莱坞多家制片厂所相中。 U-n; xX0=  
ktDC/8  
.很多工作室都想把帕特里克·让的概念拍成电影,而让选择桑德勒是因为“我看过他很多电影,比如《狂野之爱》和《滑稽人物》。我们第一次会面也很棒,我可以感觉到他们对这部电影的热情和渴望。” > x IJE2  
XD"_Iq!  
.桑德勒回忆起自己第一次看到短片的情形,“当时我在办公室,看完后激动不已,马上就觉得这能拍成一部电影——这是一种怀旧情感,很酷。看到大金刚和所有你童年的小伙伴攻占城市,太有趣了。” u.rY#cS,-R  
u{["50~  
.为了搞定吃豆人以及其他角色的版权问题,剧组花费了很大的功夫。演员米歇尔·莫娜汉开玩笑说,和所有的游戏角色达成交易比任何一个演员都要更难。 VY)s+Bx  
NH_<q"gT  
.哥伦布希望这部电影能够触到观众心灵,骚到观众痒处,给观众带来视觉震撼。他说:“这是一部缅怀80年代的片子,是一封寄给80年代的情书。” V ]90  
 <T[E=#  
.哥伦布形容影片的配乐风格类似于安培林娱乐公司(Amblin Entertainment,斯皮尔伯格的制片公司),诸如《回到未来》,“我们想要营造的就是那种怀旧的感觉和气氛。” zSb PW 6U  
wj[$9UJb  
.据说,影片的设定借鉴了动画片《飞出个未来》(Futurama)2002年播出的《Anthology Of Interest II》(第八季第四集)中的情节。合作。 svXR<7) #  
3P;>XGCxZ  
.岩谷教授(Professor Iwatani)这个角色的原型是现实中的岩谷彻(Toru Iwatani),一位日本游戏设计师,他是经典的《吃豆人》游戏的创造者。。 )& u5IA(  
mS0udHod  
.影片中显示的游戏最高分是以现实为基础。吃豆人最高分为满分333万3360分,最先由Billy Mitchell完成,片中的Sam也达到了满分。 r_;9' #&'  
H ty0qr3  
.Ludlow Lamonsoff的Centipede得分为1638万9548分,比现实中世界上最高分纪录持有者Jim Schneider高出一分。Eddie Plant《大金刚》得分为106万8100分,比前世界记录保持者Hank Chien高出100分。 fA89|NTSUh  
<oz!H[!  
.彼特·丁拉基饰演的Eddie Plant是以真实的游戏高手Billy Mitchell为原型,他是1982年到2000年间《大金刚》游戏最高得分纪录保持者。 "O(9m.CZ  
@O[ 5M2|r  
.乔什·盖德2013年出演《定制伴郎》,他的角色声称“吃豆人”是他最喜欢的超级英雄,不过在本片中,吃豆人变成了毁灭人类的大坏蛋。 kY'T{Sm1^  
c_elShK8#  
.《像素大战》已经是亚当·桑德勒与凯文·詹姆斯第九次在电影或者电视作品中合作。 I" KN"v^  
m>SErxU(z  
.詹妮弗·安妮斯顿拒绝了在本片中饰演女主角,她的位置由米歇尔·莫娜汉接替。 $[yFsA6  
]n-:Yv5 W  
获奖记录 VcoOeAKL  
0:b2(^]bg  
青少年选择奖(2015;第17届) D.mHIsX6\  
提名 vv=VRhwF  
·青少年选择奖-最佳夏日电影男星亚当·桑德勒 Adam Sandler 1T[et-  
MQ"xOcD*F  
yBI'djL~>  
GQ |Mr{.;  
Video Qca&E`~Q  
ID                                       : 1 l<N}!lG|  
Format                                   : AVC HbW0wuI  
Format/Info                              : Advanced Video Codec )wNP( @$L  
Format profile                           : High@L4.1 a1@Y3M Q;i  
Format settings, CABAC                   : Yes 9:M` j  
Format settings, ReFrames                : 5 frames -a-(r'Qc(  
Codec ID                                 : V_MPEG4/ISO/AVC `]W| 8M  
Duration                                 : 1h 45mn tPF.r  
Bit rate                                 : 9 711 Kbps r-<F5<H+K@  
Width                                    : 1 920 pixels )6aAB|  
Height                                   : 808 pixels bcYF\@};  
Display aspect ratio                     : 2.40:1 0L/n?bf  
Frame rate mode                          : Constant 87YyDWTn  
Frame rate                               : 23.976 fps /Sh#_\x  
Color space                              : YUV R47\Y   
Chroma subsampling                       : 4:2:0 \o^2y.q:>  
Bit depth                                : 8 bits ^- d% r  
Scan type                                : Progressive is-7 j7;  
Bits/(Pixel*Frame)                       : 0.261 Z+=@<i ''  
Stream size                              : 7.03 GiB (85%) ruy}/7uf  
Title                                    : Pixels.2015.1080p.BluRay.x264.DTS-RARBG <S r  
Writing library                          : x264 core 148 r2597 e86f3a1 =z /dcC$r  
Encoding settings                        : cabac=1 / ref=5 / deblock=1:0:0 / analyse=0x3:0x133 / me=umh / subme=7 / psy=1 / psy_rd=1.00:0.00 / mixed_ref=1 / me_range=16 / chroma_me=1 / trellis=1 / 8x8dct=1 / cqm=0 / deadzone=21,11 / fast_pskip=0 / chroma_qp_offset=-2 / threads=18 / lookahead_threads=3 / sliced_threads=0 / nr=0 / decimate=1 / interlaced=0 / bluray_compat=0 / constrained_intra=0 / bframes=3 / b_pyramid=2 / b_adapt=1 / b_bias=0 / direct=1 / weightb=1 / open_gop=0 / weightp=2 / keyint=250 / keyint_min=23 / scenecut=40 / intra_refresh=0 / rc_lookahead=40 / rc=2pass / mbtree=1 / bitrate=9711 / ratetol=1.0 / qcomp=0.60 / qpmin=0 / qpmax=69 / qpstep=4 / cplxblur=20.0 / qblur=0.5 / ip_ratio=1.40 / aq=1:1.00 pS7w' H  
Language                                 : English D bz3;t  
Default                                  : Yes VFys.=  
Forced                                   : No NN?`"Fww  
5yz(>EVH  
Audio WA&!;Zq  
ID                                       : 2 w}YlVete  
Format                                   : DTS *vwbgJG! *  
Format/Info                              : Digital Theater Systems 3zcU%*  
Mode                                     : 16 z.;ez}6%V  
Format settings, Endianness              : Big q}?4f *WC  
Codec ID                                 : A_DTS "L&#lfOKG  
Duration                                 : 1h 45mn CTZ8Da^  
Bit rate mode                            : Constant lE(a%'36  
Bit rate                                 : 1 509 Kbps ", KCCis  
Channel(s)                               : 6 channels G\+L~t  
Channel positions                        : Front: L C R, Side: L R, LFE 2HsLc*9{4  
Sampling rate                            : 48.0 KHz b?lD(fa&  
Bit depth                                : 16 bits lUMS;H(  
Compression mode                         : Lossy I!Z_ [M  
Stream size                              : 1.12 GiB (13%) )x=1]T>v"'  
Title                                    : Pixels.2015.1080p.BluRay.x264.DTS-RARBG J`].:IOh  
Language                                 : English =V-|#j  
Default                                  : Yes F7EKoDt  
Forced                                   : No /n{omx  
IS&ZqE(`e  
Text #1 9\BT0kx  
ID                                       : 3 jk[1{I/  
Format                                   : UTF-8 zGkS^Z=(  
Codec ID                                 : S_TEXT/UTF8 '6cWS'9"  
Codec ID/Info                            : UTF-8 Plain Text |es?;s'  
Title                                    : FORCED `-J%pEIza  
Language                                 : English eo?;`7  
Default                                  : Yes & ;[Io  
Forced                                   : Yes R\G0'?h >  
~O oidKT  
Text #2 jD<{t  
ID                                       : 4 aJbO((%$|u  
Format                                   : PGS q$Z h@  
Muxing mode                              : zlib :~tAUy":_*  
Codec ID                                 : S_HDMV/PGS [S9K6%w_!  
Codec ID/Info                            : Picture based subtitle format used on BDs/HD-DVDs =JK@z  
Title                                    : SDH 7byK{{/z  
Language                                 : English mGJKvJF   
Default                                  : No {GK;63`1  
Forced                                   : No "/3'XOK|  
N~goI#4  
Text #3 `1$@|FgyC  
ID                                       : 5 M"p  
Format                                   : PGS [q) 8N  
Muxing mode                              : zlib v &Yi  
Codec ID                                 : S_HDMV/PGS :cem,#(=  
Codec ID/Info                            : Picture based subtitle format used on BDs/HD-DVDs Y)0*b5?1r  
Language                                 : English 1PVtxL?1P  
Default                                  : No 7~^GA.92  
Forced                                   : No ~?4PBq  
o{* e'4  
Menu -3t7*  
00:00:00.000                             : en:00:00:00.000 [YF>:ydk  
00:04:54.044                             : en:00:04:54.044 vM*-D{  
00:10:21.663                             : en:00:10:21.663 &=Ar  
00:14:51.766                             : en:00:14:51.766 C%$edEi  
00:19:51.816                             : en:00:19:51.816 2,$8icM  
00:26:19.870                             : en:00:26:19.870 R]}}$R`j  
00:32:57.809                             : en:00:32:57.809 rdl;M>0@  
00:40:35.475                             : en:00:40:35.475 zT =Ho   
00:47:40.483                             : en:00:47:40.483 #C~+JL  
00:52:33.275                             : en:00:52:33.275 .b3Qfxc>  
00:58:56.074                             : en:00:58:56.074 AF;)#T <  
01:05:07.695                             : en:01:05:07.695 B6u /mo<  
01:09:23.076                             : en:01:09:23.076 {@H6HqD  
01:18:13.022                             : en:01:18:13.022 ^crCy-`#  
01:27:54.186                             : en:01:27:54.186 lGV0 *Cji  
01:33:53.002                             : en:01:33:53.002 fM]+SMZy  
^W`<gR  
j~2 {lCT  
PlU*X8  
本部分内容设定了隐藏,需要回复后才能看到

只看该作者 1 发表于: 2015-11-14
本部分内容设定了隐藏,需要回复后才能看到