切换到宽版
  • 698阅读
  • 1回复

像素大战/像素入侵.Pixels.2015.1080p.BluRay.x264.DTS-RARBG [复制链接]

上一主题 下一主题
 

只看楼主 倒序阅读 使用道具 0 发表于: 2015-10-11
!m~r0M7  
◎译  名 像素大战/像素入侵/天煞:像素之战/像素/世界大对战(台)/屈机起格命(港) 6(7{|iY  
◎片  名 Pixels v)O].Hd  
◎年  代 2015 LNR1YC1c  
◎国  家 美国/中国/加拿大 }z/%b<o_  
◎类  别 动作/喜剧/科幻 CfS;F  
◎语  言 英语 v v2[t  
◎字  幕 英文 ^4 ,LIIUj  
◎IMDB评分5..6/10 from 31,288 users       > r(`4M:  
◎IMDB链接 http://www.imdb.com/title/tt2120120/ ndDF(qHr  
◎文件格式 H264 + DTS G#`  
◎视频尺寸 1920 x 808  @>$qb|j  
◎文件大小 1CD 8.32 GiB Q6URaw#Yt`  
◎片  长 1h 45mn ?MSwr_eZH  
◎导  演 克里斯·哥伦布 Chris Columbus   #+_=(J  
◎主  演 亚当·桑德勒 Adam Sandler ...Brenner T zS?WYF  
                  凯文·詹姆斯 Kevin James...Cooper ](n)bF+ym  
                  米歇尔·莫纳汉 Michelle Monaghan ...Violet PWp=}f.y  
                  彼特·丁克拉奇 Peter Dinklage ...Eddie )sK53O$  
                  Josh Gad ...Ludlow LcA7f'GVK  
                  Matt Lintz ...Matty *PFQ  
                  Brian Cox ...Admiral Porter tUOY`]0  
                  Sean Bean ...Corporal Hill (SAS Officer) X-" +nThMn  
                  Jane Krakowski ...First Lady Jane Cooper 7Q  Ns q  
                  Dan Aykroyd ...1982 Championship MC h$9ut@I  
                  Affion Crockett ...Sergeant Dylan Cohan YZ:C9:S6X  
                  Lainie Kazan ...Mickey Lamonsoff G `3{Q7k  
                  Ashley Benson ...Lady Lisa CGK ]i. N  
                  Denis Akiyama ...Professor Iwatani 6!itr"  
                  Tom McCarthy ...Michael the Robot   Ja&S_'P[  
"Vl4=W)u  
O<|pw  
◎简  介 * Wp?0CP  
@T L|\T  
     aqK+ u.H  
  作为1980年代的小孩,山姆·布伦纳(亚当·桑德勒 Adam Sandler 饰), 威尔·库珀(凯文·詹姆斯 Kevin James 饰),勒德洛·莱门梢夫(乔什·加德 Josh Gad 饰)和“火焰爆破枪”埃迪·普兰特(彼特·丁克拉奇 Peter Dinklage 饰)拯救过世界成千上万次——在游戏机室里二十五美分玩一次的游戏里。现在,他们必须得真刀真枪作战了。 :r "G Z  
]o=ON95ja  
  在像素大战中,当外星人发现经典街机游戏视频流并且误以为这是在宣战后,他们袭击了地球,运用游戏作为他们袭击策略——而现在美国总统库珀必须召集他旧日的街机战友一起拯救世界免受吃豆人、大金刚、小蜜蜂、蜈蚣还有太空入侵者毁灭。加入他们一起战斗的,还有一名向街机斗士提供外星人战斗专用武器的专家,维奥莱特·冯·帕顿中校(米歇尔·莫纳汉 Michelle Monaghan 饰)。他们的唯一目标是,战胜8比特像素外星人,保卫地球…… iWA?FBv  
kMLJa=]$  
花絮 Gl|n}wo$  
#rr!A pJ  
.根据2010年短片《像素入侵纽约城》改编。短片只有两分半钟,导演帕特里克·让是一家法国公司计算机绘图师,放到网上后一夜之间点击率过百万,之后便被好莱坞多家制片厂所相中。 !kb:g]X  
[.Fq l+  
.很多工作室都想把帕特里克·让的概念拍成电影,而让选择桑德勒是因为“我看过他很多电影,比如《狂野之爱》和《滑稽人物》。我们第一次会面也很棒,我可以感觉到他们对这部电影的热情和渴望。” aqQ+A:g  
KkpbZ7\@  
.桑德勒回忆起自己第一次看到短片的情形,“当时我在办公室,看完后激动不已,马上就觉得这能拍成一部电影——这是一种怀旧情感,很酷。看到大金刚和所有你童年的小伙伴攻占城市,太有趣了。” eGpKoq7a  
i0+e3!QU  
.为了搞定吃豆人以及其他角色的版权问题,剧组花费了很大的功夫。演员米歇尔·莫娜汉开玩笑说,和所有的游戏角色达成交易比任何一个演员都要更难。 3 4%B0  
yw7(!1j=  
.哥伦布希望这部电影能够触到观众心灵,骚到观众痒处,给观众带来视觉震撼。他说:“这是一部缅怀80年代的片子,是一封寄给80年代的情书。” Dyo^O=0c  
v)gMNzt  
.哥伦布形容影片的配乐风格类似于安培林娱乐公司(Amblin Entertainment,斯皮尔伯格的制片公司),诸如《回到未来》,“我们想要营造的就是那种怀旧的感觉和气氛。” -$g~,dIwj  
K*,,j\Q.  
.据说,影片的设定借鉴了动画片《飞出个未来》(Futurama)2002年播出的《Anthology Of Interest II》(第八季第四集)中的情节。合作。 .GNyA DQp  
nsVLgTbx  
.岩谷教授(Professor Iwatani)这个角色的原型是现实中的岩谷彻(Toru Iwatani),一位日本游戏设计师,他是经典的《吃豆人》游戏的创造者。。 !||Gfia  
&&LB0vH!J  
.影片中显示的游戏最高分是以现实为基础。吃豆人最高分为满分333万3360分,最先由Billy Mitchell完成,片中的Sam也达到了满分。 i_r708ep6  
|7A}LA  
.Ludlow Lamonsoff的Centipede得分为1638万9548分,比现实中世界上最高分纪录持有者Jim Schneider高出一分。Eddie Plant《大金刚》得分为106万8100分,比前世界记录保持者Hank Chien高出100分。 's5rl  
C$C>RYE?.  
.彼特·丁拉基饰演的Eddie Plant是以真实的游戏高手Billy Mitchell为原型,他是1982年到2000年间《大金刚》游戏最高得分纪录保持者。 x6!Q''f7  
* ]bB7  
.乔什·盖德2013年出演《定制伴郎》,他的角色声称“吃豆人”是他最喜欢的超级英雄,不过在本片中,吃豆人变成了毁灭人类的大坏蛋。 _ gYj@ %  
Q/4ICgo4  
.《像素大战》已经是亚当·桑德勒与凯文·詹姆斯第九次在电影或者电视作品中合作。 LdNpb;*  
NR8`nc1~  
.詹妮弗·安妮斯顿拒绝了在本片中饰演女主角,她的位置由米歇尔·莫娜汉接替。 k%O3\q  
mDbTOtD  
获奖记录 Z^4+ 88  
M,li\)J!&  
青少年选择奖(2015;第17届) CP%^)LX *  
提名 $)9|"q6  
·青少年选择奖-最佳夏日电影男星亚当·桑德勒 Adam Sandler k_1@?&3  
7_ )38  
,5}w]6bCr  
TKsP#Dt/  
Video &zEBfr  
ID                                       : 1 lfC]!=2%~8  
Format                                   : AVC aD'Ax\-  
Format/Info                              : Advanced Video Codec =l* xM/S  
Format profile                           : High@L4.1 a L+>XN  
Format settings, CABAC                   : Yes m}RZ )c  
Format settings, ReFrames                : 5 frames t[X^4bZd  
Codec ID                                 : V_MPEG4/ISO/AVC iZeq l1O  
Duration                                 : 1h 45mn #\D 74$D  
Bit rate                                 : 9 711 Kbps p0zC(v0*  
Width                                    : 1 920 pixels Avi_]h&  
Height                                   : 808 pixels vS0 ii  
Display aspect ratio                     : 2.40:1 x`@`y7(  
Frame rate mode                          : Constant S1y6G/e9  
Frame rate                               : 23.976 fps H2 #o X  
Color space                              : YUV dz +Dk6"R  
Chroma subsampling                       : 4:2:0 $m*Gu:#xm&  
Bit depth                                : 8 bits pXN'vP  
Scan type                                : Progressive |D/a}Av>B  
Bits/(Pixel*Frame)                       : 0.261 L;j++^p  
Stream size                              : 7.03 GiB (85%) h{ix$Xn~  
Title                                    : Pixels.2015.1080p.BluRay.x264.DTS-RARBG 1kL8EPT%o  
Writing library                          : x264 core 148 r2597 e86f3a1 7/QK"0  
Encoding settings                        : cabac=1 / ref=5 / deblock=1:0:0 / analyse=0x3:0x133 / me=umh / subme=7 / psy=1 / psy_rd=1.00:0.00 / mixed_ref=1 / me_range=16 / chroma_me=1 / trellis=1 / 8x8dct=1 / cqm=0 / deadzone=21,11 / fast_pskip=0 / chroma_qp_offset=-2 / threads=18 / lookahead_threads=3 / sliced_threads=0 / nr=0 / decimate=1 / interlaced=0 / bluray_compat=0 / constrained_intra=0 / bframes=3 / b_pyramid=2 / b_adapt=1 / b_bias=0 / direct=1 / weightb=1 / open_gop=0 / weightp=2 / keyint=250 / keyint_min=23 / scenecut=40 / intra_refresh=0 / rc_lookahead=40 / rc=2pass / mbtree=1 / bitrate=9711 / ratetol=1.0 / qcomp=0.60 / qpmin=0 / qpmax=69 / qpstep=4 / cplxblur=20.0 / qblur=0.5 / ip_ratio=1.40 / aq=1:1.00 7f ub^'_  
Language                                 : English =dKjTBR S'  
Default                                  : Yes -40X3  
Forced                                   : No HNBmq>XDc  
l}VE8-XB  
Audio `kQosQV  
ID                                       : 2 _\tv ${  
Format                                   : DTS AzXLlQ  
Format/Info                              : Digital Theater Systems bl^Ihza  
Mode                                     : 16 ;zD4 #7=  
Format settings, Endianness              : Big 9.M'FCd~M  
Codec ID                                 : A_DTS 7G-?^  
Duration                                 : 1h 45mn ^ `Ozw^~  
Bit rate mode                            : Constant Sm4BZF~!B  
Bit rate                                 : 1 509 Kbps 9+N%Io?!  
Channel(s)                               : 6 channels /R=MX>JA;  
Channel positions                        : Front: L C R, Side: L R, LFE [t fB*m 5  
Sampling rate                            : 48.0 KHz Pm/i,T6&\  
Bit depth                                : 16 bits AK&>3D  
Compression mode                         : Lossy $B%KkD  
Stream size                              : 1.12 GiB (13%) @g5y_G{SP  
Title                                    : Pixels.2015.1080p.BluRay.x264.DTS-RARBG *1 `X}  
Language                                 : English .aY $-Y<  
Default                                  : Yes YFB>GQ;  
Forced                                   : No V)/J2-w  
|3,WiK='  
Text #1 b}0h ()v  
ID                                       : 3 jj]\]6@+P  
Format                                   : UTF-8 (wZ!OLY%}  
Codec ID                                 : S_TEXT/UTF8 /v5A)A$7  
Codec ID/Info                            : UTF-8 Plain Text s~ 8 g  
Title                                    : FORCED EA6l11{Gk1  
Language                                 : English H"AL@=  
Default                                  : Yes BK%B[f*[OA  
Forced                                   : Yes L>sL b(2\i  
TxG@#" ^g}  
Text #2 ktTP~7UVi  
ID                                       : 4 t7F0[E'=5\  
Format                                   : PGS U; oXX  
Muxing mode                              : zlib ]}rNxT4<  
Codec ID                                 : S_HDMV/PGS raPOF6-_rH  
Codec ID/Info                            : Picture based subtitle format used on BDs/HD-DVDs J Ah!#S(  
Title                                    : SDH 8~C}0H  
Language                                 : English LsERcjwwK  
Default                                  : No Ex p ?x  
Forced                                   : No Gr2}N"X=  
,6g{-r-2  
Text #3 (X"5x]7]  
ID                                       : 5 "crR{OjE"  
Format                                   : PGS 0@ "'SKq  
Muxing mode                              : zlib +S(# 7  
Codec ID                                 : S_HDMV/PGS `Uz.9_6  
Codec ID/Info                            : Picture based subtitle format used on BDs/HD-DVDs 9t\14tVwx  
Language                                 : English u$aK19K/  
Default                                  : No q ][kD2  
Forced                                   : No U%:%. Bys  
UDi(7c0.  
Menu G^)]FwTs  
00:00:00.000                             : en:00:00:00.000 *J[ P#y  
00:04:54.044                             : en:00:04:54.044 Z. gb'  
00:10:21.663                             : en:00:10:21.663 L.@$rFhA  
00:14:51.766                             : en:00:14:51.766 QZvQ 8  
00:19:51.816                             : en:00:19:51.816 {"Sv~L|J;  
00:26:19.870                             : en:00:26:19.870 g3kbsi7_:  
00:32:57.809                             : en:00:32:57.809 2: gh q  
00:40:35.475                             : en:00:40:35.475 @ ,X/Wf  
00:47:40.483                             : en:00:47:40.483 lF(v<drkB  
00:52:33.275                             : en:00:52:33.275 cF15Mm2  
00:58:56.074                             : en:00:58:56.074 cOP'ql{"  
01:05:07.695                             : en:01:05:07.695 im &N &A  
01:09:23.076                             : en:01:09:23.076 wGLMLbj5  
01:18:13.022                             : en:01:18:13.022 |"LHo  H  
01:27:54.186                             : en:01:27:54.186 n}Z%D-b$  
01:33:53.002                             : en:01:33:53.002 n^[a}DX0  
$jh$nMx)!  
1r> ]XhRFZ  
Jp"29 )w  
本部分内容设定了隐藏,需要回复后才能看到

只看该作者 1 发表于: 2015-11-14
本部分内容设定了隐藏,需要回复后才能看到