切换到宽版
  • 762阅读
  • 1回复

像素大战/像素入侵.Pixels.2015.1080p.BluRay.x264.DTS-RARBG [复制链接]

上一主题 下一主题
 

只看楼主 倒序阅读 使用道具 0 发表于: 2015-10-11
1oej<67PdJ  
◎译  名 像素大战/像素入侵/天煞:像素之战/像素/世界大对战(台)/屈机起格命(港) wKLYyetM!  
◎片  名 Pixels D[/fs`XES  
◎年  代 2015 wn5OgXxG<  
◎国  家 美国/中国/加拿大 (|K+1R  
◎类  别 动作/喜剧/科幻 dGYR  'x  
◎语  言 英语 U L $!  
◎字  幕 英文 P|<V0 Vs.  
◎IMDB评分5..6/10 from 31,288 users       bE/|&8  
◎IMDB链接 http://www.imdb.com/title/tt2120120/ Y7.+ Ma#|  
◎文件格式 H264 + DTS pPBXUu'  
◎视频尺寸 1920 x 808 \Nt 5TG_  
◎文件大小 1CD 8.32 GiB &SE}5ddC7  
◎片  长 1h 45mn +d6onO{8  
◎导  演 克里斯·哥伦布 Chris Columbus   9jTBLp-i#N  
◎主  演 亚当·桑德勒 Adam Sandler ...Brenner Ojc Tu  
                  凯文·詹姆斯 Kevin James...Cooper gB'ajX=OA/  
                  米歇尔·莫纳汉 Michelle Monaghan ...Violet H%O\4V2s  
                  彼特·丁克拉奇 Peter Dinklage ...Eddie R'k `0  
                  Josh Gad ...Ludlow /y G34) aB  
                  Matt Lintz ...Matty Mp`$1Ksn  
                  Brian Cox ...Admiral Porter PY5&Fwjc  
                  Sean Bean ...Corporal Hill (SAS Officer) ;d6Dm)/(  
                  Jane Krakowski ...First Lady Jane Cooper z$?F^3>  
                  Dan Aykroyd ...1982 Championship MC y|6n:<o  
                  Affion Crockett ...Sergeant Dylan Cohan @ b!]Jw  
                  Lainie Kazan ...Mickey Lamonsoff sG`x |%t  
                  Ashley Benson ...Lady Lisa =\O#F88ui  
                  Denis Akiyama ...Professor Iwatani I_r@Y:5{  
                  Tom McCarthy ...Michael the Robot   <gF]9%2E  
?P'$ Vxl  
/}m)FaAi  
◎简  介 4-y K!LR  
hTtn /j  
     AM}2=Ip  
  作为1980年代的小孩,山姆·布伦纳(亚当·桑德勒 Adam Sandler 饰), 威尔·库珀(凯文·詹姆斯 Kevin James 饰),勒德洛·莱门梢夫(乔什·加德 Josh Gad 饰)和“火焰爆破枪”埃迪·普兰特(彼特·丁克拉奇 Peter Dinklage 饰)拯救过世界成千上万次——在游戏机室里二十五美分玩一次的游戏里。现在,他们必须得真刀真枪作战了。 3ay},3MCV%  
<+k&8^:bi  
  在像素大战中,当外星人发现经典街机游戏视频流并且误以为这是在宣战后,他们袭击了地球,运用游戏作为他们袭击策略——而现在美国总统库珀必须召集他旧日的街机战友一起拯救世界免受吃豆人、大金刚、小蜜蜂、蜈蚣还有太空入侵者毁灭。加入他们一起战斗的,还有一名向街机斗士提供外星人战斗专用武器的专家,维奥莱特·冯·帕顿中校(米歇尔·莫纳汉 Michelle Monaghan 饰)。他们的唯一目标是,战胜8比特像素外星人,保卫地球…… gK rUv0&F  
QOB^U-cW  
花絮 " @D  
.TGw+E1k  
.根据2010年短片《像素入侵纽约城》改编。短片只有两分半钟,导演帕特里克·让是一家法国公司计算机绘图师,放到网上后一夜之间点击率过百万,之后便被好莱坞多家制片厂所相中。 OD8 fn  
O52 /fGt  
.很多工作室都想把帕特里克·让的概念拍成电影,而让选择桑德勒是因为“我看过他很多电影,比如《狂野之爱》和《滑稽人物》。我们第一次会面也很棒,我可以感觉到他们对这部电影的热情和渴望。” | [.-pA^  
296}LW  
.桑德勒回忆起自己第一次看到短片的情形,“当时我在办公室,看完后激动不已,马上就觉得这能拍成一部电影——这是一种怀旧情感,很酷。看到大金刚和所有你童年的小伙伴攻占城市,太有趣了。” K?uZIDo  
UY(T>4H+h  
.为了搞定吃豆人以及其他角色的版权问题,剧组花费了很大的功夫。演员米歇尔·莫娜汉开玩笑说,和所有的游戏角色达成交易比任何一个演员都要更难。 b}K,wAx  
XO <0;9|  
.哥伦布希望这部电影能够触到观众心灵,骚到观众痒处,给观众带来视觉震撼。他说:“这是一部缅怀80年代的片子,是一封寄给80年代的情书。” qfDG.Zee #  
IXy6Yn9l  
.哥伦布形容影片的配乐风格类似于安培林娱乐公司(Amblin Entertainment,斯皮尔伯格的制片公司),诸如《回到未来》,“我们想要营造的就是那种怀旧的感觉和气氛。” +hN>Q $E  
[M\ an6h6O  
.据说,影片的设定借鉴了动画片《飞出个未来》(Futurama)2002年播出的《Anthology Of Interest II》(第八季第四集)中的情节。合作。 r)^sHpK:`  
kq}byv}3I  
.岩谷教授(Professor Iwatani)这个角色的原型是现实中的岩谷彻(Toru Iwatani),一位日本游戏设计师,他是经典的《吃豆人》游戏的创造者。。 Jq/itsg  
B\Nbt!Ps  
.影片中显示的游戏最高分是以现实为基础。吃豆人最高分为满分333万3360分,最先由Billy Mitchell完成,片中的Sam也达到了满分。 DB|1Sqjsn  
4#IT" i  
.Ludlow Lamonsoff的Centipede得分为1638万9548分,比现实中世界上最高分纪录持有者Jim Schneider高出一分。Eddie Plant《大金刚》得分为106万8100分,比前世界记录保持者Hank Chien高出100分。 r9ulTv }X  
m4/qxm"Dx:  
.彼特·丁拉基饰演的Eddie Plant是以真实的游戏高手Billy Mitchell为原型,他是1982年到2000年间《大金刚》游戏最高得分纪录保持者。 @ VWED  
Q!+AiSTU  
.乔什·盖德2013年出演《定制伴郎》,他的角色声称“吃豆人”是他最喜欢的超级英雄,不过在本片中,吃豆人变成了毁灭人类的大坏蛋。 wKM9fs  
;E.]:Ia~  
.《像素大战》已经是亚当·桑德勒与凯文·詹姆斯第九次在电影或者电视作品中合作。 zH]oAu=H  
}t^wa\   
.詹妮弗·安妮斯顿拒绝了在本片中饰演女主角,她的位置由米歇尔·莫娜汉接替。 KuP#i]Na  
(=!At)O  
获奖记录 $S#Z>d*1!  
#tV1?q  
青少年选择奖(2015;第17届) " aG6u^%  
提名 @vl$[Z|  
·青少年选择奖-最佳夏日电影男星亚当·桑德勒 Adam Sandler VEgtN}  
j-K[]$  
kPX+n+$  
YZf{."Opj[  
Video )gd eFA V  
ID                                       : 1 JK! (\Ae.  
Format                                   : AVC %E_Y4Oe1  
Format/Info                              : Advanced Video Codec k?fz @H8D(  
Format profile                           : High@L4.1 xrg"/?84  
Format settings, CABAC                   : Yes a}@b2Wc*  
Format settings, ReFrames                : 5 frames ,!{8@* !=s  
Codec ID                                 : V_MPEG4/ISO/AVC 2_w pj;E  
Duration                                 : 1h 45mn ??/bI~Sd  
Bit rate                                 : 9 711 Kbps -9dZT  
Width                                    : 1 920 pixels +^BTh rB  
Height                                   : 808 pixels Tr?p/9.m  
Display aspect ratio                     : 2.40:1 V48_aL  
Frame rate mode                          : Constant 0cmd +`  
Frame rate                               : 23.976 fps XCI  
Color space                              : YUV #m U\8M,  
Chroma subsampling                       : 4:2:0 zbFy3-RP  
Bit depth                                : 8 bits .!4'Y}  
Scan type                                : Progressive 4XAB_Q  
Bits/(Pixel*Frame)                       : 0.261 xdO3koE:  
Stream size                              : 7.03 GiB (85%) f 6I)c$]Q  
Title                                    : Pixels.2015.1080p.BluRay.x264.DTS-RARBG }Cu:BD.zQ  
Writing library                          : x264 core 148 r2597 e86f3a1 Hdyl]q-(P  
Encoding settings                        : cabac=1 / ref=5 / deblock=1:0:0 / analyse=0x3:0x133 / me=umh / subme=7 / psy=1 / psy_rd=1.00:0.00 / mixed_ref=1 / me_range=16 / chroma_me=1 / trellis=1 / 8x8dct=1 / cqm=0 / deadzone=21,11 / fast_pskip=0 / chroma_qp_offset=-2 / threads=18 / lookahead_threads=3 / sliced_threads=0 / nr=0 / decimate=1 / interlaced=0 / bluray_compat=0 / constrained_intra=0 / bframes=3 / b_pyramid=2 / b_adapt=1 / b_bias=0 / direct=1 / weightb=1 / open_gop=0 / weightp=2 / keyint=250 / keyint_min=23 / scenecut=40 / intra_refresh=0 / rc_lookahead=40 / rc=2pass / mbtree=1 / bitrate=9711 / ratetol=1.0 / qcomp=0.60 / qpmin=0 / qpmax=69 / qpstep=4 / cplxblur=20.0 / qblur=0.5 / ip_ratio=1.40 / aq=1:1.00 ft/k-64  
Language                                 : English  C O6}D  
Default                                  : Yes M %,\2!$  
Forced                                   : No QDxs+<#  
,It0brF  
Audio 9po=[{Bp  
ID                                       : 2 h>V6}(~;.  
Format                                   : DTS Ihf>FMl:  
Format/Info                              : Digital Theater Systems i5r<CxS  
Mode                                     : 16 V~PGmn[V  
Format settings, Endianness              : Big ddL 3wQ  
Codec ID                                 : A_DTS { 5r]G  
Duration                                 : 1h 45mn ds*gL ~k^  
Bit rate mode                            : Constant yPmo1|'X>d  
Bit rate                                 : 1 509 Kbps 6c+29@  
Channel(s)                               : 6 channels ;r2DQg"#@  
Channel positions                        : Front: L C R, Side: L R, LFE :[l}Bb,  
Sampling rate                            : 48.0 KHz #reR<qp&]  
Bit depth                                : 16 bits 6\l F  
Compression mode                         : Lossy * 0K]/tn<  
Stream size                              : 1.12 GiB (13%) 2L^/\!V#  
Title                                    : Pixels.2015.1080p.BluRay.x264.DTS-RARBG [e,xC!2  
Language                                 : English 8]&Fu3M^  
Default                                  : Yes At>e4t2@  
Forced                                   : No lLVD`)  
5[\g87 \  
Text #1 ^XyC[ G@[  
ID                                       : 3 5<X"+`=9  
Format                                   : UTF-8 9Cd=^ Im5  
Codec ID                                 : S_TEXT/UTF8 yo5-x"ze  
Codec ID/Info                            : UTF-8 Plain Text H1~9f {  
Title                                    : FORCED =Q;dYx%I5  
Language                                 : English 6k')12~'  
Default                                  : Yes TH>uL;?=  
Forced                                   : Yes T#E,^|WEk  
%b pQ=  
Text #2 y[f%0*\B  
ID                                       : 4 Y}}1]}VIK  
Format                                   : PGS Ye^#]%m  
Muxing mode                              : zlib =f=>buD  
Codec ID                                 : S_HDMV/PGS 6X2w)cO  
Codec ID/Info                            : Picture based subtitle format used on BDs/HD-DVDs , Sf:R4=  
Title                                    : SDH }lkU3Pf1U  
Language                                 : English c8l\1ce?7  
Default                                  : No }P!:0w3  
Forced                                   : No nFwg pT  
@gx]3t*]I  
Text #3 &x.5TDB>%  
ID                                       : 5 Rs]Y/9F;{  
Format                                   : PGS G`v(4`tA  
Muxing mode                              : zlib IjPt JwW`A  
Codec ID                                 : S_HDMV/PGS KWVl7Kw#e  
Codec ID/Info                            : Picture based subtitle format used on BDs/HD-DVDs (^|vN ;  
Language                                 : English +nFC&~q  
Default                                  : No !&G& ~*.x  
Forced                                   : No + VhD]!  
!J }Q%i  
Menu  N,ihQB5  
00:00:00.000                             : en:00:00:00.000 AbMf8$$3SH  
00:04:54.044                             : en:00:04:54.044 ?D@WXE0a  
00:10:21.663                             : en:00:10:21.663 O3L:v{Kn  
00:14:51.766                             : en:00:14:51.766 Ap(>mUs!i  
00:19:51.816                             : en:00:19:51.816 d r=h;[Q'  
00:26:19.870                             : en:00:26:19.870 !y;xt?  
00:32:57.809                             : en:00:32:57.809 .Nd_p{   
00:40:35.475                             : en:00:40:35.475 8Vm)jnM  
00:47:40.483                             : en:00:47:40.483 -* 0U&]T  
00:52:33.275                             : en:00:52:33.275 8CGjI?j  
00:58:56.074                             : en:00:58:56.074 FP h1}qS  
01:05:07.695                             : en:01:05:07.695 d7!,  
01:09:23.076                             : en:01:09:23.076 p>0n~e  
01:18:13.022                             : en:01:18:13.022 8\_YP3  
01:27:54.186                             : en:01:27:54.186 kmF@u@ 5M  
01:33:53.002                             : en:01:33:53.002 ZE0D=  
o" e]9{+<  
Jz6zJKcA  
z(_#C s  
本部分内容设定了隐藏,需要回复后才能看到

只看该作者 1 发表于: 2015-11-14
本部分内容设定了隐藏,需要回复后才能看到