切换到宽版
  • 732阅读
  • 1回复

像素大战/像素入侵.Pixels.2015.1080p.BluRay.x264.DTS-RARBG [复制链接]

上一主题 下一主题
 

只看楼主 倒序阅读 使用道具 0 发表于: 2015-10-11
FO[x c;  
◎译  名 像素大战/像素入侵/天煞:像素之战/像素/世界大对战(台)/屈机起格命(港) Bgw=((p  
◎片  名 Pixels Gs`[\<;LI  
◎年  代 2015 7T7 A\  
◎国  家 美国/中国/加拿大 EL/~c*a/  
◎类  别 动作/喜剧/科幻 s0EF{2<F  
◎语  言 英语  S(* u_  
◎字  幕 英文 !Q/oj Q  
◎IMDB评分5..6/10 from 31,288 users       K;uO<{a)r  
◎IMDB链接 http://www.imdb.com/title/tt2120120/ UQ[!k 6  
◎文件格式 H264 + DTS >]/RlW[  
◎视频尺寸 1920 x 808 &oJ1v<`  
◎文件大小 1CD 8.32 GiB c\P,ct }>  
◎片  长 1h 45mn ,1|Qm8O  
◎导  演 克里斯·哥伦布 Chris Columbus   &|]GTN `E  
◎主  演 亚当·桑德勒 Adam Sandler ...Brenner /-FvC^Fj  
                  凯文·詹姆斯 Kevin James...Cooper 'sII/sq`(  
                  米歇尔·莫纳汉 Michelle Monaghan ...Violet frh!dN  
                  彼特·丁克拉奇 Peter Dinklage ...Eddie Y| dw>qO  
                  Josh Gad ...Ludlow 7M.TLV!f]  
                  Matt Lintz ...Matty XJSI/jpa@  
                  Brian Cox ...Admiral Porter  gl$}t H  
                  Sean Bean ...Corporal Hill (SAS Officer) ,%^qzoZnT  
                  Jane Krakowski ...First Lady Jane Cooper 7QX p\<7  
                  Dan Aykroyd ...1982 Championship MC <V b SEi  
                  Affion Crockett ...Sergeant Dylan Cohan 0F5QAR O  
                  Lainie Kazan ...Mickey Lamonsoff xo GX&^=  
                  Ashley Benson ...Lady Lisa t&>eZ"  
                  Denis Akiyama ...Professor Iwatani hY(q@_s  
                  Tom McCarthy ...Michael the Robot   [QZ8M@Gty#  
hpBn_  
KvvG H-]  
◎简  介 .-mlV ^  
 qDK\MQ!  
     {P7 I<^,  
  作为1980年代的小孩,山姆·布伦纳(亚当·桑德勒 Adam Sandler 饰), 威尔·库珀(凯文·詹姆斯 Kevin James 饰),勒德洛·莱门梢夫(乔什·加德 Josh Gad 饰)和“火焰爆破枪”埃迪·普兰特(彼特·丁克拉奇 Peter Dinklage 饰)拯救过世界成千上万次——在游戏机室里二十五美分玩一次的游戏里。现在,他们必须得真刀真枪作战了。 m\"X%Y#  
]vQU(@+I  
  在像素大战中,当外星人发现经典街机游戏视频流并且误以为这是在宣战后,他们袭击了地球,运用游戏作为他们袭击策略——而现在美国总统库珀必须召集他旧日的街机战友一起拯救世界免受吃豆人、大金刚、小蜜蜂、蜈蚣还有太空入侵者毁灭。加入他们一起战斗的,还有一名向街机斗士提供外星人战斗专用武器的专家,维奥莱特·冯·帕顿中校(米歇尔·莫纳汉 Michelle Monaghan 饰)。他们的唯一目标是,战胜8比特像素外星人,保卫地球…… l xh}N,  
":vF[6K6  
花絮 knABlU  
1 F+$\fLr  
.根据2010年短片《像素入侵纽约城》改编。短片只有两分半钟,导演帕特里克·让是一家法国公司计算机绘图师,放到网上后一夜之间点击率过百万,之后便被好莱坞多家制片厂所相中。 V }wh  
;/~%D(  
.很多工作室都想把帕特里克·让的概念拍成电影,而让选择桑德勒是因为“我看过他很多电影,比如《狂野之爱》和《滑稽人物》。我们第一次会面也很棒,我可以感觉到他们对这部电影的热情和渴望。” q+1SU6x'm  
rhH !-`m  
.桑德勒回忆起自己第一次看到短片的情形,“当时我在办公室,看完后激动不已,马上就觉得这能拍成一部电影——这是一种怀旧情感,很酷。看到大金刚和所有你童年的小伙伴攻占城市,太有趣了。” QG]*v=Z  
d$<1Ma}  
.为了搞定吃豆人以及其他角色的版权问题,剧组花费了很大的功夫。演员米歇尔·莫娜汉开玩笑说,和所有的游戏角色达成交易比任何一个演员都要更难。 )%Lgo${[;  
rrc>O*>{i  
.哥伦布希望这部电影能够触到观众心灵,骚到观众痒处,给观众带来视觉震撼。他说:“这是一部缅怀80年代的片子,是一封寄给80年代的情书。” m'"Ra-  
[h@MA|  
.哥伦布形容影片的配乐风格类似于安培林娱乐公司(Amblin Entertainment,斯皮尔伯格的制片公司),诸如《回到未来》,“我们想要营造的就是那种怀旧的感觉和气氛。” x-Fl|kwX.5  
+l@+e_>  
.据说,影片的设定借鉴了动画片《飞出个未来》(Futurama)2002年播出的《Anthology Of Interest II》(第八季第四集)中的情节。合作。 -z?O^:e#x  
uTIl} N  
.岩谷教授(Professor Iwatani)这个角色的原型是现实中的岩谷彻(Toru Iwatani),一位日本游戏设计师,他是经典的《吃豆人》游戏的创造者。。 E|BiK  
<^YZ#3~1T  
.影片中显示的游戏最高分是以现实为基础。吃豆人最高分为满分333万3360分,最先由Billy Mitchell完成,片中的Sam也达到了满分。 &k0c|q]  
-^<`v{} Dn  
.Ludlow Lamonsoff的Centipede得分为1638万9548分,比现实中世界上最高分纪录持有者Jim Schneider高出一分。Eddie Plant《大金刚》得分为106万8100分,比前世界记录保持者Hank Chien高出100分。 I.L8A|nZ  
D OGg=`XK1  
.彼特·丁拉基饰演的Eddie Plant是以真实的游戏高手Billy Mitchell为原型,他是1982年到2000年间《大金刚》游戏最高得分纪录保持者。 BGZvgMxLJ  
 0ZpWfL  
.乔什·盖德2013年出演《定制伴郎》,他的角色声称“吃豆人”是他最喜欢的超级英雄,不过在本片中,吃豆人变成了毁灭人类的大坏蛋。 oQ_n:<3X  
&xjeZh4-  
.《像素大战》已经是亚当·桑德勒与凯文·詹姆斯第九次在电影或者电视作品中合作。 _.ELN/$-  
Xn:ac^  
.詹妮弗·安妮斯顿拒绝了在本片中饰演女主角,她的位置由米歇尔·莫娜汉接替。 A}Gj;vaw  
4j h4XdH  
获奖记录 js8GK  
C%+>uzVIw  
青少年选择奖(2015;第17届) oO)KhA? y  
提名 DozC>  
·青少年选择奖-最佳夏日电影男星亚当·桑德勒 Adam Sandler j])nkm7_  
L7qlvS Q  
DUK.-|a7  
r]vD]  
Video JI}p{ yI  
ID                                       : 1 )iG+pP@.@  
Format                                   : AVC  p3r1lUw  
Format/Info                              : Advanced Video Codec AFcA5: ja  
Format profile                           : High@L4.1 (B zf~#]~  
Format settings, CABAC                   : Yes tF d^5A*  
Format settings, ReFrames                : 5 frames UW[{Y|oE  
Codec ID                                 : V_MPEG4/ISO/AVC fKY1=3  
Duration                                 : 1h 45mn SEXLi8;/  
Bit rate                                 : 9 711 Kbps OWK)4[HY(  
Width                                    : 1 920 pixels *X^__PS]  
Height                                   : 808 pixels s=nE'/q1|  
Display aspect ratio                     : 2.40:1 Px4 zI9;cB  
Frame rate mode                          : Constant h;KI2k_^  
Frame rate                               : 23.976 fps rS 4'@a  
Color space                              : YUV N2_=^s7  
Chroma subsampling                       : 4:2:0 ku'%+svD  
Bit depth                                : 8 bits (;T; ?v`-  
Scan type                                : Progressive nWK"i\2#G  
Bits/(Pixel*Frame)                       : 0.261 xy|-{  
Stream size                              : 7.03 GiB (85%) y tmlG%  
Title                                    : Pixels.2015.1080p.BluRay.x264.DTS-RARBG *3<m<<>U  
Writing library                          : x264 core 148 r2597 e86f3a1 A_%}kt (6  
Encoding settings                        : cabac=1 / ref=5 / deblock=1:0:0 / analyse=0x3:0x133 / me=umh / subme=7 / psy=1 / psy_rd=1.00:0.00 / mixed_ref=1 / me_range=16 / chroma_me=1 / trellis=1 / 8x8dct=1 / cqm=0 / deadzone=21,11 / fast_pskip=0 / chroma_qp_offset=-2 / threads=18 / lookahead_threads=3 / sliced_threads=0 / nr=0 / decimate=1 / interlaced=0 / bluray_compat=0 / constrained_intra=0 / bframes=3 / b_pyramid=2 / b_adapt=1 / b_bias=0 / direct=1 / weightb=1 / open_gop=0 / weightp=2 / keyint=250 / keyint_min=23 / scenecut=40 / intra_refresh=0 / rc_lookahead=40 / rc=2pass / mbtree=1 / bitrate=9711 / ratetol=1.0 / qcomp=0.60 / qpmin=0 / qpmax=69 / qpstep=4 / cplxblur=20.0 / qblur=0.5 / ip_ratio=1.40 / aq=1:1.00 ^tuJM:  
Language                                 : English " I@Z:[=2  
Default                                  : Yes +WwQ!vWWd  
Forced                                   : No &fj&UBA  
^D B0C  
Audio zoOm[X=?3  
ID                                       : 2 |U^ ff^]  
Format                                   : DTS hP,1;`[1  
Format/Info                              : Digital Theater Systems (>0d+ KT  
Mode                                     : 16 G-n`X":$DT  
Format settings, Endianness              : Big X2i<2N*@  
Codec ID                                 : A_DTS fD\h5`-  
Duration                                 : 1h 45mn .(S,dG0P  
Bit rate mode                            : Constant i%*x7zjY{  
Bit rate                                 : 1 509 Kbps ]V@! kg(p8  
Channel(s)                               : 6 channels v& XG4 &  
Channel positions                        : Front: L C R, Side: L R, LFE rP`\<}a.  
Sampling rate                            : 48.0 KHz wKY6[vvF  
Bit depth                                : 16 bits 2 yP#:T/z  
Compression mode                         : Lossy ydns_Z  
Stream size                              : 1.12 GiB (13%) jQ`"Op 3  
Title                                    : Pixels.2015.1080p.BluRay.x264.DTS-RARBG ?$n<vF>  
Language                                 : English Y5MHd>m  
Default                                  : Yes Wt3\&.n  
Forced                                   : No 7OWiG,  
ao-C9|2>NU  
Text #1 s*l_O* $'  
ID                                       : 3 y ph  
Format                                   : UTF-8 N l@Hx  
Codec ID                                 : S_TEXT/UTF8 H1?1mH  
Codec ID/Info                            : UTF-8 Plain Text sG VC+!E  
Title                                    : FORCED Xj-3C[ 8@  
Language                                 : English v l*RR oJ  
Default                                  : Yes T]vD ,I+  
Forced                                   : Yes QHM39Eu]  
So8P 8TCK  
Text #2 f(_qcgXp  
ID                                       : 4 1OGlD+f  
Format                                   : PGS 3?geJlD4  
Muxing mode                              : zlib F@I_sGCcb  
Codec ID                                 : S_HDMV/PGS Rp<Xu6r  
Codec ID/Info                            : Picture based subtitle format used on BDs/HD-DVDs pj )I4C)  
Title                                    : SDH hW},%  
Language                                 : English Q.|2/6hD7[  
Default                                  : No B#DV<%GPl  
Forced                                   : No .6"7Xxe]<  
08` @u4  
Text #3 9e=*jRs]l^  
ID                                       : 5 i Bi/9  
Format                                   : PGS H{XW?O^ @  
Muxing mode                              : zlib vP?yl "U  
Codec ID                                 : S_HDMV/PGS 5cADC`q  
Codec ID/Info                            : Picture based subtitle format used on BDs/HD-DVDs u<8Q[_E&  
Language                                 : English 4|e#b(!  
Default                                  : No Qh[t##I/  
Forced                                   : No g\.N>P@Bu  
8vRiVJ8QS:  
Menu lV 9q;!/1  
00:00:00.000                             : en:00:00:00.000 ^ UzF nW@a  
00:04:54.044                             : en:00:04:54.044 CQ`(,F3(  
00:10:21.663                             : en:00:10:21.663 hJ<2bgQo  
00:14:51.766                             : en:00:14:51.766 \f  LBw0  
00:19:51.816                             : en:00:19:51.816 T 82_`u  
00:26:19.870                             : en:00:26:19.870 F"=MU8  
00:32:57.809                             : en:00:32:57.809 GCKl [<9*  
00:40:35.475                             : en:00:40:35.475 3KKe4{oG  
00:47:40.483                             : en:00:47:40.483 ,2`d3u^CW  
00:52:33.275                             : en:00:52:33.275 Vk (bU=w  
00:58:56.074                             : en:00:58:56.074 B`F82_O  
01:05:07.695                             : en:01:05:07.695 nf4 P2<L!  
01:09:23.076                             : en:01:09:23.076 [UH5D~Yx  
01:18:13.022                             : en:01:18:13.022 O5Lv :qAa  
01:27:54.186                             : en:01:27:54.186 Cf7\>U->  
01:33:53.002                             : en:01:33:53.002 %\cC]<>  
>I?Mi{'a  
/aqN`  
zmFFBf"<  
本部分内容设定了隐藏,需要回复后才能看到

只看该作者 1 发表于: 2015-11-14
本部分内容设定了隐藏,需要回复后才能看到