切换到宽版
  • 792阅读
  • 1回复

像素大战/像素入侵.Pixels.2015.1080p.BluRay.x264.DTS-RARBG [复制链接]

上一主题 下一主题
 

只看楼主 倒序阅读 使用道具 0 发表于: 2015-10-11
lYdQB[l  
◎译  名 像素大战/像素入侵/天煞:像素之战/像素/世界大对战(台)/屈机起格命(港) X@eg<]'m  
◎片  名 Pixels !xJFr6G~8  
◎年  代 2015 >+f'!*%7He  
◎国  家 美国/中国/加拿大 o] S`+ZcV  
◎类  别 动作/喜剧/科幻 & ]%\.m  
◎语  言 英语 FBbm4NB  
◎字  幕 英文 |'@V<^GR  
◎IMDB评分5..6/10 from 31,288 users       K wQXA'  
◎IMDB链接 http://www.imdb.com/title/tt2120120/ sFD!7 ;  
◎文件格式 H264 + DTS 6|i`@|#  
◎视频尺寸 1920 x 808 JN)"2}SE  
◎文件大小 1CD 8.32 GiB iPNd!_  
◎片  长 1h 45mn =X<)5IS3  
◎导  演 克里斯·哥伦布 Chris Columbus   'bG1U`v=3  
◎主  演 亚当·桑德勒 Adam Sandler ...Brenner "1\(ZKG8^Q  
                  凯文·詹姆斯 Kevin James...Cooper V9gVn?O0  
                  米歇尔·莫纳汉 Michelle Monaghan ...Violet "&| lO|  
                  彼特·丁克拉奇 Peter Dinklage ...Eddie ul}4p{ m[  
                  Josh Gad ...Ludlow @s3aR*ny$  
                  Matt Lintz ...Matty ,%.:g65%  
                  Brian Cox ...Admiral Porter Kl!DKeF  
                  Sean Bean ...Corporal Hill (SAS Officer) *di&%&f  
                  Jane Krakowski ...First Lady Jane Cooper N.k+AQb  
                  Dan Aykroyd ...1982 Championship MC EOofa6f&l  
                  Affion Crockett ...Sergeant Dylan Cohan pEJ#ad  
                  Lainie Kazan ...Mickey Lamonsoff 7d%A1}Bq$  
                  Ashley Benson ...Lady Lisa "@aq@mY@  
                  Denis Akiyama ...Professor Iwatani  %L{  
                  Tom McCarthy ...Michael the Robot   qW+=g]x\  
Cd$dn HVh  
G!-7ic_4  
◎简  介 aGdpec v  
/ O|Td'Z  
     |qQ{8T%)  
  作为1980年代的小孩,山姆·布伦纳(亚当·桑德勒 Adam Sandler 饰), 威尔·库珀(凯文·詹姆斯 Kevin James 饰),勒德洛·莱门梢夫(乔什·加德 Josh Gad 饰)和“火焰爆破枪”埃迪·普兰特(彼特·丁克拉奇 Peter Dinklage 饰)拯救过世界成千上万次——在游戏机室里二十五美分玩一次的游戏里。现在,他们必须得真刀真枪作战了。 ?hP<@L6K  
5+J 64_  
  在像素大战中,当外星人发现经典街机游戏视频流并且误以为这是在宣战后,他们袭击了地球,运用游戏作为他们袭击策略——而现在美国总统库珀必须召集他旧日的街机战友一起拯救世界免受吃豆人、大金刚、小蜜蜂、蜈蚣还有太空入侵者毁灭。加入他们一起战斗的,还有一名向街机斗士提供外星人战斗专用武器的专家,维奥莱特·冯·帕顿中校(米歇尔·莫纳汉 Michelle Monaghan 饰)。他们的唯一目标是,战胜8比特像素外星人,保卫地球…… t@l(xnsV  
z0=Rp0_W  
花絮 J~M H_N  
[BJ$|[11  
.根据2010年短片《像素入侵纽约城》改编。短片只有两分半钟,导演帕特里克·让是一家法国公司计算机绘图师,放到网上后一夜之间点击率过百万,之后便被好莱坞多家制片厂所相中。 'nC3:U  
^mS.HT=X  
.很多工作室都想把帕特里克·让的概念拍成电影,而让选择桑德勒是因为“我看过他很多电影,比如《狂野之爱》和《滑稽人物》。我们第一次会面也很棒,我可以感觉到他们对这部电影的热情和渴望。” (9Fabo\SH  
 n.=e)*  
.桑德勒回忆起自己第一次看到短片的情形,“当时我在办公室,看完后激动不已,马上就觉得这能拍成一部电影——这是一种怀旧情感,很酷。看到大金刚和所有你童年的小伙伴攻占城市,太有趣了。” EY,;e\7O,  
^uKnP>*l  
.为了搞定吃豆人以及其他角色的版权问题,剧组花费了很大的功夫。演员米歇尔·莫娜汉开玩笑说,和所有的游戏角色达成交易比任何一个演员都要更难。 wpAw/-/  
49iR8w?k  
.哥伦布希望这部电影能够触到观众心灵,骚到观众痒处,给观众带来视觉震撼。他说:“这是一部缅怀80年代的片子,是一封寄给80年代的情书。” \9[NH/.Z{  
jsK|D{m?  
.哥伦布形容影片的配乐风格类似于安培林娱乐公司(Amblin Entertainment,斯皮尔伯格的制片公司),诸如《回到未来》,“我们想要营造的就是那种怀旧的感觉和气氛。” ~| 4U@  
OHx ,*}N  
.据说,影片的设定借鉴了动画片《飞出个未来》(Futurama)2002年播出的《Anthology Of Interest II》(第八季第四集)中的情节。合作。 /5L'9e  
tjBh$)  
.岩谷教授(Professor Iwatani)这个角色的原型是现实中的岩谷彻(Toru Iwatani),一位日本游戏设计师,他是经典的《吃豆人》游戏的创造者。。 n1fE daa7g  
*%P>x}6w3  
.影片中显示的游戏最高分是以现实为基础。吃豆人最高分为满分333万3360分,最先由Billy Mitchell完成,片中的Sam也达到了满分。 BG(R=, 7  
u=_bM2;~Z  
.Ludlow Lamonsoff的Centipede得分为1638万9548分,比现实中世界上最高分纪录持有者Jim Schneider高出一分。Eddie Plant《大金刚》得分为106万8100分,比前世界记录保持者Hank Chien高出100分。 #i}#jMT  
6R$ F =MB  
.彼特·丁拉基饰演的Eddie Plant是以真实的游戏高手Billy Mitchell为原型,他是1982年到2000年间《大金刚》游戏最高得分纪录保持者。 u|]mcZ,ZW  
+#de8/x   
.乔什·盖德2013年出演《定制伴郎》,他的角色声称“吃豆人”是他最喜欢的超级英雄,不过在本片中,吃豆人变成了毁灭人类的大坏蛋。 aYv'H   
z v L>(R  
.《像素大战》已经是亚当·桑德勒与凯文·詹姆斯第九次在电影或者电视作品中合作。 =DeHxPv}f  
t~+{Hr) #y  
.詹妮弗·安妮斯顿拒绝了在本片中饰演女主角,她的位置由米歇尔·莫娜汉接替。 f.U0E6-(3N  
BK`Q)[  
获奖记录 2)HxW}o  
'xLM>6[wz  
青少年选择奖(2015;第17届) lp37irI:  
提名 j]@ x Q,y  
·青少年选择奖-最佳夏日电影男星亚当·桑德勒 Adam Sandler =8$(i[;6w  
| o;j0  
\]L::"![?  
9^#zxmH)  
Video w /Bn2b D  
ID                                       : 1 J]kP`  
Format                                   : AVC xdFP$Y~ogy  
Format/Info                              : Advanced Video Codec ShEaL&'J  
Format profile                           : High@L4.1 Z>>gXh<e[  
Format settings, CABAC                   : Yes Ti 9:'I  
Format settings, ReFrames                : 5 frames fY)4]=L  
Codec ID                                 : V_MPEG4/ISO/AVC >Rl0%!  
Duration                                 : 1h 45mn gLXvw]  
Bit rate                                 : 9 711 Kbps *783xEF>f  
Width                                    : 1 920 pixels Q%X:5G?  
Height                                   : 808 pixels M[`w{A  
Display aspect ratio                     : 2.40:1 6\)8mK  
Frame rate mode                          : Constant z1{E:~f  
Frame rate                               : 23.976 fps xy-$v   
Color space                              : YUV wM2)KM}$  
Chroma subsampling                       : 4:2:0 )DklOEO  
Bit depth                                : 8 bits $,z[XM&9)  
Scan type                                : Progressive X d19GP!  
Bits/(Pixel*Frame)                       : 0.261 e@2E0u4  
Stream size                              : 7.03 GiB (85%) ]sm0E@1  
Title                                    : Pixels.2015.1080p.BluRay.x264.DTS-RARBG ^cPo{xf  
Writing library                          : x264 core 148 r2597 e86f3a1 BW;=i.  
Encoding settings                        : cabac=1 / ref=5 / deblock=1:0:0 / analyse=0x3:0x133 / me=umh / subme=7 / psy=1 / psy_rd=1.00:0.00 / mixed_ref=1 / me_range=16 / chroma_me=1 / trellis=1 / 8x8dct=1 / cqm=0 / deadzone=21,11 / fast_pskip=0 / chroma_qp_offset=-2 / threads=18 / lookahead_threads=3 / sliced_threads=0 / nr=0 / decimate=1 / interlaced=0 / bluray_compat=0 / constrained_intra=0 / bframes=3 / b_pyramid=2 / b_adapt=1 / b_bias=0 / direct=1 / weightb=1 / open_gop=0 / weightp=2 / keyint=250 / keyint_min=23 / scenecut=40 / intra_refresh=0 / rc_lookahead=40 / rc=2pass / mbtree=1 / bitrate=9711 / ratetol=1.0 / qcomp=0.60 / qpmin=0 / qpmax=69 / qpstep=4 / cplxblur=20.0 / qblur=0.5 / ip_ratio=1.40 / aq=1:1.00 + aXk^+~j  
Language                                 : English YP .%CD(K  
Default                                  : Yes t`Y1.]@U  
Forced                                   : No D 7;~x]*  
YQB]t=Ha  
Audio L8?Z!0D/h  
ID                                       : 2 6/V{>MTZg  
Format                                   : DTS lo>-}xd  
Format/Info                              : Digital Theater Systems FgHB1x4;  
Mode                                     : 16 x jP" 'yU  
Format settings, Endianness              : Big ,,C~j`F  
Codec ID                                 : A_DTS RB$ 8^#  
Duration                                 : 1h 45mn %DND&0`  
Bit rate mode                            : Constant B 4*X0x  
Bit rate                                 : 1 509 Kbps !5' 8a5  
Channel(s)                               : 6 channels DoCQFSL  
Channel positions                        : Front: L C R, Side: L R, LFE 3' :[i2[  
Sampling rate                            : 48.0 KHz qu#@F\gX  
Bit depth                                : 16 bits =aCIaL&9Y  
Compression mode                         : Lossy [V#&sAe  
Stream size                              : 1.12 GiB (13%) D\_*,Fc  
Title                                    : Pixels.2015.1080p.BluRay.x264.DTS-RARBG 3MBz  
Language                                 : English w'!}(Z5X?  
Default                                  : Yes z*k 3q`=>  
Forced                                   : No ;t@ 3Go  
7,&]1+n  
Text #1 1 [~|  
ID                                       : 3 \.{pZMM  
Format                                   : UTF-8 5@%=LPV  
Codec ID                                 : S_TEXT/UTF8 g:HbmXOBpj  
Codec ID/Info                            : UTF-8 Plain Text aD2CDu  
Title                                    : FORCED 2AdHj&XE  
Language                                 : English zm)CfE F 8  
Default                                  : Yes [(e`b  
Forced                                   : Yes  h?pGw1Q  
sVm'9k  
Text #2 pg}DC0a  
ID                                       : 4 ~V$5m j   
Format                                   : PGS 1r-,V X7  
Muxing mode                              : zlib ow>[#.ua  
Codec ID                                 : S_HDMV/PGS yn ?U7`V  
Codec ID/Info                            : Picture based subtitle format used on BDs/HD-DVDs eQ)ioY  
Title                                    : SDH m%$E[cUW!  
Language                                 : English ,9l!fT?iH  
Default                                  : No uwS'*5tU  
Forced                                   : No BKP!+V/  
lj}1'K@M  
Text #3 )*L?PT  
ID                                       : 5 )dN,b( w9  
Format                                   : PGS 1 FIiX  
Muxing mode                              : zlib =B{$U~}  
Codec ID                                 : S_HDMV/PGS ]I*#R9  
Codec ID/Info                            : Picture based subtitle format used on BDs/HD-DVDs $, @ rKRY  
Language                                 : English c,s<q j  
Default                                  : No ewff(e9  
Forced                                   : No fS$Yl~-m?  
Hd@T8 D*A  
Menu r'JK$9  
00:00:00.000                             : en:00:00:00.000 I8pxo7(-  
00:04:54.044                             : en:00:04:54.044 u #QSa$P  
00:10:21.663                             : en:00:10:21.663 s].Cx4VQ  
00:14:51.766                             : en:00:14:51.766 ah@GSu;7  
00:19:51.816                             : en:00:19:51.816 M+&eh*:z:  
00:26:19.870                             : en:00:26:19.870 "e};?|y  
00:32:57.809                             : en:00:32:57.809 * jNu?$  
00:40:35.475                             : en:00:40:35.475 V9 t:JY  
00:47:40.483                             : en:00:47:40.483 >a] s  
00:52:33.275                             : en:00:52:33.275 %KVRiX  
00:58:56.074                             : en:00:58:56.074 vH\nL>r  
01:05:07.695                             : en:01:05:07.695 9lwo/(s  
01:09:23.076                             : en:01:09:23.076 UtW3KvJ#=  
01:18:13.022                             : en:01:18:13.022 C g,w6<7  
01:27:54.186                             : en:01:27:54.186 ,4I6RwB.  
01:33:53.002                             : en:01:33:53.002 Hn2Q1lF-ip  
%;XuA*e  
HQ#L |LN  
r3lr`s`  
本部分内容设定了隐藏,需要回复后才能看到

只看该作者 1 发表于: 2015-11-14
本部分内容设定了隐藏,需要回复后才能看到