切换到宽版
  • 892阅读
  • 1回复

像素大战/像素入侵.Pixels.2015.1080p.BluRay.x264.DTS-RARBG [复制链接]

上一主题 下一主题
 

只看楼主 倒序阅读 使用道具 0 发表于: 2015-10-11
9s6>9hMb)  
◎译  名 像素大战/像素入侵/天煞:像素之战/像素/世界大对战(台)/屈机起格命(港) O$u mu_  
◎片  名 Pixels pT; -1c%:  
◎年  代 2015 "K$Wh1<7  
◎国  家 美国/中国/加拿大 #b"5L2D`y'  
◎类  别 动作/喜剧/科幻 >7(~'#x8A"  
◎语  言 英语 (zw=qbS&  
◎字  幕 英文 {Fp`l\,  
◎IMDB评分5..6/10 from 31,288 users       P xVI {:Uz  
◎IMDB链接 http://www.imdb.com/title/tt2120120/ vD)A)  
◎文件格式 H264 + DTS u388Wj   
◎视频尺寸 1920 x 808 xX &>5 "  
◎文件大小 1CD 8.32 GiB >gZk 581/  
◎片  长 1h 45mn l F}$`6  
◎导  演 克里斯·哥伦布 Chris Columbus   o + QzQ+ Z  
◎主  演 亚当·桑德勒 Adam Sandler ...Brenner Xm^ h5jAr  
                  凯文·詹姆斯 Kevin James...Cooper G0; EbJ/&  
                  米歇尔·莫纳汉 Michelle Monaghan ...Violet ZaUcP6[h  
                  彼特·丁克拉奇 Peter Dinklage ...Eddie w{zJE]7  
                  Josh Gad ...Ludlow 9>[.=  
                  Matt Lintz ...Matty 9p\wTzA  
                  Brian Cox ...Admiral Porter g"dZB2`C  
                  Sean Bean ...Corporal Hill (SAS Officer) ?<yq 2`\4O  
                  Jane Krakowski ...First Lady Jane Cooper qJFgbq4-  
                  Dan Aykroyd ...1982 Championship MC fCt\2);a  
                  Affion Crockett ...Sergeant Dylan Cohan L4/TI(MP  
                  Lainie Kazan ...Mickey Lamonsoff ox\B3U%`p}  
                  Ashley Benson ...Lady Lisa & L.PU@  
                  Denis Akiyama ...Professor Iwatani !8"$d_=h  
                  Tom McCarthy ...Michael the Robot   |!xfIR>=F  
kO,VayjT  
x(3 I?#kE  
◎简  介 /,uSCITD  
v-7Rb )EP  
     sQ>B_Y!  
  作为1980年代的小孩,山姆·布伦纳(亚当·桑德勒 Adam Sandler 饰), 威尔·库珀(凯文·詹姆斯 Kevin James 饰),勒德洛·莱门梢夫(乔什·加德 Josh Gad 饰)和“火焰爆破枪”埃迪·普兰特(彼特·丁克拉奇 Peter Dinklage 饰)拯救过世界成千上万次——在游戏机室里二十五美分玩一次的游戏里。现在,他们必须得真刀真枪作战了。 A"bSNHCKF  
s7UhC.>'@  
  在像素大战中,当外星人发现经典街机游戏视频流并且误以为这是在宣战后,他们袭击了地球,运用游戏作为他们袭击策略——而现在美国总统库珀必须召集他旧日的街机战友一起拯救世界免受吃豆人、大金刚、小蜜蜂、蜈蚣还有太空入侵者毁灭。加入他们一起战斗的,还有一名向街机斗士提供外星人战斗专用武器的专家,维奥莱特·冯·帕顿中校(米歇尔·莫纳汉 Michelle Monaghan 饰)。他们的唯一目标是,战胜8比特像素外星人,保卫地球…… _sf#J|kQ  
Fyh?4!/.  
花絮 z"s%#/#  
=ve*g&  
.根据2010年短片《像素入侵纽约城》改编。短片只有两分半钟,导演帕特里克·让是一家法国公司计算机绘图师,放到网上后一夜之间点击率过百万,之后便被好莱坞多家制片厂所相中。 WK_y1(v>  
Dc&9emKI  
.很多工作室都想把帕特里克·让的概念拍成电影,而让选择桑德勒是因为“我看过他很多电影,比如《狂野之爱》和《滑稽人物》。我们第一次会面也很棒,我可以感觉到他们对这部电影的热情和渴望。” _86*.3fQG  
0x>/6 <<  
.桑德勒回忆起自己第一次看到短片的情形,“当时我在办公室,看完后激动不已,马上就觉得这能拍成一部电影——这是一种怀旧情感,很酷。看到大金刚和所有你童年的小伙伴攻占城市,太有趣了。” aX[1H6&=7  
a$xeiy9  
.为了搞定吃豆人以及其他角色的版权问题,剧组花费了很大的功夫。演员米歇尔·莫娜汉开玩笑说,和所有的游戏角色达成交易比任何一个演员都要更难。 MKVfy:g%So  
M~ i+F0  
.哥伦布希望这部电影能够触到观众心灵,骚到观众痒处,给观众带来视觉震撼。他说:“这是一部缅怀80年代的片子,是一封寄给80年代的情书。” k binf  
!0!U01SWa  
.哥伦布形容影片的配乐风格类似于安培林娱乐公司(Amblin Entertainment,斯皮尔伯格的制片公司),诸如《回到未来》,“我们想要营造的就是那种怀旧的感觉和气氛。” ,{ uW8L  
20.-;jK  
.据说,影片的设定借鉴了动画片《飞出个未来》(Futurama)2002年播出的《Anthology Of Interest II》(第八季第四集)中的情节。合作。 _Ra<|NVQh  
(/"K+$8'  
.岩谷教授(Professor Iwatani)这个角色的原型是现实中的岩谷彻(Toru Iwatani),一位日本游戏设计师,他是经典的《吃豆人》游戏的创造者。。 ]8xc?*i8  
hr_9;,EPh  
.影片中显示的游戏最高分是以现实为基础。吃豆人最高分为满分333万3360分,最先由Billy Mitchell完成,片中的Sam也达到了满分。 /slm ]'  
E VN-<=i^  
.Ludlow Lamonsoff的Centipede得分为1638万9548分,比现实中世界上最高分纪录持有者Jim Schneider高出一分。Eddie Plant《大金刚》得分为106万8100分,比前世界记录保持者Hank Chien高出100分。 [w&#+h-q  
cD'HQ3+  
.彼特·丁拉基饰演的Eddie Plant是以真实的游戏高手Billy Mitchell为原型,他是1982年到2000年间《大金刚》游戏最高得分纪录保持者。 v.l7 Q  
68koQgI[^  
.乔什·盖德2013年出演《定制伴郎》,他的角色声称“吃豆人”是他最喜欢的超级英雄,不过在本片中,吃豆人变成了毁灭人类的大坏蛋。 z_:eM7]jv  
XSm"I[.g  
.《像素大战》已经是亚当·桑德勒与凯文·詹姆斯第九次在电影或者电视作品中合作。 Yo~LckFF  
;t;Y.*&=S  
.詹妮弗·安妮斯顿拒绝了在本片中饰演女主角,她的位置由米歇尔·莫娜汉接替。 FG DGWcRw~  
(|0.m8D~D  
获奖记录 V-KL%  
nabBU4;h  
青少年选择奖(2015;第17届) GSMk\9SI  
提名 '%zN  
·青少年选择奖-最佳夏日电影男星亚当·桑德勒 Adam Sandler ]>R` ;"(  
r/ NSD$-n  
,:#,}w_HyO  
oUJj5iu}  
Video V=j-Um;  
ID                                       : 1 Q0zW ]a  
Format                                   : AVC Q^z=w![z  
Format/Info                              : Advanced Video Codec B ~fSMB6h  
Format profile                           : High@L4.1 ./'~];&  
Format settings, CABAC                   : Yes GVmC }>z  
Format settings, ReFrames                : 5 frames [>W"R 1/  
Codec ID                                 : V_MPEG4/ISO/AVC EMVk:Vt]  
Duration                                 : 1h 45mn '|vD/Qf=&  
Bit rate                                 : 9 711 Kbps B.89_!/:p  
Width                                    : 1 920 pixels yfmp$GO:  
Height                                   : 808 pixels s kN9O"^A  
Display aspect ratio                     : 2.40:1 Y3#Nux%  
Frame rate mode                          : Constant vU=9ydAj?  
Frame rate                               : 23.976 fps ,:D=gQ@`  
Color space                              : YUV V ]79 vC  
Chroma subsampling                       : 4:2:0 @ Ii-NmOr  
Bit depth                                : 8 bits KcC! N{  
Scan type                                : Progressive c_ La^HS  
Bits/(Pixel*Frame)                       : 0.261 K(<$.  
Stream size                              : 7.03 GiB (85%) Fi mN?s  
Title                                    : Pixels.2015.1080p.BluRay.x264.DTS-RARBG #SKfE  
Writing library                          : x264 core 148 r2597 e86f3a1 ~9Z h,p ;  
Encoding settings                        : cabac=1 / ref=5 / deblock=1:0:0 / analyse=0x3:0x133 / me=umh / subme=7 / psy=1 / psy_rd=1.00:0.00 / mixed_ref=1 / me_range=16 / chroma_me=1 / trellis=1 / 8x8dct=1 / cqm=0 / deadzone=21,11 / fast_pskip=0 / chroma_qp_offset=-2 / threads=18 / lookahead_threads=3 / sliced_threads=0 / nr=0 / decimate=1 / interlaced=0 / bluray_compat=0 / constrained_intra=0 / bframes=3 / b_pyramid=2 / b_adapt=1 / b_bias=0 / direct=1 / weightb=1 / open_gop=0 / weightp=2 / keyint=250 / keyint_min=23 / scenecut=40 / intra_refresh=0 / rc_lookahead=40 / rc=2pass / mbtree=1 / bitrate=9711 / ratetol=1.0 / qcomp=0.60 / qpmin=0 / qpmax=69 / qpstep=4 / cplxblur=20.0 / qblur=0.5 / ip_ratio=1.40 / aq=1:1.00 KAd_zkUA  
Language                                 : English ]UDd :2yt  
Default                                  : Yes 1EVfowIl  
Forced                                   : No y|$R`P  
Zp?4uQ)[W  
Audio sLb8*fak  
ID                                       : 2 aF!Ex  
Format                                   : DTS l , ..5   
Format/Info                              : Digital Theater Systems pmD4j8F_  
Mode                                     : 16 ]kx-,M(  
Format settings, Endianness              : Big P?kx  
Codec ID                                 : A_DTS sf(i E(o  
Duration                                 : 1h 45mn 3gAR4  
Bit rate mode                            : Constant [ `7%sn]$  
Bit rate                                 : 1 509 Kbps Q]@c&*_|  
Channel(s)                               : 6 channels z v>Oh#  
Channel positions                        : Front: L C R, Side: L R, LFE cJCU*(7&  
Sampling rate                            : 48.0 KHz ?WQNIX4  
Bit depth                                : 16 bits Ly;I,)w  
Compression mode                         : Lossy #%:c0=  
Stream size                              : 1.12 GiB (13%) F|>05>8  
Title                                    : Pixels.2015.1080p.BluRay.x264.DTS-RARBG qj&b o  
Language                                 : English Ojq]HM6f  
Default                                  : Yes *m9{V8Yi2  
Forced                                   : No [E7 MsX  
8'A72*dhX  
Text #1 8$0\J_  
ID                                       : 3 %Tv^GP{}  
Format                                   : UTF-8 OR:[J5M)  
Codec ID                                 : S_TEXT/UTF8 yhpz5[AuO  
Codec ID/Info                            : UTF-8 Plain Text b O=yi)  
Title                                    : FORCED F30 ]  
Language                                 : English %d1draL  
Default                                  : Yes X8i(~ B  
Forced                                   : Yes n2 {SV  
Dw_D+7>(v  
Text #2 & ze>X  
ID                                       : 4 "7,FXTaer  
Format                                   : PGS (u hd "  
Muxing mode                              : zlib x({H{'9?  
Codec ID                                 : S_HDMV/PGS O/Rhf[7v*  
Codec ID/Info                            : Picture based subtitle format used on BDs/HD-DVDs GaekFbW)  
Title                                    : SDH e)H!uR  
Language                                 : English ff e1lw%  
Default                                  : No x[(?#  
Forced                                   : No ]ikomCg   
@F~LW6K  
Text #3 ;@3FF  
ID                                       : 5 p `F9Amb  
Format                                   : PGS ka"337H  
Muxing mode                              : zlib C3'rtY.  
Codec ID                                 : S_HDMV/PGS vUA0FoOp  
Codec ID/Info                            : Picture based subtitle format used on BDs/HD-DVDs I.'b'-^  
Language                                 : English ]Mi.f3QlO6  
Default                                  : No F_;DN: {  
Forced                                   : No 3;[DJ5  
"TcW4U9  
Menu "LhvzM-<8  
00:00:00.000                             : en:00:00:00.000 ] )DX%$f  
00:04:54.044                             : en:00:04:54.044 Bux [6O %  
00:10:21.663                             : en:00:10:21.663  m#vL*]c}  
00:14:51.766                             : en:00:14:51.766 ->^~KVh&  
00:19:51.816                             : en:00:19:51.816 & fC!(Oy  
00:26:19.870                             : en:00:26:19.870 ?, r~=  
00:32:57.809                             : en:00:32:57.809 `d]IX^;  
00:40:35.475                             : en:00:40:35.475 Q/ms]Du  
00:47:40.483                             : en:00:47:40.483 4Y> Yi*n  
00:52:33.275                             : en:00:52:33.275 #H?t!DU  
00:58:56.074                             : en:00:58:56.074 I04jjr:<  
01:05:07.695                             : en:01:05:07.695 A - YBQPE  
01:09:23.076                             : en:01:09:23.076 *OJ/V O  
01:18:13.022                             : en:01:18:13.022 `:m!~  
01:27:54.186                             : en:01:27:54.186 "\W-f  
01:33:53.002                             : en:01:33:53.002 57a2^  
vbx6I>\Y  
.nu @ o40  
'^BV_QQ  
本部分内容设定了隐藏,需要回复后才能看到

只看该作者 1 发表于: 2015-11-14
本部分内容设定了隐藏,需要回复后才能看到