切换到宽版
  • 716阅读
  • 1回复

像素大战/像素入侵.Pixels.2015.1080p.BluRay.x264.DTS-RARBG [复制链接]

上一主题 下一主题
 

只看楼主 倒序阅读 使用道具 0 发表于: 2015-10-11
Ei4Iv#Oi`  
◎译  名 像素大战/像素入侵/天煞:像素之战/像素/世界大对战(台)/屈机起格命(港) T,9pd;k  
◎片  名 Pixels j;J`P H  
◎年  代 2015 5c0$oyl)M  
◎国  家 美国/中国/加拿大 M=54xTh0Y  
◎类  别 动作/喜剧/科幻 /V }Z,'+   
◎语  言 英语 kjF4c6v  
◎字  幕 英文 TDX~?> P  
◎IMDB评分5..6/10 from 31,288 users       +y^'\KN  
◎IMDB链接 http://www.imdb.com/title/tt2120120/ #wZbG|%  
◎文件格式 H264 + DTS d*dPi^JjC  
◎视频尺寸 1920 x 808 QIfP%,LT  
◎文件大小 1CD 8.32 GiB @D$ogU,#  
◎片  长 1h 45mn kkIG{Bw  
◎导  演 克里斯·哥伦布 Chris Columbus   ?-'G bOr!  
◎主  演 亚当·桑德勒 Adam Sandler ...Brenner \c1>15  
                  凯文·詹姆斯 Kevin James...Cooper QJSi|&Rx&?  
                  米歇尔·莫纳汉 Michelle Monaghan ...Violet P8[k1"c!  
                  彼特·丁克拉奇 Peter Dinklage ...Eddie kP1cwmZ7F  
                  Josh Gad ...Ludlow IEe;ygL#  
                  Matt Lintz ...Matty %I;uqf  
                  Brian Cox ...Admiral Porter h0C>z2iH  
                  Sean Bean ...Corporal Hill (SAS Officer) *xN?5u%  
                  Jane Krakowski ...First Lady Jane Cooper NU"L1dK @  
                  Dan Aykroyd ...1982 Championship MC ( j:eky  
                  Affion Crockett ...Sergeant Dylan Cohan .LGA 0  
                  Lainie Kazan ...Mickey Lamonsoff Gr'|n R8  
                  Ashley Benson ...Lady Lisa B>[myx  
                  Denis Akiyama ...Professor Iwatani nUK;M[  
                  Tom McCarthy ...Michael the Robot   gX| \O']6  
^a$L9p(  
Z*IW*f&0>1  
◎简  介  yyGn <  
&_-3>8gU  
     A p 3B'  
  作为1980年代的小孩,山姆·布伦纳(亚当·桑德勒 Adam Sandler 饰), 威尔·库珀(凯文·詹姆斯 Kevin James 饰),勒德洛·莱门梢夫(乔什·加德 Josh Gad 饰)和“火焰爆破枪”埃迪·普兰特(彼特·丁克拉奇 Peter Dinklage 饰)拯救过世界成千上万次——在游戏机室里二十五美分玩一次的游戏里。现在,他们必须得真刀真枪作战了。 ND/oKM+?  
GiKhdy  
  在像素大战中,当外星人发现经典街机游戏视频流并且误以为这是在宣战后,他们袭击了地球,运用游戏作为他们袭击策略——而现在美国总统库珀必须召集他旧日的街机战友一起拯救世界免受吃豆人、大金刚、小蜜蜂、蜈蚣还有太空入侵者毁灭。加入他们一起战斗的,还有一名向街机斗士提供外星人战斗专用武器的专家,维奥莱特·冯·帕顿中校(米歇尔·莫纳汉 Michelle Monaghan 饰)。他们的唯一目标是,战胜8比特像素外星人,保卫地球…… ~%h&ELSw  
{; O j  
花絮 ZZYtaVF:  
mex@~VK  
.根据2010年短片《像素入侵纽约城》改编。短片只有两分半钟,导演帕特里克·让是一家法国公司计算机绘图师,放到网上后一夜之间点击率过百万,之后便被好莱坞多家制片厂所相中。 A-*MH#QUKh  
etQS&YzC  
.很多工作室都想把帕特里克·让的概念拍成电影,而让选择桑德勒是因为“我看过他很多电影,比如《狂野之爱》和《滑稽人物》。我们第一次会面也很棒,我可以感觉到他们对这部电影的热情和渴望。” ..w$p-1  
m}]QP\  
.桑德勒回忆起自己第一次看到短片的情形,“当时我在办公室,看完后激动不已,马上就觉得这能拍成一部电影——这是一种怀旧情感,很酷。看到大金刚和所有你童年的小伙伴攻占城市,太有趣了。”  m-#]v}0A  
jUDE)~h  
.为了搞定吃豆人以及其他角色的版权问题,剧组花费了很大的功夫。演员米歇尔·莫娜汉开玩笑说,和所有的游戏角色达成交易比任何一个演员都要更难。 c~}FYO$  
Cq3Au%7  
.哥伦布希望这部电影能够触到观众心灵,骚到观众痒处,给观众带来视觉震撼。他说:“这是一部缅怀80年代的片子,是一封寄给80年代的情书。” ]:m4~0^#-(  
vu&ny&=`  
.哥伦布形容影片的配乐风格类似于安培林娱乐公司(Amblin Entertainment,斯皮尔伯格的制片公司),诸如《回到未来》,“我们想要营造的就是那种怀旧的感觉和气氛。” foB&H;A4oC  
Vy^mEsQC+h  
.据说,影片的设定借鉴了动画片《飞出个未来》(Futurama)2002年播出的《Anthology Of Interest II》(第八季第四集)中的情节。合作。 L">m2/ HG  
R^]a<g ,  
.岩谷教授(Professor Iwatani)这个角色的原型是现实中的岩谷彻(Toru Iwatani),一位日本游戏设计师,他是经典的《吃豆人》游戏的创造者。。 s>[Oe|`  
RRzLQ7J  
.影片中显示的游戏最高分是以现实为基础。吃豆人最高分为满分333万3360分,最先由Billy Mitchell完成,片中的Sam也达到了满分。 jo<Gf 5  
&Aym@G|k?  
.Ludlow Lamonsoff的Centipede得分为1638万9548分,比现实中世界上最高分纪录持有者Jim Schneider高出一分。Eddie Plant《大金刚》得分为106万8100分,比前世界记录保持者Hank Chien高出100分。 OL^DuoB4q  
t;:Yf  
.彼特·丁拉基饰演的Eddie Plant是以真实的游戏高手Billy Mitchell为原型,他是1982年到2000年间《大金刚》游戏最高得分纪录保持者。 C;#gy-  
R/ x-$VJ  
.乔什·盖德2013年出演《定制伴郎》,他的角色声称“吃豆人”是他最喜欢的超级英雄,不过在本片中,吃豆人变成了毁灭人类的大坏蛋。 um\A  
 v&7x ~!O  
.《像素大战》已经是亚当·桑德勒与凯文·詹姆斯第九次在电影或者电视作品中合作。 [4@@b"H  
YG)7+94  
.詹妮弗·安妮斯顿拒绝了在本片中饰演女主角,她的位置由米歇尔·莫娜汉接替。 ldc`Y/:{  
A0Q1"b=  
获奖记录 ]BTISaL-R  
#qJ6iA6{  
青少年选择奖(2015;第17届) f9hH{ ( A  
提名 pK'D(t  
·青少年选择奖-最佳夏日电影男星亚当·桑德勒 Adam Sandler 5d}bl{  
xsrdHP1  
LmUR@ /V Q  
.TNJuuO  
Video w;J#+ik  
ID                                       : 1 `_"?$ v2F  
Format                                   : AVC zE7)4!  
Format/Info                              : Advanced Video Codec EJJ&`,q  
Format profile                           : High@L4.1 W#wC  
Format settings, CABAC                   : Yes u!b0 <E  
Format settings, ReFrames                : 5 frames h(^[WSa  
Codec ID                                 : V_MPEG4/ISO/AVC k\ZU%"^J  
Duration                                 : 1h 45mn s&DAO r!i  
Bit rate                                 : 9 711 Kbps =S\ pI  
Width                                    : 1 920 pixels clM6R  
Height                                   : 808 pixels K n2W{*wD  
Display aspect ratio                     : 2.40:1 Ju.T.)H  
Frame rate mode                          : Constant aDE}'d1qo  
Frame rate                               : 23.976 fps t,kai6UM  
Color space                              : YUV "<"s&ws;k  
Chroma subsampling                       : 4:2:0 }q?q)cG  
Bit depth                                : 8 bits w" A{R  
Scan type                                : Progressive Tb] h<S  
Bits/(Pixel*Frame)                       : 0.261 \JNWL yw  
Stream size                              : 7.03 GiB (85%) ETfoL.d$(  
Title                                    : Pixels.2015.1080p.BluRay.x264.DTS-RARBG s]xn&rd_  
Writing library                          : x264 core 148 r2597 e86f3a1 }IKU^0M9<T  
Encoding settings                        : cabac=1 / ref=5 / deblock=1:0:0 / analyse=0x3:0x133 / me=umh / subme=7 / psy=1 / psy_rd=1.00:0.00 / mixed_ref=1 / me_range=16 / chroma_me=1 / trellis=1 / 8x8dct=1 / cqm=0 / deadzone=21,11 / fast_pskip=0 / chroma_qp_offset=-2 / threads=18 / lookahead_threads=3 / sliced_threads=0 / nr=0 / decimate=1 / interlaced=0 / bluray_compat=0 / constrained_intra=0 / bframes=3 / b_pyramid=2 / b_adapt=1 / b_bias=0 / direct=1 / weightb=1 / open_gop=0 / weightp=2 / keyint=250 / keyint_min=23 / scenecut=40 / intra_refresh=0 / rc_lookahead=40 / rc=2pass / mbtree=1 / bitrate=9711 / ratetol=1.0 / qcomp=0.60 / qpmin=0 / qpmax=69 / qpstep=4 / cplxblur=20.0 / qblur=0.5 / ip_ratio=1.40 / aq=1:1.00 p >nKNd_aQ  
Language                                 : English CR-2>,*a9  
Default                                  : Yes XZ/cRE z^s  
Forced                                   : No sT91>'&  
&VVvZ@X;  
Audio quFNPdP  
ID                                       : 2 lK#uya g  
Format                                   : DTS Ul|htB<1:  
Format/Info                              : Digital Theater Systems Wix4se1Ac  
Mode                                     : 16 D]K?ntS[*  
Format settings, Endianness              : Big 1c$c e+n~  
Codec ID                                 : A_DTS Lx3`.F\mG  
Duration                                 : 1h 45mn PB@jh}  
Bit rate mode                            : Constant ,){WK|_  
Bit rate                                 : 1 509 Kbps -nB. .q  
Channel(s)                               : 6 channels Ia>~ph#]{`  
Channel positions                        : Front: L C R, Side: L R, LFE gy/bA  
Sampling rate                            : 48.0 KHz ^]$rh.7&  
Bit depth                                : 16 bits a,[NcdG  
Compression mode                         : Lossy !GoHCe[10  
Stream size                              : 1.12 GiB (13%) smuQ1.b  
Title                                    : Pixels.2015.1080p.BluRay.x264.DTS-RARBG , L8(Vo`-  
Language                                 : English .H5^N\V|  
Default                                  : Yes e`% <D[-  
Forced                                   : No 2%j"E{J&  
,uS}wJAX  
Text #1 qWI8 >my11  
ID                                       : 3 Aj@t*3  
Format                                   : UTF-8 Qr[".>+  
Codec ID                                 : S_TEXT/UTF8 ?;p45y~n%  
Codec ID/Info                            : UTF-8 Plain Text wUmcA~3D  
Title                                    : FORCED =M34 HPG  
Language                                 : English \2)~dV:6+  
Default                                  : Yes a8Z{-=)  
Forced                                   : Yes us^J! s7  
:z+l=d:4  
Text #2 Qx77%L4  
ID                                       : 4 ,}$[;$ye  
Format                                   : PGS U p: M[S  
Muxing mode                              : zlib );V.le}%(  
Codec ID                                 : S_HDMV/PGS 6 kAXE\T  
Codec ID/Info                            : Picture based subtitle format used on BDs/HD-DVDs DgC;1U'  
Title                                    : SDH &+8cI^ kp  
Language                                 : English Y/G~P,9  
Default                                  : No =' #yG(h  
Forced                                   : No GhY MO6Q4  
k!sk\~>YO  
Text #3 0 I[3%Q{  
ID                                       : 5 T3^(I~03  
Format                                   : PGS Y f;Slps  
Muxing mode                              : zlib ~Z x_"  
Codec ID                                 : S_HDMV/PGS g2GHsVS  
Codec ID/Info                            : Picture based subtitle format used on BDs/HD-DVDs F]^ZdJ2  
Language                                 : English T &kr IZw  
Default                                  : No kV+O|9  
Forced                                   : No :HDU \|{^  
I0 C$  
Menu f hr QJ  
00:00:00.000                             : en:00:00:00.000 lAx^!#~\  
00:04:54.044                             : en:00:04:54.044 ;Fm7!@u^0  
00:10:21.663                             : en:00:10:21.663 c~iAjq+c  
00:14:51.766                             : en:00:14:51.766 \>r<z 46x  
00:19:51.816                             : en:00:19:51.816 8yn}|Y9Fu  
00:26:19.870                             : en:00:26:19.870 {/SLDyf%Z  
00:32:57.809                             : en:00:32:57.809 /|2 hW`G  
00:40:35.475                             : en:00:40:35.475 YCEdt>5PA  
00:47:40.483                             : en:00:47:40.483 @If ^5s;z  
00:52:33.275                             : en:00:52:33.275 8!u8ZvbFG  
00:58:56.074                             : en:00:58:56.074  oN7JNMT  
01:05:07.695                             : en:01:05:07.695 uj9I K  
01:09:23.076                             : en:01:09:23.076 qx<h rC0Z&  
01:18:13.022                             : en:01:18:13.022 W=@] YI  
01:27:54.186                             : en:01:27:54.186 8\@&~&(y:  
01:33:53.002                             : en:01:33:53.002 7!"OF  
[agp06 $D?  
c @~j}(A  
x7 l3&;yDv  
本部分内容设定了隐藏,需要回复后才能看到

只看该作者 1 发表于: 2015-11-14
本部分内容设定了隐藏,需要回复后才能看到