切换到宽版
  • 774阅读
  • 1回复

像素大战/像素入侵.Pixels.2015.1080p.BluRay.x264.DTS-RARBG [复制链接]

上一主题 下一主题
 

只看楼主 倒序阅读 使用道具 0 发表于: 2015-10-11
x K%=  
◎译  名 像素大战/像素入侵/天煞:像素之战/像素/世界大对战(台)/屈机起格命(港) 34 AP(3w  
◎片  名 Pixels Ka_S n  
◎年  代 2015 _%@=Uc6V  
◎国  家 美国/中国/加拿大 3 /6/G}s  
◎类  别 动作/喜剧/科幻 TCVl8)j  
◎语  言 英语 [w \?j,  
◎字  幕 英文 $ChK]v 6C  
◎IMDB评分5..6/10 from 31,288 users       W0`Gc {  
◎IMDB链接 http://www.imdb.com/title/tt2120120/ OyG"1F  
◎文件格式 H264 + DTS }ynT2a#LU'  
◎视频尺寸 1920 x 808 .V'V:;BE%  
◎文件大小 1CD 8.32 GiB wo^Sy41bF  
◎片  长 1h 45mn W  0[N0c  
◎导  演 克里斯·哥伦布 Chris Columbus   N+W&NlZ   
◎主  演 亚当·桑德勒 Adam Sandler ...Brenner b3 qc_  
                  凯文·詹姆斯 Kevin James...Cooper alFjc.~}  
                  米歇尔·莫纳汉 Michelle Monaghan ...Violet "E=j|q  
                  彼特·丁克拉奇 Peter Dinklage ...Eddie g=)J~1&p  
                  Josh Gad ...Ludlow ~[PKcEX  
                  Matt Lintz ...Matty T5lQIr@a  
                  Brian Cox ...Admiral Porter VDEv>u4  
                  Sean Bean ...Corporal Hill (SAS Officer) tx7~S Ur  
                  Jane Krakowski ...First Lady Jane Cooper 4/> Our 5  
                  Dan Aykroyd ...1982 Championship MC Q}AE.Ef@<  
                  Affion Crockett ...Sergeant Dylan Cohan F1 azZ (  
                  Lainie Kazan ...Mickey Lamonsoff 4jm K].  
                  Ashley Benson ...Lady Lisa -#&kYK#Ph  
                  Denis Akiyama ...Professor Iwatani ni CE\B~  
                  Tom McCarthy ...Michael the Robot   pb;")Q'  
^C^*,V3  
(X[2TT3j!  
◎简  介 D vkxI<Xa  
': F}3At  
     ,\PVC@xJ  
  作为1980年代的小孩,山姆·布伦纳(亚当·桑德勒 Adam Sandler 饰), 威尔·库珀(凯文·詹姆斯 Kevin James 饰),勒德洛·莱门梢夫(乔什·加德 Josh Gad 饰)和“火焰爆破枪”埃迪·普兰特(彼特·丁克拉奇 Peter Dinklage 饰)拯救过世界成千上万次——在游戏机室里二十五美分玩一次的游戏里。现在,他们必须得真刀真枪作战了。 j0-McLc  
WT3gNNx|  
  在像素大战中,当外星人发现经典街机游戏视频流并且误以为这是在宣战后,他们袭击了地球,运用游戏作为他们袭击策略——而现在美国总统库珀必须召集他旧日的街机战友一起拯救世界免受吃豆人、大金刚、小蜜蜂、蜈蚣还有太空入侵者毁灭。加入他们一起战斗的,还有一名向街机斗士提供外星人战斗专用武器的专家,维奥莱特·冯·帕顿中校(米歇尔·莫纳汉 Michelle Monaghan 饰)。他们的唯一目标是,战胜8比特像素外星人,保卫地球…… LX+5|u  
W=}Okq)x9I  
花絮 h5%|meZQb  
0au)g!t i  
.根据2010年短片《像素入侵纽约城》改编。短片只有两分半钟,导演帕特里克·让是一家法国公司计算机绘图师,放到网上后一夜之间点击率过百万,之后便被好莱坞多家制片厂所相中。 wNCCH55Pt  
x ,/TXTZ6  
.很多工作室都想把帕特里克·让的概念拍成电影,而让选择桑德勒是因为“我看过他很多电影,比如《狂野之爱》和《滑稽人物》。我们第一次会面也很棒,我可以感觉到他们对这部电影的热情和渴望。” Eh8Pwt7C@  
mPZGA\  
.桑德勒回忆起自己第一次看到短片的情形,“当时我在办公室,看完后激动不已,马上就觉得这能拍成一部电影——这是一种怀旧情感,很酷。看到大金刚和所有你童年的小伙伴攻占城市,太有趣了。” [G|mY6F^  
,lN5,zI=S  
.为了搞定吃豆人以及其他角色的版权问题,剧组花费了很大的功夫。演员米歇尔·莫娜汉开玩笑说,和所有的游戏角色达成交易比任何一个演员都要更难。 j} HFs0<L  
A/*%J74v  
.哥伦布希望这部电影能够触到观众心灵,骚到观众痒处,给观众带来视觉震撼。他说:“这是一部缅怀80年代的片子,是一封寄给80年代的情书。” IfdI|ya  
>O`l8tM  
.哥伦布形容影片的配乐风格类似于安培林娱乐公司(Amblin Entertainment,斯皮尔伯格的制片公司),诸如《回到未来》,“我们想要营造的就是那种怀旧的感觉和气氛。” \y Hen|%  
 ^y.UbI  
.据说,影片的设定借鉴了动画片《飞出个未来》(Futurama)2002年播出的《Anthology Of Interest II》(第八季第四集)中的情节。合作。 8}p8r|d!ls  
K\! #4>yd  
.岩谷教授(Professor Iwatani)这个角色的原型是现实中的岩谷彻(Toru Iwatani),一位日本游戏设计师,他是经典的《吃豆人》游戏的创造者。。 Iq5pAHm>M6  
$ACx*e%  
.影片中显示的游戏最高分是以现实为基础。吃豆人最高分为满分333万3360分,最先由Billy Mitchell完成,片中的Sam也达到了满分。 w; TkkDH  
3 pWM~(#>-  
.Ludlow Lamonsoff的Centipede得分为1638万9548分,比现实中世界上最高分纪录持有者Jim Schneider高出一分。Eddie Plant《大金刚》得分为106万8100分,比前世界记录保持者Hank Chien高出100分。 dJ3 IUe  
lPq\=V  
.彼特·丁拉基饰演的Eddie Plant是以真实的游戏高手Billy Mitchell为原型,他是1982年到2000年间《大金刚》游戏最高得分纪录保持者。 5fjd{Y[k  
s'I)A^i+  
.乔什·盖德2013年出演《定制伴郎》,他的角色声称“吃豆人”是他最喜欢的超级英雄,不过在本片中,吃豆人变成了毁灭人类的大坏蛋。  .jg0a  
eBr4O i  
.《像素大战》已经是亚当·桑德勒与凯文·詹姆斯第九次在电影或者电视作品中合作。 Se^^E.Z,W  
0~A#>R'  
.詹妮弗·安妮斯顿拒绝了在本片中饰演女主角,她的位置由米歇尔·莫娜汉接替。 7 _jE[10  
9 t:]  
获奖记录 t1]6(@mj5  
Csst[3V  
青少年选择奖(2015;第17届) h BMH)aU  
提名 3Kq`<B~%  
·青少年选择奖-最佳夏日电影男星亚当·桑德勒 Adam Sandler 1JS 2SxF  
9(1rh9`=  
d.F)9h]XHO  
iw]k5<qKj  
Video /Bv#) -5  
ID                                       : 1 m\0cE1fir  
Format                                   : AVC *YV S|6bs  
Format/Info                              : Advanced Video Codec C".1 +Um  
Format profile                           : High@L4.1 W:s@L#-  
Format settings, CABAC                   : Yes }p3 b#fAr  
Format settings, ReFrames                : 5 frames .(Y6$[#@  
Codec ID                                 : V_MPEG4/ISO/AVC I}0_nge  
Duration                                 : 1h 45mn mf$j03tu  
Bit rate                                 : 9 711 Kbps je%M AgW`  
Width                                    : 1 920 pixels = 1|"-  
Height                                   : 808 pixels yyl#{Nl@t  
Display aspect ratio                     : 2.40:1 440FhD Mj  
Frame rate mode                          : Constant S3 \jcgrS  
Frame rate                               : 23.976 fps `u'dh{,gE  
Color space                              : YUV #gZ|T M/h  
Chroma subsampling                       : 4:2:0 d,#.E@Po  
Bit depth                                : 8 bits h[Tk; h  
Scan type                                : Progressive n Y w\'c  
Bits/(Pixel*Frame)                       : 0.261 gQVBA %  
Stream size                              : 7.03 GiB (85%) fj']?a!m  
Title                                    : Pixels.2015.1080p.BluRay.x264.DTS-RARBG .Ao0;:;(2-  
Writing library                          : x264 core 148 r2597 e86f3a1 _ n O.-  
Encoding settings                        : cabac=1 / ref=5 / deblock=1:0:0 / analyse=0x3:0x133 / me=umh / subme=7 / psy=1 / psy_rd=1.00:0.00 / mixed_ref=1 / me_range=16 / chroma_me=1 / trellis=1 / 8x8dct=1 / cqm=0 / deadzone=21,11 / fast_pskip=0 / chroma_qp_offset=-2 / threads=18 / lookahead_threads=3 / sliced_threads=0 / nr=0 / decimate=1 / interlaced=0 / bluray_compat=0 / constrained_intra=0 / bframes=3 / b_pyramid=2 / b_adapt=1 / b_bias=0 / direct=1 / weightb=1 / open_gop=0 / weightp=2 / keyint=250 / keyint_min=23 / scenecut=40 / intra_refresh=0 / rc_lookahead=40 / rc=2pass / mbtree=1 / bitrate=9711 / ratetol=1.0 / qcomp=0.60 / qpmin=0 / qpmax=69 / qpstep=4 / cplxblur=20.0 / qblur=0.5 / ip_ratio=1.40 / aq=1:1.00  M[P^]J@  
Language                                 : English XAic9SNu;  
Default                                  : Yes Z5)eREi=  
Forced                                   : No @z,*K_AKr  
=Viy^ieN$  
Audio LJuW ${Y  
ID                                       : 2 fEqC] *s  
Format                                   : DTS [#b2%G1  
Format/Info                              : Digital Theater Systems \ aKd5@  
Mode                                     : 16 iD_T P  
Format settings, Endianness              : Big 4O$2]D.\  
Codec ID                                 : A_DTS DdjCn`jqlf  
Duration                                 : 1h 45mn 3oBC   
Bit rate mode                            : Constant #BJ\{"b_}z  
Bit rate                                 : 1 509 Kbps zJl_ t0  
Channel(s)                               : 6 channels o0Gx%99'  
Channel positions                        : Front: L C R, Side: L R, LFE "sbBe73 m  
Sampling rate                            : 48.0 KHz ([pSVOnIz  
Bit depth                                : 16 bits B@cz ?%]  
Compression mode                         : Lossy 8F6h#%9  
Stream size                              : 1.12 GiB (13%) zy)i1d  
Title                                    : Pixels.2015.1080p.BluRay.x264.DTS-RARBG avNLV  
Language                                 : English i Ci>zJ  
Default                                  : Yes :YvbU Y  
Forced                                   : No  )U98  
#x)}29%e#  
Text #1 L3c*LL  
ID                                       : 3 Y3o Mh,  
Format                                   : UTF-8 *\q8BZ  
Codec ID                                 : S_TEXT/UTF8 }98-5'u.X  
Codec ID/Info                            : UTF-8 Plain Text ,U=E[X=H  
Title                                    : FORCED c E76L%O  
Language                                 : English n2'|.y}Um:  
Default                                  : Yes K` (#K#n  
Forced                                   : Yes >]/dOH,A  
U$J5r+>  
Text #2 g!^J,e=  
ID                                       : 4 wRbw  
Format                                   : PGS ~3 @*7B5Q  
Muxing mode                              : zlib fv ?45f  
Codec ID                                 : S_HDMV/PGS DTy/jaK  
Codec ID/Info                            : Picture based subtitle format used on BDs/HD-DVDs I~RcOiL)  
Title                                    : SDH ~CFMIQ et  
Language                                 : English -1mvhR~  
Default                                  : No /djACA  
Forced                                   : No DQ_ 2fX~)  
2oB?Dn  
Text #3 HD00J]y_   
ID                                       : 5 W-Of[X{<  
Format                                   : PGS j+0.= #{??  
Muxing mode                              : zlib %UG/ak%z  
Codec ID                                 : S_HDMV/PGS .0 X$rX=  
Codec ID/Info                            : Picture based subtitle format used on BDs/HD-DVDs .zwVCW,u  
Language                                 : English 8MQ bLj'H  
Default                                  : No fLM.k CD?u  
Forced                                   : No vU 9ek:.l  
gV`S%   
Menu #M:B3C!ouY  
00:00:00.000                             : en:00:00:00.000 &#,v_B)a_E  
00:04:54.044                             : en:00:04:54.044 BvJ\x)  
00:10:21.663                             : en:00:10:21.663 enPYj.*/0  
00:14:51.766                             : en:00:14:51.766 L8D m9}  
00:19:51.816                             : en:00:19:51.816 Hn^sW LT  
00:26:19.870                             : en:00:26:19.870 F*!gzKZ"  
00:32:57.809                             : en:00:32:57.809 .h6Y< E  
00:40:35.475                             : en:00:40:35.475 '\'7yN'  
00:47:40.483                             : en:00:47:40.483 +{^'i P  
00:52:33.275                             : en:00:52:33.275 `axQd%:AC  
00:58:56.074                             : en:00:58:56.074 I1v@\Rb  
01:05:07.695                             : en:01:05:07.695 Bxt_a.LthH  
01:09:23.076                             : en:01:09:23.076 |rFJ*.nD  
01:18:13.022                             : en:01:18:13.022 QRiF!D)Nk  
01:27:54.186                             : en:01:27:54.186 f~iML5lG  
01:33:53.002                             : en:01:33:53.002 c }'Xoc  
_KxX&THaj  
~D_ rZ&  
`W="g6(  
本部分内容设定了隐藏,需要回复后才能看到

只看该作者 1 发表于: 2015-11-14
本部分内容设定了隐藏,需要回复后才能看到