切换到宽版
  • 816阅读
  • 1回复

像素大战/像素入侵.Pixels.2015.1080p.BluRay.x264.DTS-RARBG [复制链接]

上一主题 下一主题
 

只看楼主 倒序阅读 使用道具 0 发表于: 2015-10-11
*m;L.r`5[  
◎译  名 像素大战/像素入侵/天煞:像素之战/像素/世界大对战(台)/屈机起格命(港) Sdn] f4  
◎片  名 Pixels _ &T$0SZco  
◎年  代 2015 ji1A>jepF  
◎国  家 美国/中国/加拿大 TZ/u"' ZS  
◎类  别 动作/喜剧/科幻 Ruf*aF(  
◎语  言 英语 )_BteLo-  
◎字  幕 英文 - na]P3 s  
◎IMDB评分5..6/10 from 31,288 users       5\pizD/17  
◎IMDB链接 http://www.imdb.com/title/tt2120120/ ow&R~_  
◎文件格式 H264 + DTS (Lc%G~{  
◎视频尺寸 1920 x 808  d00r&Mc  
◎文件大小 1CD 8.32 GiB V3UEuA  
◎片  长 1h 45mn aW"BN 5eM>  
◎导  演 克里斯·哥伦布 Chris Columbus   qRr;&M &t_  
◎主  演 亚当·桑德勒 Adam Sandler ...Brenner {5,CW  
                  凯文·詹姆斯 Kevin James...Cooper -v]7}[ .[  
                  米歇尔·莫纳汉 Michelle Monaghan ...Violet wBr0s *1I  
                  彼特·丁克拉奇 Peter Dinklage ...Eddie 4|~o<t8  
                  Josh Gad ...Ludlow MQI6e".  
                  Matt Lintz ...Matty J[^-k!9M  
                  Brian Cox ...Admiral Porter O)hNHIF  
                  Sean Bean ...Corporal Hill (SAS Officer) H.YntFtD'  
                  Jane Krakowski ...First Lady Jane Cooper B${Q Y)t  
                  Dan Aykroyd ...1982 Championship MC a{y ;Ub  
                  Affion Crockett ...Sergeant Dylan Cohan oRCj]9I$  
                  Lainie Kazan ...Mickey Lamonsoff LE Y$St  
                  Ashley Benson ...Lady Lisa bk V_ ^8  
                  Denis Akiyama ...Professor Iwatani FvRog<3X  
                  Tom McCarthy ...Michael the Robot   CrK}mbe  
M]oaWQu  
0Rj_l: d=  
◎简  介 rK"x92P0  
}4$UlTA'  
     VLRW,lR9O  
  作为1980年代的小孩,山姆·布伦纳(亚当·桑德勒 Adam Sandler 饰), 威尔·库珀(凯文·詹姆斯 Kevin James 饰),勒德洛·莱门梢夫(乔什·加德 Josh Gad 饰)和“火焰爆破枪”埃迪·普兰特(彼特·丁克拉奇 Peter Dinklage 饰)拯救过世界成千上万次——在游戏机室里二十五美分玩一次的游戏里。现在,他们必须得真刀真枪作战了。 /: B!hv pw  
$[H3O(B0*  
  在像素大战中,当外星人发现经典街机游戏视频流并且误以为这是在宣战后,他们袭击了地球,运用游戏作为他们袭击策略——而现在美国总统库珀必须召集他旧日的街机战友一起拯救世界免受吃豆人、大金刚、小蜜蜂、蜈蚣还有太空入侵者毁灭。加入他们一起战斗的,还有一名向街机斗士提供外星人战斗专用武器的专家,维奥莱特·冯·帕顿中校(米歇尔·莫纳汉 Michelle Monaghan 饰)。他们的唯一目标是,战胜8比特像素外星人,保卫地球…… aC;OFINK  
UF?qL1w  
花絮 ]@_*O$  
<_h  
.根据2010年短片《像素入侵纽约城》改编。短片只有两分半钟,导演帕特里克·让是一家法国公司计算机绘图师,放到网上后一夜之间点击率过百万,之后便被好莱坞多家制片厂所相中。 9OX&;O+ 5  
v&|o5om  
.很多工作室都想把帕特里克·让的概念拍成电影,而让选择桑德勒是因为“我看过他很多电影,比如《狂野之爱》和《滑稽人物》。我们第一次会面也很棒,我可以感觉到他们对这部电影的热情和渴望。” `Os@/S  
@<h@d_8^k  
.桑德勒回忆起自己第一次看到短片的情形,“当时我在办公室,看完后激动不已,马上就觉得这能拍成一部电影——这是一种怀旧情感,很酷。看到大金刚和所有你童年的小伙伴攻占城市,太有趣了。” ,XR1N$LN8_  
x2 l~aw#?  
.为了搞定吃豆人以及其他角色的版权问题,剧组花费了很大的功夫。演员米歇尔·莫娜汉开玩笑说,和所有的游戏角色达成交易比任何一个演员都要更难。 2|m461   
U4Il1| M&  
.哥伦布希望这部电影能够触到观众心灵,骚到观众痒处,给观众带来视觉震撼。他说:“这是一部缅怀80年代的片子,是一封寄给80年代的情书。” ,|D<De\v&  
kid@*.I  
.哥伦布形容影片的配乐风格类似于安培林娱乐公司(Amblin Entertainment,斯皮尔伯格的制片公司),诸如《回到未来》,“我们想要营造的就是那种怀旧的感觉和气氛。” \:8 >@Q  
)A,M T i  
.据说,影片的设定借鉴了动画片《飞出个未来》(Futurama)2002年播出的《Anthology Of Interest II》(第八季第四集)中的情节。合作。 usU5q>1  
 2>p>AvcK  
.岩谷教授(Professor Iwatani)这个角色的原型是现实中的岩谷彻(Toru Iwatani),一位日本游戏设计师,他是经典的《吃豆人》游戏的创造者。。 qEE V&  
dxsPX =\:  
.影片中显示的游戏最高分是以现实为基础。吃豆人最高分为满分333万3360分,最先由Billy Mitchell完成,片中的Sam也达到了满分。 =5J}CPKbZI  
+hGr2%*0f  
.Ludlow Lamonsoff的Centipede得分为1638万9548分,比现实中世界上最高分纪录持有者Jim Schneider高出一分。Eddie Plant《大金刚》得分为106万8100分,比前世界记录保持者Hank Chien高出100分。 z]K:Amp;Z  
*{ 6{ZKM  
.彼特·丁拉基饰演的Eddie Plant是以真实的游戏高手Billy Mitchell为原型,他是1982年到2000年间《大金刚》游戏最高得分纪录保持者。 `5:b=^'D /  
T:dV[3  
.乔什·盖德2013年出演《定制伴郎》,他的角色声称“吃豆人”是他最喜欢的超级英雄,不过在本片中,吃豆人变成了毁灭人类的大坏蛋。 )17CG*K1  
'Y `or14E  
.《像素大战》已经是亚当·桑德勒与凯文·詹姆斯第九次在电影或者电视作品中合作。 4Y MX;W  
_ ZMoPEW  
.詹妮弗·安妮斯顿拒绝了在本片中饰演女主角,她的位置由米歇尔·莫娜汉接替。 ?`8jn$W^  
VBo=*gn,$  
获奖记录 q-}q rg  
{W,&jC  
青少年选择奖(2015;第17届) P9c!   
提名 ?cF`T/z]"  
·青少年选择奖-最佳夏日电影男星亚当·桑德勒 Adam Sandler o!bV;]  
d0YDNP%,_  
*> LA30R*v  
R.^ Y'TLyc  
Video ](-zt9, N;  
ID                                       : 1 vnc-  W3N  
Format                                   : AVC ^Y,nv,gYn  
Format/Info                              : Advanced Video Codec  >cw%ckE  
Format profile                           : High@L4.1 [_P ZdIN  
Format settings, CABAC                   : Yes vY)5<z&  
Format settings, ReFrames                : 5 frames n<3qr}ZG^  
Codec ID                                 : V_MPEG4/ISO/AVC wNl{,aH @  
Duration                                 : 1h 45mn %W` }  
Bit rate                                 : 9 711 Kbps 07b =Zhh  
Width                                    : 1 920 pixels kn %i#Fz  
Height                                   : 808 pixels (X zy~l<  
Display aspect ratio                     : 2.40:1 #83`T&Xw*  
Frame rate mode                          : Constant zo83>bt  
Frame rate                               : 23.976 fps H< 51dJn~  
Color space                              : YUV <<w*_GM  
Chroma subsampling                       : 4:2:0 ur\<NApT;  
Bit depth                                : 8 bits >UNx<=ry  
Scan type                                : Progressive Q ?xA))0  
Bits/(Pixel*Frame)                       : 0.261 [] cF*en  
Stream size                              : 7.03 GiB (85%) v9*31Jx  
Title                                    : Pixels.2015.1080p.BluRay.x264.DTS-RARBG ?*LVn~y  
Writing library                          : x264 core 148 r2597 e86f3a1 lV".-:u_  
Encoding settings                        : cabac=1 / ref=5 / deblock=1:0:0 / analyse=0x3:0x133 / me=umh / subme=7 / psy=1 / psy_rd=1.00:0.00 / mixed_ref=1 / me_range=16 / chroma_me=1 / trellis=1 / 8x8dct=1 / cqm=0 / deadzone=21,11 / fast_pskip=0 / chroma_qp_offset=-2 / threads=18 / lookahead_threads=3 / sliced_threads=0 / nr=0 / decimate=1 / interlaced=0 / bluray_compat=0 / constrained_intra=0 / bframes=3 / b_pyramid=2 / b_adapt=1 / b_bias=0 / direct=1 / weightb=1 / open_gop=0 / weightp=2 / keyint=250 / keyint_min=23 / scenecut=40 / intra_refresh=0 / rc_lookahead=40 / rc=2pass / mbtree=1 / bitrate=9711 / ratetol=1.0 / qcomp=0.60 / qpmin=0 / qpmax=69 / qpstep=4 / cplxblur=20.0 / qblur=0.5 / ip_ratio=1.40 / aq=1:1.00 [eLMb)n  
Language                                 : English zCji]:  
Default                                  : Yes N2 4J!L  
Forced                                   : No 717S3knlv  
=aBc .PJ^  
Audio ?mwa6]  
ID                                       : 2 &$yxAqdab  
Format                                   : DTS Q%r KKOX8  
Format/Info                              : Digital Theater Systems };Pdn7;1G:  
Mode                                     : 16 }i$ER,hXh  
Format settings, Endianness              : Big >)^Q p-  
Codec ID                                 : A_DTS owviIZFe  
Duration                                 : 1h 45mn `NySTd)\  
Bit rate mode                            : Constant #?"^:,Y  
Bit rate                                 : 1 509 Kbps |W*#N8I P  
Channel(s)                               : 6 channels LIE5of  
Channel positions                        : Front: L C R, Side: L R, LFE dOX"7kZ  
Sampling rate                            : 48.0 KHz wU(p_G3  
Bit depth                                : 16 bits < c%  
Compression mode                         : Lossy @)XR  
Stream size                              : 1.12 GiB (13%) otA' +4\  
Title                                    : Pixels.2015.1080p.BluRay.x264.DTS-RARBG ^ 6b27_=  
Language                                 : English gz#2}  
Default                                  : Yes %0Ibi  
Forced                                   : No NK\0X5##.  
}2h!  
Text #1 s}qtM.^W  
ID                                       : 3 DGbEQiX$\  
Format                                   : UTF-8  qC6@  
Codec ID                                 : S_TEXT/UTF8 6t=)1T   
Codec ID/Info                            : UTF-8 Plain Text m*|G 2  
Title                                    : FORCED i&KBMx   
Language                                 : English  oP~%7Jt  
Default                                  : Yes m yy*rt  
Forced                                   : Yes LNcoTdv}k  
}Gva=N:  
Text #2 %mAwK<MY`  
ID                                       : 4 .B?fG)'WsF  
Format                                   : PGS O{x-9p  
Muxing mode                              : zlib CC)Mws+2  
Codec ID                                 : S_HDMV/PGS (3WK2IM^  
Codec ID/Info                            : Picture based subtitle format used on BDs/HD-DVDs vddl9"V)  
Title                                    : SDH 9^7z"*@#  
Language                                 : English )# v}8aL  
Default                                  : No rn]F97v@]  
Forced                                   : No .oM;D~(=9  
&z05h<]  
Text #3 VIaj])m  
ID                                       : 5 uuQsK. S  
Format                                   : PGS RdB,;Um9f  
Muxing mode                              : zlib (%'`t(<  
Codec ID                                 : S_HDMV/PGS e=+q*]>  
Codec ID/Info                            : Picture based subtitle format used on BDs/HD-DVDs q'9;  
Language                                 : English jx'hxC'3  
Default                                  : No =gC% =  
Forced                                   : No 1 F&}e&}c  
W=y9mW|p/  
Menu BoXPX2:  
00:00:00.000                             : en:00:00:00.000 !yvw5As%  
00:04:54.044                             : en:00:04:54.044 Yfx ?3  
00:10:21.663                             : en:00:10:21.663 .pG`/[*a  
00:14:51.766                             : en:00:14:51.766 kzVK%[/  
00:19:51.816                             : en:00:19:51.816 O>>/2V9  
00:26:19.870                             : en:00:26:19.870 x \I uM  
00:32:57.809                             : en:00:32:57.809 F-XMy>9  
00:40:35.475                             : en:00:40:35.475 )X3 |[4R  
00:47:40.483                             : en:00:47:40.483 3L-$+j~u  
00:52:33.275                             : en:00:52:33.275 }zIWagC6  
00:58:56.074                             : en:00:58:56.074 Wngc(+6O&  
01:05:07.695                             : en:01:05:07.695 .e4upT GU  
01:09:23.076                             : en:01:09:23.076 j )wrF@W  
01:18:13.022                             : en:01:18:13.022 Kpkpr`:)]  
01:27:54.186                             : en:01:27:54.186 IH`7ou{  
01:33:53.002                             : en:01:33:53.002 \O]kf>nC  
ixL[(* V  
_0y]U];ce  
:;;k+Sw3  
本部分内容设定了隐藏,需要回复后才能看到

只看该作者 1 发表于: 2015-11-14
本部分内容设定了隐藏,需要回复后才能看到