切换到宽版
  • 752阅读
  • 1回复

像素大战/像素入侵.Pixels.2015.1080p.BluRay.x264.DTS-RARBG [复制链接]

上一主题 下一主题
 

只看楼主 倒序阅读 使用道具 0 发表于: 2015-10-11
Y>G@0r BG  
◎译  名 像素大战/像素入侵/天煞:像素之战/像素/世界大对战(台)/屈机起格命(港) z>Hgkp8D"  
◎片  名 Pixels \uC15s<  
◎年  代 2015 48qV >Gwf  
◎国  家 美国/中国/加拿大 khrb-IY@  
◎类  别 动作/喜剧/科幻 cK i m-  
◎语  言 英语 87P>IO  
◎字  幕 英文 RBm ;e0  
◎IMDB评分5..6/10 from 31,288 users       M)N?qRD  
◎IMDB链接 http://www.imdb.com/title/tt2120120/ db6b-Y{   
◎文件格式 H264 + DTS PCM-i{6/  
◎视频尺寸 1920 x 808 -}=%/|\FG  
◎文件大小 1CD 8.32 GiB #Xb+`'  
◎片  长 1h 45mn ~ga`\% J  
◎导  演 克里斯·哥伦布 Chris Columbus   6qaQ[XTxf  
◎主  演 亚当·桑德勒 Adam Sandler ...Brenner ;\Y& ce  
                  凯文·詹姆斯 Kevin James...Cooper rIh l.5Y  
                  米歇尔·莫纳汉 Michelle Monaghan ...Violet "zRoU$X  
                  彼特·丁克拉奇 Peter Dinklage ...Eddie `gb5 "`EZ  
                  Josh Gad ...Ludlow  H77"  
                  Matt Lintz ...Matty .wu xoq  
                  Brian Cox ...Admiral Porter 5v}8org  
                  Sean Bean ...Corporal Hill (SAS Officer)  &8_gRP  
                  Jane Krakowski ...First Lady Jane Cooper O J zs Q  
                  Dan Aykroyd ...1982 Championship MC 0[*qY@m:Z  
                  Affion Crockett ...Sergeant Dylan Cohan U1RpLkibQ  
                  Lainie Kazan ...Mickey Lamonsoff @8^[!F  
                  Ashley Benson ...Lady Lisa ,%Up0Rr,  
                  Denis Akiyama ...Professor Iwatani `~;rblo;  
                  Tom McCarthy ...Michael the Robot   BT"42#7_  
&2zq%((r  
e\JojaV  
◎简  介 EC8b=B<DE  
K7Wk6Aw  
     meks RcF  
  作为1980年代的小孩,山姆·布伦纳(亚当·桑德勒 Adam Sandler 饰), 威尔·库珀(凯文·詹姆斯 Kevin James 饰),勒德洛·莱门梢夫(乔什·加德 Josh Gad 饰)和“火焰爆破枪”埃迪·普兰特(彼特·丁克拉奇 Peter Dinklage 饰)拯救过世界成千上万次——在游戏机室里二十五美分玩一次的游戏里。现在,他们必须得真刀真枪作战了。 LLXVNO@e+  
Zrr5csE  
  在像素大战中,当外星人发现经典街机游戏视频流并且误以为这是在宣战后,他们袭击了地球,运用游戏作为他们袭击策略——而现在美国总统库珀必须召集他旧日的街机战友一起拯救世界免受吃豆人、大金刚、小蜜蜂、蜈蚣还有太空入侵者毁灭。加入他们一起战斗的,还有一名向街机斗士提供外星人战斗专用武器的专家,维奥莱特·冯·帕顿中校(米歇尔·莫纳汉 Michelle Monaghan 饰)。他们的唯一目标是,战胜8比特像素外星人,保卫地球…… C[Dav&=^F  
=xJKIu  
花絮 Z(_ZAB%+D  
5-0{+R5v  
.根据2010年短片《像素入侵纽约城》改编。短片只有两分半钟,导演帕特里克·让是一家法国公司计算机绘图师,放到网上后一夜之间点击率过百万,之后便被好莱坞多家制片厂所相中。 Ox'/` Mppw  
['*8IWg  
.很多工作室都想把帕特里克·让的概念拍成电影,而让选择桑德勒是因为“我看过他很多电影,比如《狂野之爱》和《滑稽人物》。我们第一次会面也很棒,我可以感觉到他们对这部电影的热情和渴望。” 0,rTdjH7  
 \qR %%S  
.桑德勒回忆起自己第一次看到短片的情形,“当时我在办公室,看完后激动不已,马上就觉得这能拍成一部电影——这是一种怀旧情感,很酷。看到大金刚和所有你童年的小伙伴攻占城市,太有趣了。” `o?Ph&p}  
(%o2jroQ#  
.为了搞定吃豆人以及其他角色的版权问题,剧组花费了很大的功夫。演员米歇尔·莫娜汉开玩笑说,和所有的游戏角色达成交易比任何一个演员都要更难。 D"ehWLj  
S^<g_ q  
.哥伦布希望这部电影能够触到观众心灵,骚到观众痒处,给观众带来视觉震撼。他说:“这是一部缅怀80年代的片子,是一封寄给80年代的情书。” BC;:  
e$uiJNS2  
.哥伦布形容影片的配乐风格类似于安培林娱乐公司(Amblin Entertainment,斯皮尔伯格的制片公司),诸如《回到未来》,“我们想要营造的就是那种怀旧的感觉和气氛。” B8%{}[ q  
GS Q/NYK  
.据说,影片的设定借鉴了动画片《飞出个未来》(Futurama)2002年播出的《Anthology Of Interest II》(第八季第四集)中的情节。合作。 gzD@cx?V  
[mr9(m[F  
.岩谷教授(Professor Iwatani)这个角色的原型是现实中的岩谷彻(Toru Iwatani),一位日本游戏设计师,他是经典的《吃豆人》游戏的创造者。。 z.VyRBi0  
)){9&5,0:  
.影片中显示的游戏最高分是以现实为基础。吃豆人最高分为满分333万3360分,最先由Billy Mitchell完成,片中的Sam也达到了满分。 zf>5,k'x'A  
U(;&(W"M  
.Ludlow Lamonsoff的Centipede得分为1638万9548分,比现实中世界上最高分纪录持有者Jim Schneider高出一分。Eddie Plant《大金刚》得分为106万8100分,比前世界记录保持者Hank Chien高出100分。 .eO?Z^  
-+em!g'  
.彼特·丁拉基饰演的Eddie Plant是以真实的游戏高手Billy Mitchell为原型,他是1982年到2000年间《大金刚》游戏最高得分纪录保持者。 %-AE]-/HI  
k8uvNLA)a  
.乔什·盖德2013年出演《定制伴郎》,他的角色声称“吃豆人”是他最喜欢的超级英雄,不过在本片中,吃豆人变成了毁灭人类的大坏蛋。 gOK\ %&S]  
d{de6 `  
.《像素大战》已经是亚当·桑德勒与凯文·詹姆斯第九次在电影或者电视作品中合作。 2kUxD8BcN  
mTEx,   
.詹妮弗·安妮斯顿拒绝了在本片中饰演女主角,她的位置由米歇尔·莫娜汉接替。 {Pu\?Cq  
.ol'.t ,S  
获奖记录 Z0>DNmH*  
a9?y`{%L  
青少年选择奖(2015;第17届) \S)2  
提名 I;?X f  
·青少年选择奖-最佳夏日电影男星亚当·桑德勒 Adam Sandler ) (Tom9 ^  
VCcr3Dx()F  
?}Lg)EFH  
34R!x6W0  
Video $CE[MZ&S  
ID                                       : 1 AisN@  
Format                                   : AVC oq_6L\ ~  
Format/Info                              : Advanced Video Codec x/ :4 {  
Format profile                           : High@L4.1 @&hnL9D8lL  
Format settings, CABAC                   : Yes ec|/ /  
Format settings, ReFrames                : 5 frames ^:jN3@ Q%  
Codec ID                                 : V_MPEG4/ISO/AVC L~^*u_U]  
Duration                                 : 1h 45mn LN_OD5gZ  
Bit rate                                 : 9 711 Kbps iY bX  
Width                                    : 1 920 pixels Sj(F3wY  
Height                                   : 808 pixels qJ_1*!!91  
Display aspect ratio                     : 2.40:1 l#wdpD a{  
Frame rate mode                          : Constant do ^RF<G  
Frame rate                               : 23.976 fps NS,5/t  
Color space                              : YUV -)y%~Zn  
Chroma subsampling                       : 4:2:0 7a$ G@  
Bit depth                                : 8 bits ^SfS~G Q  
Scan type                                : Progressive BD#.-xWV  
Bits/(Pixel*Frame)                       : 0.261 ?oiKVL"7  
Stream size                              : 7.03 GiB (85%) i NWC6y  
Title                                    : Pixels.2015.1080p.BluRay.x264.DTS-RARBG qUF1XJZ }z  
Writing library                          : x264 core 148 r2597 e86f3a1 s Fgadz6O  
Encoding settings                        : cabac=1 / ref=5 / deblock=1:0:0 / analyse=0x3:0x133 / me=umh / subme=7 / psy=1 / psy_rd=1.00:0.00 / mixed_ref=1 / me_range=16 / chroma_me=1 / trellis=1 / 8x8dct=1 / cqm=0 / deadzone=21,11 / fast_pskip=0 / chroma_qp_offset=-2 / threads=18 / lookahead_threads=3 / sliced_threads=0 / nr=0 / decimate=1 / interlaced=0 / bluray_compat=0 / constrained_intra=0 / bframes=3 / b_pyramid=2 / b_adapt=1 / b_bias=0 / direct=1 / weightb=1 / open_gop=0 / weightp=2 / keyint=250 / keyint_min=23 / scenecut=40 / intra_refresh=0 / rc_lookahead=40 / rc=2pass / mbtree=1 / bitrate=9711 / ratetol=1.0 / qcomp=0.60 / qpmin=0 / qpmax=69 / qpstep=4 / cplxblur=20.0 / qblur=0.5 / ip_ratio=1.40 / aq=1:1.00 lKEa)KF[  
Language                                 : English KIVH!2q;  
Default                                  : Yes p '{xoV  
Forced                                   : No WnAd5#G  
- n6jG}01b  
Audio :<~7y.*O{  
ID                                       : 2 fH8!YQG8$  
Format                                   : DTS [[)_BmS5r  
Format/Info                              : Digital Theater Systems 7nHTlI1 b  
Mode                                     : 16 e^$j5jV  
Format settings, Endianness              : Big 7XyOB+aQO  
Codec ID                                 : A_DTS `$z)$VuP  
Duration                                 : 1h 45mn i`O rMzL  
Bit rate mode                            : Constant r5/R5Ga^  
Bit rate                                 : 1 509 Kbps XvSIWs  
Channel(s)                               : 6 channels emA!Ew(g  
Channel positions                        : Front: L C R, Side: L R, LFE >AI<60/<  
Sampling rate                            : 48.0 KHz pyW u9  
Bit depth                                : 16 bits aN^IP  
Compression mode                         : Lossy hQgN9S5P  
Stream size                              : 1.12 GiB (13%) H"+c)FGi  
Title                                    : Pixels.2015.1080p.BluRay.x264.DTS-RARBG fV ZW[9[  
Language                                 : English ?Cci:Lin  
Default                                  : Yes 3 ,.% s  
Forced                                   : No p#_[  
V_L[P9  
Text #1 uf@U:V  
ID                                       : 3 wy4q[$.4v  
Format                                   : UTF-8 |j_` z@7(  
Codec ID                                 : S_TEXT/UTF8 XSB 8z   
Codec ID/Info                            : UTF-8 Plain Text BEw{X|7  
Title                                    : FORCED (clU$m+oXX  
Language                                 : English T0FZ7  
Default                                  : Yes pX<a2F P  
Forced                                   : Yes ;WI]vn  
\].J-^=  
Text #2 Qm);6X   
ID                                       : 4 IG / $!* E  
Format                                   : PGS ~|) 9RUXr>  
Muxing mode                              : zlib L=7rDW)aa  
Codec ID                                 : S_HDMV/PGS Dc FCKji  
Codec ID/Info                            : Picture based subtitle format used on BDs/HD-DVDs F WTx&Ip  
Title                                    : SDH H,>#|F  
Language                                 : English }h~'AM  
Default                                  : No xVR:; Jy[  
Forced                                   : No *:arva5  
KZK,w#9.  
Text #3 |R'i:=  
ID                                       : 5 sA_X<>vAKJ  
Format                                   : PGS v'nHFC+p  
Muxing mode                              : zlib dp^N_9$cdO  
Codec ID                                 : S_HDMV/PGS m,NMTyJoz  
Codec ID/Info                            : Picture based subtitle format used on BDs/HD-DVDs yzc pG6 ,  
Language                                 : English *j<@yG2\gP  
Default                                  : No glor+  
Forced                                   : No q$^<zY  
YY!!<2_  
Menu z]>9nv`b  
00:00:00.000                             : en:00:00:00.000 z^~U]S 3  
00:04:54.044                             : en:00:04:54.044 P|N?OocE  
00:10:21.663                             : en:00:10:21.663 a paI J+^[  
00:14:51.766                             : en:00:14:51.766 )[DpK=[N^p  
00:19:51.816                             : en:00:19:51.816 >q&L/N5  
00:26:19.870                             : en:00:26:19.870 v@,XinB[  
00:32:57.809                             : en:00:32:57.809 gDhl-  
00:40:35.475                             : en:00:40:35.475 4sd-zl$Of  
00:47:40.483                             : en:00:47:40.483 i;HH ! TaN  
00:52:33.275                             : en:00:52:33.275 <`mOU} 0 )  
00:58:56.074                             : en:00:58:56.074 8OBF^r44R  
01:05:07.695                             : en:01:05:07.695 *dVD  
01:09:23.076                             : en:01:09:23.076 !47A$sQ  
01:18:13.022                             : en:01:18:13.022 vz,LF=s2  
01:27:54.186                             : en:01:27:54.186 Fc{((x s  
01:33:53.002                             : en:01:33:53.002 ^8\Y`Z0 %  
t;XS;b %  
dp< au A  
T]X{ @_  
本部分内容设定了隐藏,需要回复后才能看到

只看该作者 1 发表于: 2015-11-14
本部分内容设定了隐藏,需要回复后才能看到