切换到宽版
  • 667阅读
  • 1回复

像素大战/像素入侵.Pixels.2015.1080p.BluRay.x264.DTS-RARBG [复制链接]

上一主题 下一主题
 

只看楼主 倒序阅读 使用道具 0 发表于: 2015-10-11
ud 5x$`  
◎译  名 像素大战/像素入侵/天煞:像素之战/像素/世界大对战(台)/屈机起格命(港) -0/=k_q_  
◎片  名 Pixels +HYN$>  
◎年  代 2015 x[zKtX  
◎国  家 美国/中国/加拿大 f45x%tha%  
◎类  别 动作/喜剧/科幻 "bL P3  
◎语  言 英语 9*"[pt+tA  
◎字  幕 英文 XT\ Td}>  
◎IMDB评分5..6/10 from 31,288 users        eYPt  
◎IMDB链接 http://www.imdb.com/title/tt2120120/ =lw4 H_  
◎文件格式 H264 + DTS o<9yaQ;  
◎视频尺寸 1920 x 808 3( >(lk  
◎文件大小 1CD 8.32 GiB BHIZHp  
◎片  长 1h 45mn 6yV5Yjs  
◎导  演 克里斯·哥伦布 Chris Columbus   ";%e~ =  
◎主  演 亚当·桑德勒 Adam Sandler ...Brenner hlY S=cgY=  
                  凯文·詹姆斯 Kevin James...Cooper f]O5V$!RuE  
                  米歇尔·莫纳汉 Michelle Monaghan ...Violet '` BjRg57]  
                  彼特·丁克拉奇 Peter Dinklage ...Eddie :..E:HdYO  
                  Josh Gad ...Ludlow /@xr[=L  
                  Matt Lintz ...Matty TPN:cA6[c  
                  Brian Cox ...Admiral Porter Qr^Z~$i t  
                  Sean Bean ...Corporal Hill (SAS Officer) Xuz8"b5^Zx  
                  Jane Krakowski ...First Lady Jane Cooper a,F8+ Pb>  
                  Dan Aykroyd ...1982 Championship MC W HdqO8  
                  Affion Crockett ...Sergeant Dylan Cohan ,4 h! "c  
                  Lainie Kazan ...Mickey Lamonsoff js%4;  
                  Ashley Benson ...Lady Lisa 'Kt4O9=p  
                  Denis Akiyama ...Professor Iwatani < |]i  
                  Tom McCarthy ...Michael the Robot   +qu@dU0\`|  
f6(9wz$Trt  
q_%w l5\F  
◎简  介 -Lz1#Sk]A  
^HOwN<}`#  
     VLwJ6?.f'  
  作为1980年代的小孩,山姆·布伦纳(亚当·桑德勒 Adam Sandler 饰), 威尔·库珀(凯文·詹姆斯 Kevin James 饰),勒德洛·莱门梢夫(乔什·加德 Josh Gad 饰)和“火焰爆破枪”埃迪·普兰特(彼特·丁克拉奇 Peter Dinklage 饰)拯救过世界成千上万次——在游戏机室里二十五美分玩一次的游戏里。现在,他们必须得真刀真枪作战了。 *;ZW=%M  
P"h,[{Y*>  
  在像素大战中,当外星人发现经典街机游戏视频流并且误以为这是在宣战后,他们袭击了地球,运用游戏作为他们袭击策略——而现在美国总统库珀必须召集他旧日的街机战友一起拯救世界免受吃豆人、大金刚、小蜜蜂、蜈蚣还有太空入侵者毁灭。加入他们一起战斗的,还有一名向街机斗士提供外星人战斗专用武器的专家,维奥莱特·冯·帕顿中校(米歇尔·莫纳汉 Michelle Monaghan 饰)。他们的唯一目标是,战胜8比特像素外星人,保卫地球…… lL(}dbT~N  
7kWZMi  
花絮 o#KPrW`XJ/  
?L ~=Z\H  
.根据2010年短片《像素入侵纽约城》改编。短片只有两分半钟,导演帕特里克·让是一家法国公司计算机绘图师,放到网上后一夜之间点击率过百万,之后便被好莱坞多家制片厂所相中。 \e5,`  
(0+GLI8  
.很多工作室都想把帕特里克·让的概念拍成电影,而让选择桑德勒是因为“我看过他很多电影,比如《狂野之爱》和《滑稽人物》。我们第一次会面也很棒,我可以感觉到他们对这部电影的热情和渴望。” l,FG:"`Z@  
p1`'1`.3  
.桑德勒回忆起自己第一次看到短片的情形,“当时我在办公室,看完后激动不已,马上就觉得这能拍成一部电影——这是一种怀旧情感,很酷。看到大金刚和所有你童年的小伙伴攻占城市,太有趣了。” f@x( ,p  
(fLbg,  
.为了搞定吃豆人以及其他角色的版权问题,剧组花费了很大的功夫。演员米歇尔·莫娜汉开玩笑说,和所有的游戏角色达成交易比任何一个演员都要更难。 ZCOuv6V+  
a\H txR8L  
.哥伦布希望这部电影能够触到观众心灵,骚到观众痒处,给观众带来视觉震撼。他说:“这是一部缅怀80年代的片子,是一封寄给80年代的情书。” %(wsGNd  
-$!Pf$l@  
.哥伦布形容影片的配乐风格类似于安培林娱乐公司(Amblin Entertainment,斯皮尔伯格的制片公司),诸如《回到未来》,“我们想要营造的就是那种怀旧的感觉和气氛。” Kw5+4R(5  
MM58w3Mz  
.据说,影片的设定借鉴了动画片《飞出个未来》(Futurama)2002年播出的《Anthology Of Interest II》(第八季第四集)中的情节。合作。 $BO}D  
,a?\i JNb  
.岩谷教授(Professor Iwatani)这个角色的原型是现实中的岩谷彻(Toru Iwatani),一位日本游戏设计师,他是经典的《吃豆人》游戏的创造者。。 q}76aa0e  
uvK%d\d  
.影片中显示的游戏最高分是以现实为基础。吃豆人最高分为满分333万3360分,最先由Billy Mitchell完成,片中的Sam也达到了满分。 ;r@R (Squ  
l8n[8AT1  
.Ludlow Lamonsoff的Centipede得分为1638万9548分,比现实中世界上最高分纪录持有者Jim Schneider高出一分。Eddie Plant《大金刚》得分为106万8100分,比前世界记录保持者Hank Chien高出100分。 vG Lb2Q  
` a<|CcUGU  
.彼特·丁拉基饰演的Eddie Plant是以真实的游戏高手Billy Mitchell为原型,他是1982年到2000年间《大金刚》游戏最高得分纪录保持者。 W2o8Fu   
PTV`=vtj  
.乔什·盖德2013年出演《定制伴郎》,他的角色声称“吃豆人”是他最喜欢的超级英雄,不过在本片中,吃豆人变成了毁灭人类的大坏蛋。 c K}  
:92a34  
.《像素大战》已经是亚当·桑德勒与凯文·詹姆斯第九次在电影或者电视作品中合作。 `5 v51TpH  
#p9z#kin  
.詹妮弗·安妮斯顿拒绝了在本片中饰演女主角,她的位置由米歇尔·莫娜汉接替。 V/[,1W[B  
)^' B:ic  
获奖记录 =rtA{g$)+  
Q8/0Cb/  
青少年选择奖(2015;第17届) a_fW {;}[  
提名 @IKe<{w  
·青少年选择奖-最佳夏日电影男星亚当·桑德勒 Adam Sandler ^DCv-R+ p  
PHL@1K{)  
l$~bkVNL  
OU3+SYM  
Video *gpD4c7A\  
ID                                       : 1 !5 :[XvI#  
Format                                   : AVC pxnUe1=  
Format/Info                              : Advanced Video Codec qN,FX#DP  
Format profile                           : High@L4.1 ~ai' M#  
Format settings, CABAC                   : Yes w3cK: C0  
Format settings, ReFrames                : 5 frames \osQwGPV  
Codec ID                                 : V_MPEG4/ISO/AVC [k{iN1n  
Duration                                 : 1h 45mn ->9xw  
Bit rate                                 : 9 711 Kbps w=>mG-  
Width                                    : 1 920 pixels o[W3/  
Height                                   : 808 pixels 29DWRJU  
Display aspect ratio                     : 2.40:1 }? '9L:  
Frame rate mode                          : Constant O !+5As  
Frame rate                               : 23.976 fps x#VUEu]8  
Color space                              : YUV 1>{-wL4rc  
Chroma subsampling                       : 4:2:0 \k-juF80  
Bit depth                                : 8 bits (>`SS#(T!  
Scan type                                : Progressive I_s(yO4pw  
Bits/(Pixel*Frame)                       : 0.261 !#s7 F  
Stream size                              : 7.03 GiB (85%) ,T[ +omo  
Title                                    : Pixels.2015.1080p.BluRay.x264.DTS-RARBG TN_$E&69I  
Writing library                          : x264 core 148 r2597 e86f3a1 ,PxQ[CGg  
Encoding settings                        : cabac=1 / ref=5 / deblock=1:0:0 / analyse=0x3:0x133 / me=umh / subme=7 / psy=1 / psy_rd=1.00:0.00 / mixed_ref=1 / me_range=16 / chroma_me=1 / trellis=1 / 8x8dct=1 / cqm=0 / deadzone=21,11 / fast_pskip=0 / chroma_qp_offset=-2 / threads=18 / lookahead_threads=3 / sliced_threads=0 / nr=0 / decimate=1 / interlaced=0 / bluray_compat=0 / constrained_intra=0 / bframes=3 / b_pyramid=2 / b_adapt=1 / b_bias=0 / direct=1 / weightb=1 / open_gop=0 / weightp=2 / keyint=250 / keyint_min=23 / scenecut=40 / intra_refresh=0 / rc_lookahead=40 / rc=2pass / mbtree=1 / bitrate=9711 / ratetol=1.0 / qcomp=0.60 / qpmin=0 / qpmax=69 / qpstep=4 / cplxblur=20.0 / qblur=0.5 / ip_ratio=1.40 / aq=1:1.00 80>!qG  
Language                                 : English tX}S[jdq  
Default                                  : Yes F;@&uXYgc  
Forced                                   : No U  {!{5l:  
; O0rt1  
Audio PdBhX  
ID                                       : 2 N0hU~|/  
Format                                   : DTS WfO$q^'?DP  
Format/Info                              : Digital Theater Systems !\4FIs&Qv  
Mode                                     : 16 5)<jP yC  
Format settings, Endianness              : Big 6\@, Lb  
Codec ID                                 : A_DTS uelTsn  
Duration                                 : 1h 45mn 'A2"&6m)28  
Bit rate mode                            : Constant %n,bPa>T  
Bit rate                                 : 1 509 Kbps 1=.kH[R  
Channel(s)                               : 6 channels ZfikNQU9r  
Channel positions                        : Front: L C R, Side: L R, LFE RtL'fd  
Sampling rate                            : 48.0 KHz ^4NH.q{  
Bit depth                                : 16 bits .CpO+z  
Compression mode                         : Lossy X\RTHlw']  
Stream size                              : 1.12 GiB (13%) *X=-^\G  
Title                                    : Pixels.2015.1080p.BluRay.x264.DTS-RARBG bf(&N-"A  
Language                                 : English 0MPDD%TP  
Default                                  : Yes 4iW 2hV@m  
Forced                                   : No &0`7_g7G  
*JXJ 2  
Text #1 k 3XtKPO  
ID                                       : 3 !6C d.fpWL  
Format                                   : UTF-8 6'zy"UkH  
Codec ID                                 : S_TEXT/UTF8 %}:J 9vra  
Codec ID/Info                            : UTF-8 Plain Text $ 1ZY Vw  
Title                                    : FORCED gId+hxFa:r  
Language                                 : English }JsdgO&z  
Default                                  : Yes *Rd&4XG  
Forced                                   : Yes y"ck;OQD  
9n'p7(s%  
Text #2 "Wp<^ssMo  
ID                                       : 4 Jt8 v=<@  
Format                                   : PGS lOui{QU  
Muxing mode                              : zlib 0*^Fk=>ej  
Codec ID                                 : S_HDMV/PGS nabN.Ly  
Codec ID/Info                            : Picture based subtitle format used on BDs/HD-DVDs pxj"<q`nw8  
Title                                    : SDH /slML ~$t<  
Language                                 : English 7Go!W(8  
Default                                  : No Cn<x  
Forced                                   : No [6|vx},N  
j^.P=;  
Text #3 :y)'qv[  
ID                                       : 5 )-@EUN0E>5  
Format                                   : PGS ]O."M"B  
Muxing mode                              : zlib ?*4zNhL  
Codec ID                                 : S_HDMV/PGS \<} nn?~n  
Codec ID/Info                            : Picture based subtitle format used on BDs/HD-DVDs xph60T  
Language                                 : English 5kF5`5+Vj  
Default                                  : No !NCT) #G`  
Forced                                   : No l- l}xBf  
4]bT O  
Menu nC rNZ&P  
00:00:00.000                             : en:00:00:00.000 VsC]z, oV  
00:04:54.044                             : en:00:04:54.044 DQ)SMqOotw  
00:10:21.663                             : en:00:10:21.663 1 .M?Hp9i  
00:14:51.766                             : en:00:14:51.766 #l O;G k{  
00:19:51.816                             : en:00:19:51.816 "hfwj`U  
00:26:19.870                             : en:00:26:19.870 -n9e-0  
00:32:57.809                             : en:00:32:57.809 !cZsIcIe  
00:40:35.475                             : en:00:40:35.475 &eg,*K}'  
00:47:40.483                             : en:00:47:40.483 `Ao: }  
00:52:33.275                             : en:00:52:33.275 N]duv~JS  
00:58:56.074                             : en:00:58:56.074 J.<m@\U  
01:05:07.695                             : en:01:05:07.695 '.=Z2O3p  
01:09:23.076                             : en:01:09:23.076 ` G'V9Xs(  
01:18:13.022                             : en:01:18:13.022 &[YG\8sxWa  
01:27:54.186                             : en:01:27:54.186 B;m18LDu  
01:33:53.002                             : en:01:33:53.002 "rXGXQu  
?sO_c3^7z  
s+[=nau('w  
h+Dok#g  
本部分内容设定了隐藏,需要回复后才能看到

只看该作者 1 发表于: 2015-11-14
本部分内容设定了隐藏,需要回复后才能看到