切换到宽版
  • 588阅读
  • 1回复

像素大战/像素入侵.Pixels.2015.1080p.BluRay.x264.DTS-RARBG [复制链接]

上一主题 下一主题
 

只看楼主 倒序阅读 使用道具 0 发表于: 2015-10-11
b'W.l1]<-  
◎译  名 像素大战/像素入侵/天煞:像素之战/像素/世界大对战(台)/屈机起格命(港) N=PSr4  
◎片  名 Pixels VsJiE0'%  
◎年  代 2015 57~y 7/0  
◎国  家 美国/中国/加拿大 UE{$hLI?g  
◎类  别 动作/喜剧/科幻 $J^fpXO  
◎语  言 英语 jsQHg2Vd  
◎字  幕 英文 u&w})`+u5  
◎IMDB评分5..6/10 from 31,288 users       [~u&#!*W  
◎IMDB链接 http://www.imdb.com/title/tt2120120/ H %c6I  
◎文件格式 H264 + DTS 'zM=[#!B  
◎视频尺寸 1920 x 808 qi B~  
◎文件大小 1CD 8.32 GiB S3:AitGJ  
◎片  长 1h 45mn <sw@P":F  
◎导  演 克里斯·哥伦布 Chris Columbus   PJcfiRa'jQ  
◎主  演 亚当·桑德勒 Adam Sandler ...Brenner ~ney~Pz_  
                  凯文·詹姆斯 Kevin James...Cooper <)p.GAZ  
                  米歇尔·莫纳汉 Michelle Monaghan ...Violet +ID\u <?  
                  彼特·丁克拉奇 Peter Dinklage ...Eddie b,^Gj]7  
                  Josh Gad ...Ludlow ~\mh\a&  
                  Matt Lintz ...Matty $'%GB $.  
                  Brian Cox ...Admiral Porter 4SZ,X^]I>  
                  Sean Bean ...Corporal Hill (SAS Officer) ~g\~x  
                  Jane Krakowski ...First Lady Jane Cooper HJ]xZ83pC  
                  Dan Aykroyd ...1982 Championship MC b!P,+!<  
                  Affion Crockett ...Sergeant Dylan Cohan RbX9PF"|+  
                  Lainie Kazan ...Mickey Lamonsoff BYB4- ,  
                  Ashley Benson ...Lady Lisa 9F>`M  
                  Denis Akiyama ...Professor Iwatani >U vP/rp  
                  Tom McCarthy ...Michael the Robot   "esuLQC  
:$$~$P  
$<v4c5r]O  
◎简  介 4<i#TCGex3  
cuN9R G  
     F qH) )2  
  作为1980年代的小孩,山姆·布伦纳(亚当·桑德勒 Adam Sandler 饰), 威尔·库珀(凯文·詹姆斯 Kevin James 饰),勒德洛·莱门梢夫(乔什·加德 Josh Gad 饰)和“火焰爆破枪”埃迪·普兰特(彼特·丁克拉奇 Peter Dinklage 饰)拯救过世界成千上万次——在游戏机室里二十五美分玩一次的游戏里。现在,他们必须得真刀真枪作战了。 ENZym  
a+E 8s7C/D  
  在像素大战中,当外星人发现经典街机游戏视频流并且误以为这是在宣战后,他们袭击了地球,运用游戏作为他们袭击策略——而现在美国总统库珀必须召集他旧日的街机战友一起拯救世界免受吃豆人、大金刚、小蜜蜂、蜈蚣还有太空入侵者毁灭。加入他们一起战斗的,还有一名向街机斗士提供外星人战斗专用武器的专家,维奥莱特·冯·帕顿中校(米歇尔·莫纳汉 Michelle Monaghan 饰)。他们的唯一目标是,战胜8比特像素外星人,保卫地球…… "V' r}>  
$@L;j  
花絮 YVMvT>/,  
1 pVw,}  
.根据2010年短片《像素入侵纽约城》改编。短片只有两分半钟,导演帕特里克·让是一家法国公司计算机绘图师,放到网上后一夜之间点击率过百万,之后便被好莱坞多家制片厂所相中。 zR<{z  
},8|9z#pyB  
.很多工作室都想把帕特里克·让的概念拍成电影,而让选择桑德勒是因为“我看过他很多电影,比如《狂野之爱》和《滑稽人物》。我们第一次会面也很棒,我可以感觉到他们对这部电影的热情和渴望。” kG /1  
4 neZw'm  
.桑德勒回忆起自己第一次看到短片的情形,“当时我在办公室,看完后激动不已,马上就觉得这能拍成一部电影——这是一种怀旧情感,很酷。看到大金刚和所有你童年的小伙伴攻占城市,太有趣了。” N;3!oo4  
K,g6y#1"  
.为了搞定吃豆人以及其他角色的版权问题,剧组花费了很大的功夫。演员米歇尔·莫娜汉开玩笑说,和所有的游戏角色达成交易比任何一个演员都要更难。 6TW<,SM  
.b,\.0N  
.哥伦布希望这部电影能够触到观众心灵,骚到观众痒处,给观众带来视觉震撼。他说:“这是一部缅怀80年代的片子,是一封寄给80年代的情书。” 3+Lwtb}XPF  
v WXo#  
.哥伦布形容影片的配乐风格类似于安培林娱乐公司(Amblin Entertainment,斯皮尔伯格的制片公司),诸如《回到未来》,“我们想要营造的就是那种怀旧的感觉和气氛。” 05 6K)E  
uVqc:Q"  
.据说,影片的设定借鉴了动画片《飞出个未来》(Futurama)2002年播出的《Anthology Of Interest II》(第八季第四集)中的情节。合作。 !igPyhi,hl  
ww{k_'RRJ  
.岩谷教授(Professor Iwatani)这个角色的原型是现实中的岩谷彻(Toru Iwatani),一位日本游戏设计师,他是经典的《吃豆人》游戏的创造者。。 Yh1</C  
jA1S|gV  
.影片中显示的游戏最高分是以现实为基础。吃豆人最高分为满分333万3360分,最先由Billy Mitchell完成,片中的Sam也达到了满分。 (2;Aqx5i  
SD^::bH  
.Ludlow Lamonsoff的Centipede得分为1638万9548分,比现实中世界上最高分纪录持有者Jim Schneider高出一分。Eddie Plant《大金刚》得分为106万8100分,比前世界记录保持者Hank Chien高出100分。 nk|(cyt)  
~T@E")uR  
.彼特·丁拉基饰演的Eddie Plant是以真实的游戏高手Billy Mitchell为原型,他是1982年到2000年间《大金刚》游戏最高得分纪录保持者。 f! +d*9  
&u:U"j  
.乔什·盖德2013年出演《定制伴郎》,他的角色声称“吃豆人”是他最喜欢的超级英雄,不过在本片中,吃豆人变成了毁灭人类的大坏蛋。 j EbmW*   
%bP+P(vZ  
.《像素大战》已经是亚当·桑德勒与凯文·詹姆斯第九次在电影或者电视作品中合作。 ;j T{< Y  
(Iv@SiZf(  
.詹妮弗·安妮斯顿拒绝了在本片中饰演女主角,她的位置由米歇尔·莫娜汉接替。 &- p(3$jn7  
=_OJ 7K'  
获奖记录 pss')YP.  
@>z.chM;  
青少年选择奖(2015;第17届) 4M"'B A<  
提名 ) P7oL.)  
·青少年选择奖-最佳夏日电影男星亚当·桑德勒 Adam Sandler EZWWv L  
J)g +I  
e[fld,s  
%;wD B2k*  
Video s3Bo'hGxG  
ID                                       : 1 s {*rBX8N  
Format                                   : AVC f:8!@,I  
Format/Info                              : Advanced Video Codec sB0]lj-[Un  
Format profile                           : High@L4.1 Ks3YrKk;p  
Format settings, CABAC                   : Yes Z&@P<  
Format settings, ReFrames                : 5 frames `$"{-  
Codec ID                                 : V_MPEG4/ISO/AVC  =glG |  
Duration                                 : 1h 45mn .&u @-Vm  
Bit rate                                 : 9 711 Kbps `_DA!  
Width                                    : 1 920 pixels nVpDjUpN  
Height                                   : 808 pixels M\ wCZG  
Display aspect ratio                     : 2.40:1 `m V(:  
Frame rate mode                          : Constant W<#Kam:8e  
Frame rate                               : 23.976 fps mb'{@  
Color space                              : YUV h1'm[Y  
Chroma subsampling                       : 4:2:0 e9\_H=t+  
Bit depth                                : 8 bits a{e1g93}  
Scan type                                : Progressive 'QpDx&~QP  
Bits/(Pixel*Frame)                       : 0.261 5/hgWG6.t  
Stream size                              : 7.03 GiB (85%)  zW?=^bE  
Title                                    : Pixels.2015.1080p.BluRay.x264.DTS-RARBG lNe5{'OrO  
Writing library                          : x264 core 148 r2597 e86f3a1 iqF|IVPoi  
Encoding settings                        : cabac=1 / ref=5 / deblock=1:0:0 / analyse=0x3:0x133 / me=umh / subme=7 / psy=1 / psy_rd=1.00:0.00 / mixed_ref=1 / me_range=16 / chroma_me=1 / trellis=1 / 8x8dct=1 / cqm=0 / deadzone=21,11 / fast_pskip=0 / chroma_qp_offset=-2 / threads=18 / lookahead_threads=3 / sliced_threads=0 / nr=0 / decimate=1 / interlaced=0 / bluray_compat=0 / constrained_intra=0 / bframes=3 / b_pyramid=2 / b_adapt=1 / b_bias=0 / direct=1 / weightb=1 / open_gop=0 / weightp=2 / keyint=250 / keyint_min=23 / scenecut=40 / intra_refresh=0 / rc_lookahead=40 / rc=2pass / mbtree=1 / bitrate=9711 / ratetol=1.0 / qcomp=0.60 / qpmin=0 / qpmax=69 / qpstep=4 / cplxblur=20.0 / qblur=0.5 / ip_ratio=1.40 / aq=1:1.00 Ut%{pc 7^F  
Language                                 : English 3?k<e  
Default                                  : Yes =BD |uIR  
Forced                                   : No ^S|}<6~6b  
2L.6!THG  
Audio >N0L  
ID                                       : 2 Q*f0YjH!  
Format                                   : DTS "-HWw?rx/  
Format/Info                              : Digital Theater Systems zo ]-,u  
Mode                                     : 16 1yS: `  
Format settings, Endianness              : Big l?X)]1  
Codec ID                                 : A_DTS =FAIbM>u  
Duration                                 : 1h 45mn 2`V0k.$?p  
Bit rate mode                            : Constant ND3|wQ`M0  
Bit rate                                 : 1 509 Kbps '~{kR=+  
Channel(s)                               : 6 channels 'O 7>w%#  
Channel positions                        : Front: L C R, Side: L R, LFE -|:mRAe  
Sampling rate                            : 48.0 KHz d|sf2   
Bit depth                                : 16 bits Co/04F.  
Compression mode                         : Lossy *y~~~ 'J/  
Stream size                              : 1.12 GiB (13%) 8y4t9V  
Title                                    : Pixels.2015.1080p.BluRay.x264.DTS-RARBG wO]H +t  
Language                                 : English jU{~3Gn?  
Default                                  : Yes F\<{:wu   
Forced                                   : No u&j_;Y!6  
BWkT Qd<t  
Text #1 !#4b#l(e6  
ID                                       : 3 Tog'3k9Uw  
Format                                   : UTF-8 H96|{q=  
Codec ID                                 : S_TEXT/UTF8 Z>.('  
Codec ID/Info                            : UTF-8 Plain Text -S%Uw  
Title                                    : FORCED 8&y#LeM1TT  
Language                                 : English DLoH.Fd  
Default                                  : Yes (I#3![q  
Forced                                   : Yes .bNG:y>  
3oPyh $*  
Text #2 C|S~>4`  
ID                                       : 4 2zkO s:  
Format                                   : PGS Hw,@oOh.  
Muxing mode                              : zlib 0>ce~KU  
Codec ID                                 : S_HDMV/PGS Ime"}*9  
Codec ID/Info                            : Picture based subtitle format used on BDs/HD-DVDs ;y-sd?pAk  
Title                                    : SDH be HEAQ  
Language                                 : English ` c"  
Default                                  : No UYhxgPGsj  
Forced                                   : No 5p~hUP]tT  
5a5)hmO RB  
Text #3 C~04#z_$  
ID                                       : 5 Q6 xA@"GJ  
Format                                   : PGS "-Wb[*U;  
Muxing mode                              : zlib x !n8Wx  
Codec ID                                 : S_HDMV/PGS dQy K4T  
Codec ID/Info                            : Picture based subtitle format used on BDs/HD-DVDs ]l, ,en5V  
Language                                 : English P[tYu:  
Default                                  : No Cl!9/l?z  
Forced                                   : No >+):eB L  
\r"gqv)^  
Menu Gr#WD=I-}  
00:00:00.000                             : en:00:00:00.000 /y(0GP4A  
00:04:54.044                             : en:00:04:54.044 my#\(E+  
00:10:21.663                             : en:00:10:21.663 oXU b_/  
00:14:51.766                             : en:00:14:51.766 *D.Ajd.G  
00:19:51.816                             : en:00:19:51.816 /i# ";~sO  
00:26:19.870                             : en:00:26:19.870 2OQ\ z;s  
00:32:57.809                             : en:00:32:57.809 (%mV,2|:20  
00:40:35.475                             : en:00:40:35.475 Fm*npK  
00:47:40.483                             : en:00:47:40.483 h J0U-m  
00:52:33.275                             : en:00:52:33.275 YrV@k*O*  
00:58:56.074                             : en:00:58:56.074 'b y+hXk  
01:05:07.695                             : en:01:05:07.695 @w`wJ*I4,  
01:09:23.076                             : en:01:09:23.076 eze%RjO}  
01:18:13.022                             : en:01:18:13.022 6q6xqr:W  
01:27:54.186                             : en:01:27:54.186 %"eR0Lj+zq  
01:33:53.002                             : en:01:33:53.002 I2Imb9k~B  
|0Xf":  
@& Bh!_TWc  
%S'+x[ 4W  
本部分内容设定了隐藏,需要回复后才能看到

只看该作者 1 发表于: 2015-11-14
本部分内容设定了隐藏,需要回复后才能看到